This file was generated by Ched 2.7.0.0.
#TITLE ""
#ARTIST ""
#DESIGNER ""
#DIFFICULTY 0
#PLAYLEVEL
#SONGID ""
#WAVE ""
#WAVEOFFSET 0
#JACKET ""
#REQUEST "ticks_per_beat 480"
#00002: 4
#BPM01: 117
#00008: 01
#TIL00: ""
#HISPEED 00
#MEASUREHS 00
#00512:1414
#00518:00140000
#00614:00140000
#0061a:14
#00618:0014
#00712:14
#00718:00140000
#00714:0014
#0081a:14
#00818:0014
#00814:00140000
#00812:00000014
#00810:41
#01014:14
#01018:00140000
#01012:0014
#01114:00140000
#0111a:14
#01118:0014
#01112:00000014
#02014:00140000
#02018:0014
#02012:00000014
#0201a:24
#0211a:14
#02116:00140000
#02112:0014
#0371a:14
#03714:00240024
#03818:14
#03812:00240024
#0391a:14
#03914:00240024
#00414:00140000
#0041a:1414
#00918:14
#00914:00140000
#0091a:0014
#0121a:14
#01218:0000001400000000
#01314:14
#01312:0000001400000000
#01418:14
#0141a:0000001400000000
#01410:41
#01512:14
#01514:0000001400000000
#01618:14
#01619:00340000
#01714:14
#01713:00340000
#0181a:14
#01819:00340000
#00114:0000000014340000
#00119:00240000
#02318:0026002600001600
#02312:26262600
#02418:00140000
#02414:0014
#0241a:00000014
#02412:14
#02512:14
#02516:00140000
#0251a:0014
#02714:00140014
#02718:1414
#02218:14
#02219:00340000
#0221a:0034
#02210:41
#02614:14
#02613:00340000
#02612:0034
#02818:14000016
#02812:00160000
#02810:41
#0401a:0014
#04018:24
#04112:00140000
#04116:0014
#0411a:00000014
#04218:00140000
#04214:0014
#0421a:00000014
#04212:24
#0421f:21
#04312:14
#04316:00140000
#0431a:0014
#04310:41
#04512:0026002600001600
#04518:26262600
#04614:00140000
#04618:0014
#04612:00000014
#0461a:14
#0471a:14
#04716:00140000
#04712:0014
#04918:00140014
#04914:1414
#04414:14
#04413:00340000
#04412:0034
#04818:14
#04819:00340000
#0481a:0034
#05414:00000014
#0541a:24
#05412:24
#05212:14
#0521a:00140000
#05214:0014
#05218:00000014
#05312:14
#0531a:00140000
#05314:0014
#05318:00000014
#03018:00000016
#03012:00160000
#02918:00000016
#02912:00160000
#01913:14
#01919:14
#0331f:11
#05012:2424
#05018:00240000
#05010:41
#00019:00240000
#00014:00000024
#0511a:2424
#05114:00240000
#0551a:2424
#05514:00240000
#00219:00240024
#03113:0034
#03112:00000036
#0125a:64
#01258:0000002400000000
#01354:64
#01352:0000002400000000
#0145a:0000002400000000
#01458:54
#01554:0000002400000000
#01552:54
#01658:54
#01754:54
#0185a:54
#00154:0054
#00252:14
#0095a:0014
#01052:0014
#02358:00000016
#02654:54
#02258:54
#04058:54
#0405a:0024
#04552:00000016
#04454:64
#04858:64
#05052:0054
#0515a:0064
#0545a:00140000
#05452:00140000
#0555a:0064
#001340:0000000014340000
#002320:24
#003340:14
#003320:00000024
#0123a0:14000024
#012380:0000005400000000
#013340:14000024
#013320:0000005400000000
#014380:14000024
#0143a0:0000005400000000
#015320:14000024
#015340:0000005400000000
#016380:14
#016390:00340000
#0163a0:0024
#017340:14
#017330:00340000
#017320:0024
#0183a0:14
#018390:00340000
#018380:0024
#022380:14
#022390:00340000
#0223a0:00003424
#026340:14
#026330:00340000
#026320:00003424
#031330:00143400
#031320:00000036
#032320:26
#033380:14
#0333a0:0024
#034340:14
#034320:0024
#0353a0:14
#035380:0024
#036320:14
#036340:0024
#040380:14
#0403a0:0054
#041380:24
#044340:14
#044330:00340000
#044320:00003424
#048380:14
#048390:00340000
#0483a0:00003424
#050320:0014
#050340:00000024
#0513a0:0014
#051380:00000024
#0543a0:14240000
#054321:14240000
#0553a1:0014
#055381:00000024
#056321:14240000
#056351:00001424
#057381:14240000
#0573a1:0000000014343434
#0583a1:24
