This file was generated by Ched 2.6.4.0.
#TITLE ""
#ARTIST ""
#DESIGNER ""
#DIFFICULTY 0
#PLAYLEVEL
#SONGID ""
#WAVE ""
#WAVEOFFSET 0
#JACKET ""
#REQUEST "ticks_per_beat 480"
#00002: 4
#BPM01: 103
#00008: 01
#TIL00: ""
#HISPEED 00
#MEASUREHS 00
#0001a:14
#00114:14
#00218:14
#00518:14
#00614:14
#00918:14
#00912:0014
#01018:14
#01014:0014
#01010:41
#00814:0014
#01212:14
#01218:0014
#01314:14
#0131a:0014
#01414:14
#01418:0014
#02212:0016
#02218:16
#02012:00160000
#02018:16
#01718:00160000
#01712:1616
#01612:00160000
#01618:2616
#01610:41
#02118:00160000
#02112:16
#02413:14
#02410:41
#02519:14
#02613:14
#02719:14
#02713:0014
#03214:0014
#03218:24
#03319:14
#03313:0014
#0341a:14
#03412:0014
#04718:14
#04714:0014
#04612:0014
#04610:0041
#0481a:14
#04318:16000026
#04312:0026
#04018:00000016
#04012:0016
#03712:16000016
#03718:0016
#03710:0041
#03618:00000016
#03612:0026
#0361f:0021
#03818:16
#04112:00000016
#04118:0016
#04212:0016
#05018:0014
#05118:0014
#05114:14
#05414:0014
#05518:14
#0281f:11
#04412:26
#0451a:3434
#04912:3434
#00410:41
#003320:14
#004320:24
#0073a0:1434
#0083a0:24
#0113a0:1424
#015320:1424
#018380:1626
#019320:1626
#020380:00001626
#021320:00001626
#023380:1626
#028390:1434
#029390:24
#030330:1434
#031330:24
#035380:1424
#038320:0016
#039320:26
#039380:0016
#040380:26
#041320:16260000
#042380:16260000
#0443a0:0014
#0453a0:3434
#046380:24
#048320:0014
#049320:3434
#050340:24
#052320:0014
#053320:24
#0533a0:0014
#0543a0:24
#055340:00001434
#056340:34240000
