This file was generated by Ched 2.6.4.0.
#TITLE ""
#ARTIST ""
#DESIGNER ""
#DIFFICULTY 0
#PLAYLEVEL
#SONGID ""
#WAVE ""
#WAVEOFFSET 0
#JACKET ""
#REQUEST "ticks_per_beat 480"
#00002: 4
#BPM01: 103
#00008: 01
#TIL00: ""
#HISPEED 00
#MEASUREHS 00
#0001b:130000000000001300000000
#00012:13130000
#00015:000000130000000000130000130000000000130000000013
#00018:000013000000000000000013000000000013000000000000
#00118:130000130000000000000013000000000000130000000000
#00115:000000000000130000000000130000000013000000000000
#0011b:000000000000001300000000
#00112:0000001300000000
#00212:130000000000001300000000
#0021b:13130000
#00215:000013000000000000000013000000000013000000000000
#00218:0013001313001300
#00315:001400000000000000140000
#00318:001400000000
#00313:00140000
#00316:001400
#00319:000000000014000000000000
#00317:000000000000001400000000
#0031a:000014
#00312:24
#00314:0024
#0041b:130000130000001300000000
#00412:13230000
#00415:000000130000000000130000130000000000000000000013
#00418:000013000000000000000013000000000000230000000000
#00410:41
#00518:130000130000000000000013000000000000230000000000
#00515:00231300
#0051b:000000130000001300000000
#00512:0000001300000000
#00612:130000130000001300000000
#0061b:13230000
#00618:0013001313000000
#00615:000013000000000000000013000000000000230000000000
#01916:1313
#0191b:000000000000000000000013000000000000000000000000
#01914:0013001300000000
#01918:000000000000000013000000000000000000000000130000
#01912:00130000
#01917:000000000013000000000000000000000000000000000000
#01919:001300000000000000000000
#01915:000000000013
#0181b:000000000000230000000000000000000000230000000000130000000000000000130000000000000000000000001300
#01817:13130000
#01816:0013001300000000
#01812:23000000230000001300001300000000
#01815:0000000000130000
#01818:0000000000130000
#0221b:000000130000001300000000
#02212:13130013
#02218:000000000000000000000013000000000000000013000013
#02215:0000001300000000
#0231b:000000000013000000000013000000000000130000000000
#02315:00131300
#02318:001300
#02312:000013000000000000130000000000130000000000000000
#02112:130000000000000000000013000000000013000000000000
#02115:001300130000001300000000
#0211b:0000000000130013
#02118:1313001313001300
#02015:000000000000000013000013000000000013000000000000
#02018:0000001313000000
#02012:001300000000000000000000
#0201b:000000000013000000000000000000000013000000000000
#0241b:130000000000130000000013000000000000130000000000
#02415:130000000000230000000000000013000000000000130000
#02418:000000130000000013000000000000130000000000000000
#02412:0013000000002300
#02410:41
#02512:130000000000130000000013000000000000130000000000
#02518:130000000000230000000000000013000000000000130000
#02515:000000130000000013000000000000130000000000000000
#0251b:0013000000002300
#0261b:130000230000001300230000
#02612:2313000023001300
#02618:000000130000000013000013000000000000000000000000
#02615:0000131300130000
#02617:0000000000000013
#0271a:14000024
#02712:14000024
#02716:0000000000140000
#02718:000000240024000000240024000000000000000000000000
#02714:000024240024240000000000
#03517:00120000
#03518:000000000000000000000000000000000000000000000012
#03516:143434343434003434343434000000000000000000000000
#03514:0028
#03616:1200000000140000
#03617:0012120000000000
#03619:001400
#03613:0000001400000000
#0361a:00002414
#03614:000000000014
#03618:0000000000000014
#03612:000000000000000000000000000000000000000000000014
#0361f:0021
#04016:1400000000000014
#04018:001400
#04014:0000001400000000
#0401a:000000000000000000000000000014000000000014000014
#04012:000000000000000000000000000000000014000000000000
#03912:000000000000000000140000000000000000000000001400000000000000000000000000000000000000000000001400
#03918:1414000000140014
#03914:240000140000000000000000000014000000000014000000
#0391a:00140000000000000000000014000000
#03916:000000140000000000140000000000000000000000000000140000000000000000001400000000000000000000000000
#0411a:000000000000000000000000140014000000000000140000
#04112:000000000014000000000000140000000000000000000014
#04116:140000000014000000000000000000140000140000000000
#04114:000000000014
#0421a:0014001400001400
#04212:000000000014000000000000140000000000140000000000
#04214:000014000000000000000000000000000000000000000024
#04218:1400000000000024
#04216:00140000
#04612:00001313
#0461b:000000000013
#04610:0041
#04712:13130000
#0471b:00000013
#04715:0000000000000013
#0481b:13130000
#04812:000013000000000000130000
#04818:000000000013
#04912:13130000
#0491b:00000013
#04915:000000000013
#0501b:1300130000000013
#05018:0000001300000000
#05015:0000001300000000
#05118:0000001300000000
#05112:13
#05115:0013
#0511b:0013
#05117:00000013
#0541b:00001313
#05412:00001313
#05415:000000000000000000000000000000130000000000000013
#05418:000000000000000000000000000013000000000000130000
#05416:12
#05516:000000000000001400001400
#05512:001300000000000014240000
#0551a:000000000000240000000014
#0551b:13
#05518:000000000013000000000000000000000000000000000000
#05515:00130000
#05616:001400002400000000000000
#05612:000014240000000000000000
#0561a:240000000024000000000000
#01215:000000130000000000000013000000000000000000130000
#0121b:000000000013000000000000000000000000000000000000
#01212:1300000000130000
#01218:000000000000000000130000000000000013000000000000
#01318:000000130000000000000013000000000000000000130000
#01312:000000000013000000000000000000000000000000000000
#0131b:1300000000130000
#01315:000000000000000000130000000000000013000000000013
#01418:130000000000000000000000130000000000000000001300000000000000000000130000000000000000000000000000
#0141b:000000130000000000000000000000000000000000000000000000000000130000000000000000000000000000001300
#01412:00001300000000000013000013000000
#01415:00000013000000001300000000000000
#01515:00121212
#01519:0000000000120012
#0371a:000000000014000000140000000000000000000000000014
#03716:1414140000140000
#03712:00001414
#03718:000000000014
#03714:0000000000000014
#03710:0041
#03816:1414140014141414
#03812:000000000014000000140000240000000000240000000000
#0381a:0000000000240024
#02816:12
#02814:00120000
#02818:0012
#0281a:00000012
#0281f:11
#02916:12
#02912:0012
#03018:12
#0301a:00120000
#03016:0012
#03014:00000012
#03212:12
#03216:0000001200000000
#0321a:14141414
#0331c:12
#03318:0000001200000000
#03312:14141414
#03316:0000000000000014
#0441a:0014000000000000
#04416:2400001400000000
#04412:0000001400000000
#04418:00140000
#04417:0014
#04413:0014
#04414:00240000
#0451a:14
#04516:14
#0341a:1414000000000000
#03412:0000000000001414
#03414:0000141400000000
#03418:0000000014140000
#01612:0000000000000013
#01617:0013000013000000
#0161b:230000000000130000000000000000000013000000000000
#01616:000000000000000013000000000000130000000000000000
#01619:0000001300000000
#01614:000000000000000000000013000000000000000000000000
#01610:41
#0171b:00131300
#01712:000000000000000013000000000000130000000000000000
#01717:000000000000000000130000000000000013000000000000
#01716:130000000000000000000013000000000000000000130000
#00716:001400001400001400001400
#00717:001400000000
#00718:000000000014000000000000
#00719:000014
#0071a:000000000000000000000014
#00715:24
#00714:00240000
#00713:0024
#00712:00000024
#00815:000000000000001300130000
#00818:000000000000000000000000000000000013000000000013
#00918:0000001300000000
#00915:000000000000000000000013000000000000000000000000
#00912:00000013
#01012:130000000000000000000013000000000000130000000000
#01015:0013000000130013
#01018:000000000013000000000000000000000013000000000013
#0101b:000000000000001300001300
#01010:41
#01112:000000000013000000000000000000000000000000000000
#01115:0000001300000000
#0111b:000000000013000000000000000000000000000000000000
#01118:0000001300000000
#0521b:00230000
#05215:002300
#05218:0000002300000000
#05212:000000000000000000000023000000000000000000000000
#0311a:24242400
#03116:002400002400002400000000
#03112:000024000024000024000000
#03114:000000000000000000240024
#03118:000000000024
#0431a:240000000000240000000000240000000024000024000000
#04316:000024000000000000000000000000000000240000240000
#04312:000000002400002400000000
#04318:0000002400000000
#04314:000000000000000000000024000000000000000000000000
#00355:00000014
#01956:0013
#03557:00220000
#03556:64
#03554:0018
#04056:14
#0405a:000000000000006400000000
#04052:000000000000000000000000000000000054000000000000
#01258:000000000000000000000000000000000053000000000000
#01355:000000000000000000000000000000000063000000000000
#01458:53000000000000000000002300000000
#0145b:000000230000000000000000000000000000000000000000000000000000630000000000000000000000000000006300
#01452:00005300330000000023000053000000
#01455:00000023000000006300000000000000
#02052:005300000000000000000000
#0205b:000000000063000000000000000000000063000000000000
#02058:0053
#02055:000000000000000000000000000000000063000000000000
#02158:0053000000005300
#0215b:0000000000000023
#02155:00630000
#0225b:000000000000006300000000
#02352:000053000000000000000000000000230000000000000000
#02355:0063
#02856:62
#02854:00220000
#02858:0052
#0285a:00000022
#02956:62
#02952:0022
#03058:52
#0305a:00220000
#03056:0062
#03054:00000022
#03252:52
#03256:0000002200000000
#0335c:62
#03358:0000002200000000
#03756:54640000
#03752:0014
#03958:5454440000000000
#0395a:00240000000000000000000000000000
#03956:00240024000000000000000000000000
#03954:5454440000000000
#03952:00000024000000000000000000000000
#04156:640000000054000000000000000000640000000000000000
#04152:000000000054000000000000000000000000000000000000
#04256:00540000
#0425a:0000002400000000
#0445a:0024000000000000
#04456:5400002400000000
#04452:0000002400000000
#04458:00640000
#04457:0054
#04453:0054
#04454:00640000
#0455a:24
#04556:24
#04755:0000000000000063
#04852:002300000000
#04858:000000000053
#04955:000000000063
#05055:0000006300000000
#05152:53
#05155:0063
#0515b:0063
#05157:00000023
#0465b:000000000063
#01657:0053
#0165b:130000000000000000000000000000000063000000000000
#0175b:0063
#01757:000000000000000000000000000000000053000000000000
#0185b:00000000000000006300002300000000
#01852:00000000000000005300002300000000
#01855:0000000000630000
#01858:0000000000530000
#01152:000000000053000000000000000000000000130000000000
#01155:0000006300000000
#0115b:000000000063000000000000000000000000130000000000
#01158:0000005300000000
#0365a:0014
#04356:000064000000000000000000000000000000000000640000
#04352:000000000000005400000000
#03856:64540000
#004350:000000000000000000000000000000000013230000000000
#005320:000000000000000000000000000000000013230000000000
#006380:000000000000000000000000000000000013230000000000
#008320:13
#008350:0023000000000000
#0083b1:0013000000000000
#008381:00230000
#008350:00130000
#008320:000000000000000000330023000000000000000000000000
#008381:000000000000000000000013000000000000000000000000
#0083b1:000000000000002300000000
#009351:13
#009321:0023000000000000
#009380:0013000000000000
#0093b0:00230000
#009321:00130000
#009351:0000002300000000
#009381:00001323
#0093b1:0000000000330000
#0103b1:1323000000000000
#010351:0000132300000000
#0103b0:0000001300000000
#010380:000000000000000000000023000000000000000000000000
#011320:130000000033000000000000000000000000230000000000
#011350:0000003300000000
#0113b1:000000000013000000000000000000000000230000000000
#011381:0000003300000000
#0123b1:13
#012381:0023000000000000
#012351:00130000
#012321:0000002300000000
#0123b1:0013
#012381:0000000000230000
#012381:000000000000000000000000000000000013000000000000
#0123b1:0000000000000023
#013321:13
#013351:0023000000000000
#013381:00130000
#0133b1:0000002300000000
#013321:0013
#013351:0000000000230000
#013351:000000000000000000000000000000000013000000000000
#013321:0000000000000023
#014381:1323000000000000
#0143b1:00530000000000000000000000000000
#014320:0013230000000000
#014350:00000053000000000000000000000000
#014350:0000000013230000
#014320:00000000000000000053000000000000
#0143b1:0000000000132300
#014381:00000000000000000000005300000000
#014320:00000013
#014350:0000000000000023
#0143b1:000000000000000000000000000000000000000000130033
#015371:0023
#016361:13230000
#016321:0033000000000000
#016371:0013
#0163b1:0000000000230000
#0163b1:000000000000000000000000000000000013000000000000
#016371:0000000000000023
#0173b1:13
#017371:0023000000000000
#017320:0013000000000000
#017360:00230000
#0173b0:0013
#017370:0000000000230000
#017370:000000000000000000000000000000000013000000000000
#0173b0:0000000000000023
#0183b0:00000000000000001300005300000000
#018380:0000000000332300
#018321:00000000000000001300005300000000
#018351:0000000000332300
#019381:000000000000000000132300
#020381:132300000000000000000000
#020320:001300000000000000000000
#020350:000000000023000000000000000000000000000000000000
#0203b1:000000000013000000000000000000000000000000000000
#020381:002300
#020381:0013
#0203b1:0000000000230000
#020350:000000000000000000000000000000130033000000000000
#020320:0000000000000023
#0203b1:000000000000000000000000000000000013000000000000
#020381:0000000000000023
#021381:0013000000000000
#0213b1:00230000
#021350:00130000
#021320:0000002300000000
#021380:00000013
#0213b0:0000000000000053
#022380:23
#022350:000000000000132300000000
#0223b1:000000000000001300000000
#022381:00000023
#022351:000000000000000000000000000000000000000000130023
#023321:001300000000000000000000
#023351:000000000023000000000000000000000000000000000000
#023351:00001323
#023321:0000000000530000
#024351:000000000000000000130023000000000000000000000000
#025381:000000000000000000130023000000000000000000000000
#028361:1222
#028341:00520000
#028380:0012
#0283a0:00000052
#029380:22
#029361:12
#029321:0052
#030361:22
#030380:1222
#0303a0:00520000
#030361:0012
#030341:00000052
#031361:22
#032321:12000022
#032361:0000005200000000
#0333c1:12000022
#033381:0000005200000000
#035361:143434343434003434343434000000000000000000000000
#035371:00320000
#035341:0028
#036361:00001424
#036321:0000000000340000
#037361:14
#0373a1:0024000000000000
#037361:00140000
#037321:0000002400000000
#037361:00001424
#0373a1:0000000000340000
#038361:14
#038321:0024000000000000
#038361:00140000
#0383a1:0000002400000000
#039341:1434240000000000
#039361:00540000000000000000000000000000
#039321:00000054000000000000000000000000
#039380:1434240000000000
#0393a0:00540000000000000000000000000000
#039360:00000054000000000000000000000000
#040340:000000142400000000000000
#040340:000000000000142400000000
#0403a1:000000000000001400000000
#040361:000000000000000000000000000000000024000000000000
#040320:000000000000000000000000000000000014000000000000
#040360:000000000024
#041360:14
#041320:0024000000000000
#041361:000000140034000000000000000000000000000000000000
#0413a1:0000002400000000
#041320:000000000014000000000000000000000000000000000000
#041360:0000002400000000
#041360:0000000000140000
#041320:00000024
#042360:00142400
#0423a0:0000005400000000
#0433a0:142400000000000000000000
#043361:001400000000000000000000
#043321:00240000
#043321:000000000000001400000000
#043361:000000000000000000000000000000000024000000000000
#043361:0000000000000014
#044321:24
#044360:1400005400000000
#0443a0:0054000000000000
#044380:00340000
#044370:0034
#0453a0:54
#046360:00240000
#044341:00140000
#044321:0000005400000000
#044331:0034
#045361:54
#046321:00240000
#0463b1:000000000000130000333300
#046381:0000000000330000
#047381:3300003323000000
#0473b1:0033330000000000
#047320:0013
#047350:0000000000003333
#048320:005300000000
#048350:0023
#048381:000000000000130000333300
#0483b1:0000000000330000
#0493b1:3300003323000000
#049381:0033330000000000
#049350:000000000000130000333300
#049320:0000000000330000
#050320:33330000
#050350:0033003300000000
#051320:33
#051350:0033
#052320:00230000
#0503b1:0013
#050371:00000023
#051371:13
#0513b1:00230000
#0513b1:0013
#051371:00000053
#0523b1:23
#052380:000000000000000000000000120000000032000000000000
#0523a0:0000000000000032
#0533a0:22
#053361:120000000032000000000000000000000000000000000000
#053341:0000003222000000
#053380:0000000012000032
#0533a0:000000000000000000000000000000000032000000000000
#054380:22
