This file was generated by Ched 2.6.4.0.
#TITLE ""
#ARTIST ""
#DESIGNER ""
#DIFFICULTY 0
#PLAYLEVEL
#SONGID ""
#WAVE ""
#WAVEOFFSET 0
#JACKET ""
#REQUEST "ticks_per_beat 480"
#00002: 4
#BPM01: 103
#00008: 01
#TIL00: ""
#HISPEED 00
#MEASUREHS 00
#0001b:13
#00012:1300001300000000
#00018:0013000000001300
#00015:000000000000130000000000000000000013000000000000
#00115:13000013
#0011b:0013000000000000
#00112:00130000
#00118:000000000000000000130000000000000013000000000000
#00318:001400000000001400000000
#00312:241400241400
#0031a:000000140014000000140000
#00314:001400
#0041b:13
#00412:13
#00418:000000130000000000130000000000000013000000000000
#00415:00230023
#00410:41
#0051b:13
#00518:0013000000002300
#00512:0000001300000000
#00515:000000000000230000000000000000000013000000000000
#01915:130000130000000000000000130000000000000013000000
#0191b:000013000000000000000013000000000000130000000000
#01912:0000131300000000
#01918:000000000013000013000000000000000000000000130000
#0181b:000000230000000000230000000000130000000000000013
#01818:13131300
#01815:0013001313000000
#01812:2300230000130000
#0221b:00130000
#02212:000000000000130000000000000000000000000000000013
#02218:000000000000000000000013000000000000000013000000
#02215:000000000000000000130000000013000000000000000000
#02115:000013000000000000000013000000000013000000000000
#02112:000000000000001300000000
#02118:1313000000130013
#0211b:00131313
#0271a:1424000000002400
#02712:1400002400002400
#02716:0000000000140000
#02718:000000000034000000000000000000000000000000000000
#02719:003400000000
#02714:000000000000000000000034000000000000000000000000
#02713:000000000034000000000000
#03616:12120000
#03618:000000120000000013000000240000000000000000130000
#03615:0000001300130000
#0361b:00000013
#03612:000000000000000000000000000000000000000013000013
#0361f:0021
#0401a:14
#04018:000000000000000013000000000013000000000000130000
#04015:000000000000000000130000000000000000000013000013
#04012:00130000
#03912:240000000000000000000014000014000000000000000014
#03918:0034000000001414
#03914:000000340000000000000000000000000014000014000000
#0391a:1400000014140000
#0421a:0000000000001424
#04212:13130014
#04218:000000000013000000000000000000000000000000000000
#0421b:001300000000000000000000
#04215:0013001300000000
#04214:000000000000000000000000000000000000000000000024
#0461b:00000013
#04618:0000000000000013
#04610:0041
#05012:0000000000000013
#05015:0013
#0511b:0000001300000000
#05112:0013
#05116:00000013
#05118:13
#05412:00000013
#05418:0000000000130013
#0541b:00000013
#05415:000000000000000000000000130000000000000000000013
#05514:000000240014
#0551a:000000000000000000000014
#05518:000000130000001400240000
#05512:000014
#05515:000000000013000000000000000000000000000000000000
#01215:000000000013000000000013000000000000000000000000
#01218:000000000000000000000000000000000013000000000000
#03818:000000000013000000000000140000000000140000000000
#03814:0000000000140014
#03815:13
#03812:00132424
#0381a:0000000000240024
#01415:130000000000000000000013000000000000000000000013
#01412:0013000000000000
#01418:0013
#0141b:0000000000130000
#04516:0000001400000000
#0441a:2414
#04417:00140000
#0321a:14140000
#03212:00001414
#03318:1400140000000014
#03314:00001414
#03412:1414000000000000
#0341a:0000141400000000
#03418:0000000000001414
#03414:0000000014140000
#01612:0013000000000000
#0161b:230000000000130000000000000000000013000000000000
#01618:0000001313000000
#01615:000000000000000013000013000000000000000000000000
#01610:41
#00718:001400000000000000000000
#00714:241400000000
#00713:000014241400
#00719:000000240014001400000000
#00712:000000000014
#0071a:000000000000000000240014
#00818:000000000000000000000000000000000000130000000013
#00815:000000000000000000000000000000000013000000000000
#00915:000000000000000000000013000000000000000000000000
#01018:000000000013000000000000000000000000000013000013
#0101b:000000000000000000000000000013000013000000000000
#01012:0000000000000013
#01015:0000000000131300
#01010:41
#01112:1300001300000000
#01115:000000000013000000000000000000000000000000000000
#00212:13
#0021b:1300001300000000
#00215:0013000000001300
#00218:000000000000130000000000000000000013000000000000
#01318:000000000013000000000013000000000000000000000013
#01315:000000000000000000000000000000000013000000000000
#01518:00001313
#01515:0000000000130013
#01712:130000000000130000000000000000000013000000000000
#0171b:0013000000000000
#01718:000000000000000013000013000000000000000000000000
#01715:0000001313000000
#02015:000013000000000000130000130000000000000000000000
#02018:000000000000000013000013000000000000000000000000
#02012:000000000000000000000000000000000013000000000000
#0231b:0000001300000000
#02315:0000130000130000
#02318:000000000013000000000000000000000000000000000000
#02312:0013
#04715:1300000000000013
#04718:0013000000000000
#04712:00000013
#04815:000000130000000000000000000000000000000013000000
#04818:13
#04918:000000000013
#05618:001400240000000000000000
#05612:001400000000
#0561a:000000000024000000000000
#05614:242400
#03512:14
#03516:000000343434143434343434000000000000000000000000
#03514:003400000000000000000000280000000000000000000000
#03515:003400000000000000000000
#03718:1300000000130000
#0371b:000000000000130000000000000000000000000013000013
#03714:0014
#03715:000000000013000000000000000000000000000000130000
#03712:00000013
#03710:0041
#04118:130000000000000000000000000013000000000013000013
#04115:0000000013130013
#0411b:000000000013000000000000000000000000000000000000
#00612:13
#0061b:13
#00615:000000130000000000130000000000000013000000000000
#00618:00230023
#02412:13230023
#0241b:1313
#02418:000000130000000013000000000000130000000000130000
#02415:000000000000000000130000000013000000000000000000
#02410:41
#0251b:13230023
#02512:1313
#02515:000000130000000013000000000000130000000000130000
#02518:000000000000000000130000000013000000000000000000
#02612:23132313
#0261b:13231323
#02618:000000130000000000130000000013000000000000000000
#02615:000000000000000013000000000000130000000000130000
#02814:12
#0281f:11
#0291a:12
#03014:12
#05218:0000232300000000
#05215:000000000000000023000023000000000000000000000000
#0311a:242400242400
#03112:002400000000002400000000
#03114:000000240024000000240024
#03118:000024000024
#04318:240000000000000000240000240000000024000024000000
#0431a:00240000
#04314:000000000000000024000024000000000000240000240000
#04312:002400000000002400000000
#0035a:00000014
#01955:0013
#0405a:14
#04058:000000000000005300000000
#01258:000000000000000000000000000000000053000000000000
#01455:630000000000000000000000000000000000000000000063
#01452:0053000000000000
#01458:0053
#0145b:0000000000630000
#02158:0053000000000023
#0215b:00630063
#04556:0000002400000000
#0445a:6464
#04457:00540000
#01658:0053
#0165b:130000000000000000000000000000000063000000000000
#01858:0053
#0185b:0000000000230000
#01855:0063
#01852:0000000000230000
#01152:5300005300000000
#01155:000000000063000000000000000000000000000000000000
#01156:00000013
#01355:000000000000000000000000000000000063000000000000
#01755:0063
#01752:130000000000000000000000000000000053000000000000
#02055:006300000000630000000000
#02052:000000000000000000000000000000000053000000000000
#02352:0053
#02355:0000000000230000
#02255:000000000000006300000000
#02252:000000000000000000000000000000000000000000000053
#04855:000000000063
#04958:000000000053
#05152:0053
#05156:00000023
#05158:53
#05055:0063
#03552:54
#03556:00240000
#03554:0018
#03758:53
#0375b:00630000
#03754:0014
#03855:63
#03852:00530000
#0395a:64
#03952:54
#03954:00140000
#03958:00140000
#04155:0000000000630000
#0415b:000000000063000000000000000000000000000000000000
#04158:53
#04252:00530000
#04255:0000002300000000
#02854:52
#0295a:62
#03054:52
#03658:0014
#000380:000000000000132300000000
#001350:000000000000132300000000
#002350:000000000000132300000000
#004320:000000000000132300000000
#005380:000000000000132300000000
#0063b0:000000000000132300000000
#008320:13
#008350:0023000000000000
#0083b0:000000130000002300000000
#008380:000000000000000000330033000000000000000000000000
#009350:13
#009320:0023000000000000
#009380:00130000
#0093b0:0000002300000000
#009380:00001323
#0093b0:0000000000330000
#010320:13
#010350:0023000000000000
#010350:00130000
#010320:000000000000000000330023000000000000000000000000
#011320:1300003300000000
#011350:000000000033000000000000000000000000000000000000
#011360:00000023
#012380:1323000000000000
#012380:00130000
#0123b0:0000002300000000
#0123b0:0000000013000023
#012380:000000000000000000000000000000330033000000000000
#013350:1323000000000000
#013350:00130000
#013320:0000002300000000
#013320:0000000013000023
#013350:000000000000000000000000000000330033000000000000
#014350:13230000
#014320:0033000000000000
#014380:00001323
#0143b0:0000000000330000
#014350:000000000000000000000000000000000000000000130033
#015320:00230000
#016380:0000000013000023
#0163b0:000000000000000000000000000000330033000000000000
#017350:0000000013000023
#017320:000000000000000000000000000000330033000000000000
#018380:00001323
#0183b0:0000000000330000
#018351:00001323
#018321:0000000000330000
#020351:133300000000000000000000
#020321:000000000023000000000000000000000000000000000000
#020351:0000000013000023
#020321:000000000000000000000000000000330033000000000000
#021381:0013002300000000
#0213b1:00330000
#0213b1:00000013
#021381:0000000000000053
#0223b1:23
#022351:000000000000133300000000
#022321:00000023
#022321:000000000000000000000000000000000000000000130033
#023351:002300000000000000000000
#023321:00001323
#023351:0000000000530000
#0273a1:0014000000000000
#027391:003400000000
#027381:000000000034240000000000000000000000000000000000
#027321:0000001400000000
#027331:000000000034000000000000
#027341:000000000000000000000034240000000000000000000000
#028341:12
#028361:0022
#0293a1:12
#029381:0022
#030341:12
#030361:0022
#035321:14
#035341:003400000000000000000000280000000000000000000000
#035351:003400000000000000000000
#035361:000000343434343434343434000000000000000000000000
#037381:13
#0373b1:0023000000000000
#0373b1:00130000
#037381:0000002300000000
#038351:13
#038321:0023000000000000
#038321:00130000
#038351:0000002300000000
#039321:14
#039341:0034240000000000
#0393a0:14
#039380:0034240000000000
#040380:000000000000133300000000
#0403b0:000000000000000000000000000000000023000000000000
#041380:1300002300000000
#0413b0:000000330033000000000000000000000000000000000000
#041350:0000000000130000
#041320:00000023
#042320:00132300
#042350:0000005300000000
#0443a0:1434
#044370:00340000
#045360:0000005400000000
#0463a0:00240000
#046350:0013
#046320:0000000000230000
#047320:00130000
#047350:0000002300000000
#047380:0013
#0473b0:0000000000230000
#0483b0:00130000
#048380:0000002300000000
#048320:0000000013330000
#048350:000000000000000000333300
#049320:3300002300000000
#049350:0033330000000000
#0493b0:0000000013330000
#049380:000000000000000000333300
#0503b0:3300002300000000
#050380:0033330000000000
#050350:0013
#050320:00000023
#051380:13
#0513b0:00230000
#051320:0013
#051360:00000053
#052320:23
#052380:0000000013000023
#0523a0:000000000000000000000000000000000033000000000000
#053350:1300002300000000
#053330:000000000033000000000000000000000000000000000000
#053380:0000000013000033
#0533a0:000000000000000000000000000000000033000000000000
#054380:23
#055380:132300000000000000000000
