This file was generated by Ched 2.6.4.0.
#TITLE ""
#ARTIST ""
#DESIGNER ""
#DIFFICULTY 0
#PLAYLEVEL
#SONGID ""
#WAVE ""
#WAVEOFFSET 0
#JACKET ""
#REQUEST "ticks_per_beat 480"
#00002: 4
#BPM01: 103
#00008: 01
#TIL00: ""
#HISPEED 00
#MEASUREHS 00
#00018:130016000000130000000000000000000000000000000013
#00012:13131600
#00015:000000160000000000130016000013000016160000000000
#0001b:000000000000000000130000000013000000000000000000
#0011b:1313001300000000
#00118:000000130000161300000000
#00112:160000130000001300000000
#00115:000016000000000000130016000000000013130000000000
#00315:001400000014001400000000
#00317:001414001400
#00312:24142414
#0031a:24142414
#0041b:130000130000001300000000
#00415:130016000000000000000000160000000000260000000013
#00412:000000130000260000130000000013000000000000000000
#00418:000000000000000000130013000000000000000000000000
#00410:41
#00518:160000000000000000130000160013000000260000000000
#00515:000016160000260000000013000000000000000000000000
#00512:130000000000000000130000000013000000000000000000
#0051b:00130000
#01915:0000001800000000
#01914:000000181400000000000000
#01916:000000000014000000000000180000000000130000000000
#01913:0018000000000000
#01912:180000000000000000000014000000000000000000000000
#01918:001400000000000000000000
#01917:0000000000000013
#0181a:000000000000000000000000000000000000000000000014
#01812:00002300000023001300001200000000
#0181b:23231300
#01816:230000000000230000000014000014120000000000000000
#01814:001400001400000000000000
#01818:000000000014000000000000000000120000000000000000
#0181c:00000000000000000000001200000000
#01817:0023002300000000
#02215:00161300
#0221b:1300001300000000
#02212:0000001300000000
#02217:00000012
#02218:000000000000000000000000000000000000000000000000000000000000000000000000000000000000000000000000001300000000000000000000000000000000000000000000000000000000000000000000000000000000000000000000
#02115:000013000013000000130000000013000013000000000000
#02118:000000130000000013000013000000130000000000130000
#02112:13131313
#0211b:13131313
#02416:130000000000230013000000000013000000000000130000
#02412:000000130000000000000013000000000000230000000000
#0241b:1300000000131300
#02417:00000000000000000000000000130000
#02410:41
#0261b:130000000000000013000013000000000000230000000000
#02616:00001300000013002300000000130000
#02617:00130000230000000000130000001300
#02612:230000000000001300130000
#0271a:14000024
#02712:14000024
#02716:000000000000000000000000000014140000000000000000
#02719:0024000024000000
#02717:000000002400000000000024000000000000000000000000
#02715:000000000024000000002400000000000000000000000000
#02713:0000242400000000
#03617:1212120000000000
#03614:000000000000000018180000000000000000000000000000
#03612:000000000000000000000000140000000000140000140018
#03616:000000000000000000000000000000000000000000000000280000140000140000000000000000001800000000000000
#0361a:00000000000000000000001400001400
#0361f:0021
#04012:1c00001800000014
#04016:000000000000000018000000140000000000000000140014
#0401a:000000140000000000001400
#03912:1600002600160000000000141c00001c00001c00001c0014
#03916:000000000000001400001400
#0391a:000000000000000000000000000000000014000000000000
#03915:001600000000000000000000
#03918:2616260000000000
#04114:000000000000000000000000000014000000000000140018
#0411a:140000000000001400000000140000000000140000000000
#04112:000000000014000000000000140000000000140000000000
#04116:000000000014001400000000000000000014000000000000
#04118:000000000000000000000000000000140000000014000000
#03517:000033331333003300000000000000000000000000000012
#03512:130000000000000033133400000000000000000000000000
#03516:130000000000000033133400240000000000000000000000
#03519:003300000000130000000000000000000000000000000000
#03515:003300000000130000000000000000000000000000000000
#0351b:000033331333000000000000000000000000000000000000
#0351a:0024
#03518:000000000000000000000034000000000000000000000000
#03514:000000000000000000000034000000000000000000000000
#03513:000000000000003300000000000000000000000000000000
#04816:00000013
#04817:000000000013000000000000000000000000000013000000
#04812:13131300
#0481b:13
#0481a:0013000000000000
#04912:13
#04916:000000130000000000001300
#04917:00000013
#05017:0000131300000013
#0501b:1300001313000000
#0511b:000000000000000000130000130013000000000000000000
#05112:13
#05116:000000000000000000000000130000000000001300000000
#05117:13
#0541b:130000000000000000000000130013000000000000130000
#05412:12001313
#05418:0000000000131600
#05415:000000000000000000000000000013000000000000130013
#05518:130000000013000000000000000012000000000013000000
#0551b:001300130000000000000000
#05512:13162223
#05515:001300000000000000000000
#05519:000000000000000012000013
#05514:000000000000000012000013
#05513:000000000000001200001300
#05517:00002223
#01216:00001300001300001300000000000000
#01212:130000000000000000001800130000000000000000000000000000130000000000001800140000000000130000000000
#01217:00130000000013000000000013000000
#01219:000000000000000000000013000000000000000000000000
#0121a:00140000
#0121b:13000000000000000000130000130000
#01512:12001212
#01517:0000120000130013
#0151c:0000000000120012
#01516:00000013
#0151b:00130000
#0371a:1400141414001414
#03712:140000000000000000000000000000140000000000000000140000000000000000140000000000001800140000000000
#03716:000000140000140000001800140000000000000000000000000000140000140000000000000000000000000000001800
#03710:0041
#01417:1313000000000000
#0141b:000000130000000000130000000000000000000000001300000000000000000000000000000000000000000000000000
#01412:00001400000000000013001300001300
#01416:000000000000000000140000000000000000000000000000130000000000130000140000000000000000130000001300
#0141a:0000000000140000
#02016:000000000000000000001300000000000000000000000000000000130000000000001300000000000000000000000000
#02018:13
#0201b:001300000000000000000000
#02012:000000000000000000130013130000000000000000000000
#02017:000000000000001300000000000000000000000000000000130000000000000000000000000000000000130000000000
#0421a:1400140014000024
#04212:14000000001c140000000000000000000000000000240000
#04214:001400000000000000180000
#04218:0014001400000000
#04216:000000000000000000000000000000000000000000000024
#01616:000000130000000000000000000000001300130000000000000000000000000000000000000000000000000000000000
#0161b:2313001300000013
#01617:000000000000000000130000000000000000000000001300130000000000130000001300000013000000000000000000
#01612:130000000000130000000000130000000013000000000000
#01610:41
#00718:001400000000000016000000
#0071c:001200000000
#00716:000000001600000000000018
#0071a:000000000014000000000000
#00715:000000000000001800000000
#00714:00000000001a
#00712:26282a2c
#00816:000000000000130000000000000000000013000000000000
#00812:130000000000000000130000000013000000130000000013
#00817:0013000000000000
#0081b:000000130000000000000013000000000000000000000000
#00818:26
#01012:130000000000130000000000000000130000000000001300000000000000000000001900130000000000000000001900
#01016:000000000013130000000000000000000000000000000000
#0101b:000000130000000000000000130000000000000000000000000000000000000000000000000000001300000000000000
#01015:000000000000000000000000000013190000000000190000
#01017:13
#01010:41
#0111b:000000000013000000000000000000000000130000000000
#01118:000000000000131300000000
#01117:000000000013000000000000000013000000000000000000000000000000000000000000000000000000220000000000
#01112:13
#01116:0000001300000000
#00215:130000160000130000000016000000000016160000000000
#0021b:13130000
#00212:000016000000000000130000000013000000000000000000
#00218:000000000000000000130000160013000000000000000000
#00612:130000130000001300000000
#00618:13260000
#0061b:000000130000000000130000000013000000000000000000
#00615:000016000000000000130013160000000000260000000000
#0091b:000013130000000000130000130000000000000000000000
#00917:1300000000130000
#00916:000000000000000000000013130000000000000000000000
#00912:13130013
#01317:00001300001300001300000000000000
#01316:000000130000000000001800000000000000130000000000000000000000000000001800130000000000000000000000
#0131b:13000000130000000013000000001300
#01314:000000000000000000000013000000000000000000000000
#01312:130000000000000000000000140000000000000000000000000000000000130000000000000000130000000000001300
#0131a:00000014
#02517:130000000000230013000000000013000000000000130000
#0251b:000000130000000000000013000000000000230000000000
#02512:1300000000131300
#02516:00000000000000000000000000130000
#02812:13
#0281b:0013
#0281f:11
#02917:0011
#02912:13
#0301b:13
#03012:0013
#03212:14141414
#03216:000000000013000000000013000000000000000000000000
#0321b:000000000000000000000000000000000013000000000000
#0331a:1400140014001414
#03317:000000000013000000000013000000000000000000000000
#03312:000000000000000000000000000000000013000000000000
#04414:0014000014001400
#04416:0000001400140014
#0441a:2400001400000014
#04417:00140000
#04418:00001414
#04412:0000000000140000
#04413:00240000
#04514:14141414
#04518:14141414
#04516:0014001400140014
#04512:0014000000140000
#0451a:0000001400000014
#04614:140000000000000000000000000000130000000013130000
#04618:14
#04616:0014000000001300
#04612:000000140000000000000000130000000000000000000013
#0461b:00001313
#04610:0041
#0521c:0012
#05219:000000000000000000000000000000000012000000000000
#05215:000000130000000000230023000000000000000000120000
#05212:0013
#0521b:0013000000000000
#05218:000000232300000000000000
#05312:1213
#0531b:13
#05315:000000000012000000000000000000000000000000120000
#05319:000000000000000000120000000000000012000000000000
#0531c:0012
#04317:001400000000
#04316:000000000000000000000000240000000000280000000000000000002400000000002400280000002400000000140000
#0431a:242400
#04312:240024000000000000000024280000280000000000240000
#03818:000000000000000000000000000000000000000000000016
#03812:140000000018140000140000000000280000000000280000
#03816:000000140000140000000000140000000000000000000000280000001400000000001400280000001400000000000000
#0381a:14000000001400000000000000000000
#0471b:130000000000130000000000130000000000000000000013
#04712:13001313
#04713:0013000000000000
#04716:000000000013000000000000000000000000000000000000
#04719:000000000000000000000000000000130000000013130000
#04717:00000013
#02312:1314140014001300
#02315:000000000000001300000000
#0231b:13000013
#02318:0000000000130000
#0231a:0000141414000000
#02316:000000001414000000001414000000000000000000000000
#03414:1414000000000000
#03416:0000000014141414
#03418:0000141400000000
#0341a:1414
#03412:00140014
#05613:001400002500000000000000
#05619:000014000025000000000000
#05618:001400002500000000000000
#05614:000014000025000000000000
#05612:24250000
#05617:24250000
#01716:000000000000130000000000130000130013001300000000
#0171b:000000000000000000000013130000000013000000000000
#01712:000000000000000013130000000000000000000000130000
#01717:0000001300000000
#03118:002222000000220000220022
#0311a:00220000
#03116:000000002222000000002200
#03112:00002422
#03114:000000240000002222000000
#0311c:22
#0035a:00000014
#00352:00000014
#02152:13001353
#0215b:00130013
#02158:0000000000000023
#0265b:63
#02657:00230000000000000000000000000000
#02652:00000053
#02656:00000000000000000000000000230000
#04052:1c
#04152:000000000054000000000000340000000000000000000000
#04156:000000000054002400000000000000000000000000000000
#0415a:000000000000002400000000000000000000440000000000
#03752:00000000002400003400002400000000
#03756:00240000640000000024640044000000
#0375a:6400000064440000
#01252:00000000530000000023000014000000
#01256:00000000002300006300000000000000
#0125a:00140000
#01257:00230000000000000000000053000000
#0125b:63000000000000000000000000230000
#01457:5353000000000000
#0145b:00230023000000000000000000000000
#01452:00005400340000000023002300000000
#01456:000000000000000000240000000000000000000000000000630000000000630000240000000000000000000000005300
#0145a:0000000000644400
#02056:000000000000000000006300000000000000000000000000000000230000000000006300000000000000000000000000
#0205b:006300000000000000000000
#02052:0053
#02057:000000000000002300000000000000000000000000000000000000000000000000000000000000000000000000000000
#04252:34540000
#04258:0000002400000000
#0425a:00440000
#04857:000000000053
#05152:53
#05156:000000000000000000000000630000000000002300000000
#0515b:000000000000006300000000
#01657:000000000000000000230000000000000000000000000000530000000000000000000000000023000000000000000000
#01652:530000330000000000000000000000000053000000000000
#01656:00230000000000000000000000000000
#0165b:1363430000000000
#00852:5300135300001300
#00856:00530000
#00857:0063000000000000
#0085b:000000630000000000000063000000000000000000000000
#0115b:000000000063000000000000000000000000130000000000
#01157:000000000023000000000000000023000000000000000000000000000000000000000000000000000000000000000000
#01152:53
#01156:0000006300000000
#0105b:00230000130000000000000000000000
#01052:00000000002300000000000013000000
#01056:00630000
#01057:53
#0135b:00000000630000000023000000000000
#01357:00000000002300005300000000000000
#01352:53000000140000000000000000230000
#0135a:00000014
#01356:00230000000000000000000063000000
#01956:0018
#01858:0000000000520000
#0185c:00000000000000000000002200000000
#01856:0000000000620000
#01852:00000000000000000000002200000000
#0155b:00230000
#00952:53530000
#0095b:0063000000001300
#00957:0000130000530000
#00956:0063
#0245b:63000063
#02457:00000000000000000000000000230000
#02552:53000053
#02556:00000000000000000000000000230000
#02852:53
#0285b:0063
#02957:0021
#02952:53
#0305b:63
#03052:0053
#04454:0024000064005400
#04456:0000002400240024
#0445a:6400002400000024
#04457:00540000
#04458:00006454
#04452:0000000000240000
#04453:00540000
#04554:64546454
#04558:64546454
#04556:0024002400240024
#04552:0024000000240000
#0455a:0000002400000024
#04654:64
#04658:64
#04656:0024000000000000
#04652:0024000000000000
#04357:002400000000
#04356:00000000000000000000000000000024
#04352:000054000000000000000000000000000000000000540000
#03552:5300002300000000
#03556:5300002344000000
#03559:00630000
#03555:00630000
#0355b:002300000000
#03557:002300000000
#0355a:0044
#04956:000000000063
#05057:0000006300000000
#0365a:00000000000000000000002400000000
#03656:00000000000000004824540034000000
#03652:0000000054340000
#03856:00240000540000004800000048000000
#03852:5400000000380038
#0385a:00000000002400000000000000000000
#02352:00000033
#0235b:00000043
#01756:000000000000000000000000630000000000002300000000
#0175b:000000000000000000000000000000000063000000000000
#004320:000000000000000000000000000000000013230000000000
#005350:000000000000000000000000000000000013230000000000
#0063b0:000000000000000000000000000000000013230000000000
#008320:13230000
#008370:0033000000000000
#0083b1:0013002300000000
#008361:00330000
#008320:0000001300000000
#008360:000000000000000000000023000000000000000000000000
#0083b1:000000000000000000000013000000000000000000000000
#008361:000000000000002300000000
#009321:13
#009361:0023000000000000
#0093b0:0013000000000000
#009370:00230000
#009321:00130000
#009361:0000002300000000
#009361:0013
#009321:0000000000230000
#009370:0000000000130000
#0093b0:00000023
#010370:1323000000000000
#0103b0:00530000000000000000000000000000
#010360:0000132300000000
#010320:00000000005300000000000000000000
#0103b1:0000001300000000
#010371:000000000000000000000023000000000000000000000000
#011321:130000000023000000000000000000000000000000000000
#011371:000000000053000000000000000000000000000000000000000000000000000000000000000000000000000000000000
#0113b0:000000000013000000230000000000000000000000000000
#011370:000000000000005300000000000000000000000000000000
#011361:0000001300000000
#011321:00000023
#0123b1:1323000000000000
#012371:00530000000000000000000000000000
#012321:0000132300000000
#012361:00000000005300000000000000000000
#012361:0000000013230000
#012321:00000000000000000053000000000000
#012371:0000000000001323
#0123b1:00000000000000000000000000530000
#013321:1323000000000000
#013361:00530000000000000000000000000000
#0133b1:0000132300000000
#013371:00000000005300000000000000000000
#013371:0000000013230000
#0133b1:00000000000000000053000000000000
#013361:0000000000001323
#013321:00000000000000000000000000530000
#014371:1333230000000000
#0143b1:00530053000000000000000000000000
#014320:0014240000000000
#014360:00000054000000000000000000000000
#014360:0000000013332300
#014320:00000000000000000053005300000000
#0143a1:0000000000142400
#014361:00000000000000000000005400000000
#014361:000000000000000000000000000000000000000000000013
#0153b1:00530000
#015361:0023
#016321:1323000000000000
#016361:00530000000000000000000000000000
#0163b0:0013230000000000
#016370:00000053000000000000000000000000
#016370:0013
#0163b0:0000000000230000
#016320:000000000000000000000000000000000013000000230000
#016370:000000000000000000000000000000000000005300000000
#017360:13
#017320:005300230000000000000000000000000000000000000000
#0173b1:130053230000000000000000
#017371:005300330000000000000000000000000000000000000000
#017361:0013
#017321:0000000000230000
#0173b1:000000000000000000000000000000000013000000230000
#017361:000000000000000000000000000000000000005300000000
#018361:0000000000122200
#018321:00000000000000000000005200000000
#018380:0000000000122200
#0183c0:00000000000000000000005200000000
#0193b0:00000013
#019370:000000000023
#019321:000000000000000000000000000000000000000013230000
#020321:13
#020361:002300000000000000000000
#0203b0:000013000023000000000000000000000000000000000000
#020370:000000000000005300000000000000000000000000000000000000000000000000000000000000000000000000000000
#020361:000000000013000000000000000000000000000000000000
#020321:002300
#020370:000000000000000013230000000000000000000000000000
#020320:0000000013230000
#020360:00000000000000000053000000000000
#020371:0000000000130000
#0203b1:000000000000000000000000000000000023000000000000
#020360:000000000000000000000000000000000013000000000000
#020320:0000000000000023
#021320:00000013
#021380:0000000000000053
#022320:23
#0243b0:13
#024370:0023000000000000
#0243b0:000000132300000000000000
#0243b0:0000001300000000
#024370:000000000000000000000023000000000000000000000000
#024370:0013
#0243b0:000000000000002300000000
#0243b0:0000000000001323
#024370:00000000000000000000000000530000
#025320:13
#025360:0023000000000000
#025320:000000132300000000000000
#025320:0000001300000000
#025360:000000000000000000000023000000000000000000000000
#025360:0013
#025320:000000000000002300000000
#025320:0000000000001323
#025360:00000000000000000000000000530000
#0263b0:1323000000000000
#026370:00530000000000000000000000000000
#026320:00130000
#026360:002300
#0263b0:0013
#026370:000000000000002300000000
#026320:0000000000001323
#026360:00000000000000000000000000530000
#028320:13
#028370:0021
#0283b1:0013
#029381:21
#029320:13
#029370:0051
#030320:23
#0303b1:13
#030381:0021
#030320:0013
#031370:21
#0323b0:13
#032360:0023000000000000
#032360:00130000
#0323b0:0000002300000000
#032360:0013
#0323b0:0000000000230000
#0323b0:00000013
#032360:0000000000000023
#033320:13
#033370:0023000000000000
#033370:00130000
#033320:0000002300000000
#033370:0013
#033320:0000000000230000
#033320:00000013
#033370:0000000000000023
#035320:130000000000000033333400000000000000000000000000
#035350:003300000000330000000000000000000000000000000000
#035370:000033333333000000000000000000000000000000000000
#035330:000000000000003300000000000000000000000000000000
#035340:000000000000000000000034000000000000000000000000
#035360:0024
#035361:130000000000000033333400000000000000000000000000
#035391:003300000000330000000000000000000000000000000000
#0353b1:000033333333000000000000000000000000000000000000
#035371:000000000000003300000000000000000000000000000000
#035381:000000000000000000000034000000000000000000000000
#0353a1:0024
#036321:0000000014240000
#036361:00000000000000000054000000000000
#036360:0000000000142400
#0363a0:00000000000000000000005400000000
#0373a0:1424000000000000
#037360:00540000000000000000000000000000
#037360:0000142400000000
#037320:00000000005400000000000000000000
#0373a0:0000000014240000
#037360:00000000000000000054000000000000
#037361:0000000000142400
#037321:00000000000000000000005400000000
#038321:1424000000000000
#038361:00540000000000000000000000000000
#038361:0000142400000000
#0383a1:00000000005400000000000000000000
#039381:0000162600000000
#039320:0000162600000000
#040360:00140000
#040320:002400
#040320:000000000000142400000000
#0403a1:000000000000001400000000
#040361:000000000000000000000000000000540024000000000000
#040320:000000000000000000000000000000000014000000000000
#040360:000000000000000000542400
#041360:14
#041320:005400240000000000000000000000000000000000000000
#041361:000000140034000000240000000000000000000000000000
#0413a1:000000000000005400000000000000000000000000000000
#041320:000000000014000000240000000000000000000000000000
#041360:000000000000005400000000000000000000000000000000
#042320:00142400
#042380:0000005400000000
#0433a0:14
#043360:002400000000000000000000
#043321:001400240000000000000000
#043371:005400000000
#043321:0000000000000014
#043361:00000000000000000000000000000054
#044321:24
#0443a0:1400005400000054
#044340:0054000000000000
#044370:00340000
#044380:00003454
#044360:0000000000540000
#045380:54545454
#045360:0054000000540000
#0453a0:0000005400000054
#046380:54240000
#046360:0054000000000000
#044331:00140000
#044361:0000005400000054
#044341:00003454
#044321:0000000000540000
#045341:54545454
#045321:0054000000540000
#045361:0000005400000054
#046341:54240000
#046321:0054000000000000
#047361:00130000
#047321:0000002300000000
#048371:00130000
#0483b1:0000002300000000
#0483b1:00001333
#048361:0000000000330000
#048371:000000000033
#0493b1:33332300
#049361:0033003300000000
#049320:00001333
#049370:0000000000330000
#049360:000000000033
#050320:33330000
#050370:0033003300000000
#051320:33
#051360:0033
#052320:23
#0503b1:000000000000001300000000
#050371:00000023
#051371:001300000000000000000000
#0513b1:00230000
#0513b1:000000000000001300000000
#051361:000000000000000000000000000000000000005300000000
#0523b1:23
