This file was generated by Ched 2.6.4.0.
#TITLE ""
#ARTIST ""
#DESIGNER ""
#DIFFICULTY 0
#PLAYLEVEL
#SONGID ""
#WAVE ""
#WAVEOFFSET 0
#JACKET ""
#REQUEST "ticks_per_beat 480"
#00002: 4
#BPM01: 103
#00008: 01
#TIL00: ""
#HISPEED 00
#MEASUREHS 00
#00512:14001414
#00518:00140000
#00614:00140014
#00618:1414
#0041a:14001414
#00414:00140000
#00410:41
#0181a:14
#01812:00140000
#01818:00001414
#01814:0000000000140000
#01913:14142400
#01919:0014001400001400
#02212:14
#0221a:0014
#00814:00140000
#0081a:24
#00914:14
#00918:00140000
#0101a:14
#01012:00140000
#01010:41
#01214:00140000
#0121a:14
#01312:14
#01318:00140000
#0141a:14140000
#01412:00001414
#01512:00000014
#0151a:14000014
#01518:00140000
#01613:0014000000000000
#01619:00140000
#01614:0000001400000000
#01618:24
#01610:41
#01712:14
#01718:0014000000000000
#01713:00140000
#01719:0000001400000000
#02013:0014001400140000
#02012:1414
#02014:00140000
#02119:0014001400140000
#02118:1414
#0211a:00140000
#02418:14
#0241a:00001414
#02414:00140000
#02410:41
#02514:14
#02512:00001414
#02518:00140000
#03218:0014
#03214:00140000
#03212:00000014
#0321a:24
#03318:0014
#03314:00140000
#03312:00000014
#0331a:24
#0341a:24140000
#03414:0014001400000000
#03418:00002414
#03412:0000000000140014
#03512:00000014
#0351a:00000014
#03812:0014
#0381a:00000014
#03914:14140000
#03918:0014000000000000
#03919:00001414
#03913:0000000000140014
#03619:0000000000140000
#03613:00000014
#03618:0000000000000014
#0361a:00240000
#03612:00240000
#03614:0024
#0361f:0021
#0371a:0014
#03714:0000000000140000
#03719:00000014
#03713:0000000000000014
#03710:0041
#04119:0014000000000000
#0411a:14
#04113:0000000000140014
#04112:00000014
#04114:0024
#04019:2400000000140014
#04018:00000014
#04013:00140000
#0401a:0024
#04213:0014000000000000
#04214:14
#04218:0026
#04718:00140000
#04714:14
#04712:0014
#0471a:00000014
#05414:0014
#05418:00000014
#05514:14000034
#05518:00140000
#04612:0014
#0461a:00000014
#04616:16
#04610:0041
#04517:00160016
#04516:16
#04518:0016
#04417:00000016
#04418:2626
#04412:00260000
#04819:0014
#04818:00140000
#0481a:00000014
#04814:14
#04919:14
#04914:0014
#05112:0014
#05114:14
#0511a:24
#05118:0024
#05218:14140000
#05214:0014000014000000
#05318:0014
#05012:0014
#05018:1424
#0281f:11
#02312:00000024
#0231a:00000024
#02618:24
#02614:00240000
#0261a:0024
#02612:00000024
#02712:00000024
#0271a:00000024
#04318:0026
#04312:26000026
#01113:00000034000000000000000000000000
#01112:0000003400000000
#05614:34
#0085a:14
#0155a:54
#01558:00240000
#01152:00000014
#02252:14
#0225a:0014
#01658:00000014
#01752:00000014
#02053:0054006400640000
#02052:2424
#02054:00240000
#02159:0054006400640000
#02158:2424
#0215a:00240000
#02752:00000014
#0275a:00000014
#0355a:0014
#04159:0054000000000000
#0415a:24
#04153:0000000000640054
#04152:00000024
#04154:0024
#04059:0000000000640054
#04058:00000024
#0405a:0024
#04253:0054000000000000
#04254:24
#04258:0016
#03754:00140000
#0385a:00140000
#04557:00560066
#04556:26
#04558:0026
#04457:00000066
#04458:0026
#04859:0054
#04858:00240000
#0485a:00000024
#04959:64
#04954:0054
#05254:0064
#05358:0054
#05352:14
#04656:26
#05058:54
#04352:16
#0545a:14
#000380:14342400
#001340:14342400
#0023a0:14342400
#003320:14
#003330:00340024
#003340:0034
#0073a0:14
#007390:00340034
#007380:0034
#0083a0:24
#0083a0:00001424
#009320:00001424
#0103a0:00001424
#011340:14
#011330:00000034000000000000000000000000
#011320:0000003400002400
#012380:00001424
#013340:00001424
#0153a0:1424
#015380:00540000
#0163a0:0014
#016380:00000024
#017340:0014
#017320:00000024
#020320:1434
#020330:0054005400540000
#020340:00340024
#021380:1434
#021390:0054005400540000
#0213a0:00340024
#023320:14342400
#0233a1:14342400
#027321:14342400
#0273a0:14342400
#028380:14240000
#028340:00001424
#0293a0:1400343400002400
#030340:14240000
#030380:00001424
#031320:1400343400002400
#0353a0:1434343424000000
#037320:14
#037340:00240000
#038380:14
#0383a0:00240000
#0403a0:0014
#040390:0000000000540054
#040380:00000034
#0413a0:34
#041390:0054000000000000
#041380:00240000
#041340:0014
#041330:0000000000540054
#041320:00000034
#042340:34
#042330:0054000000000000
#042320:00240000
#044380:0016
#044370:00000036
#045360:36
#045370:00360036
#045380:0036
#046360:36
#046370:00260000
#048380:00140000
#048390:0034
#0483a0:00000034
#049390:34
#049380:00240000
#049340:0014
#049320:00000024
#050380:14
#0503a0:00240000
#052340:0014
#053320:24
#053380:0014
#0543a0:24
#055320:0014
#055340:00000034
#056340:34240000
