This file was generated by Ched 2.7.0.0.
#TITLE ""
#ARTIST ""
#DESIGNER ""
#DIFFICULTY 0
#PLAYLEVEL
#SONGID ""
#WAVE ""
#WAVEOFFSET 0
#JACKET ""
#REQUEST "ticks_per_beat 480"
#00002: 4
#BPM01: 152
#00008: 01
#TIL00: ""
#HISPEED 00
#MEASUREHS 00
#0041a:14
#00514:14
#00618:14
#00712:14
#02018:14
#02010:41
#02112:14
#02218:14
#02312:14
#0241a:14
#02514:14
#0261a:14
#02714:14
#03212:0016
#03218:26
#03210:41
#03412:16
#03418:0016
#03618:16
#03612:0016
#03818:16
#03812:0016
#03712:0016
#03718:16
#03918:1616
#04018:0016
#04012:26
#04218:16
#04212:0016
#04412:16
#04418:0016
#04612:16
#04618:0016
#04518:0016
#04512:16
#04712:1616
#0521a:14
#0531a:14
#05412:14
#05512:14
#05618:14
#05718:14
#05710:41
#05814:14
#05914:14
#06818:2616
#0681f:21
#06810:0041
#07012:1616
#07218:1616
#07312:1616
#07418:16
#07412:0016
#07518:1616
#07612:2616
#07818:1616
#08012:1616
#08118:1616
#08212:16
#08218:0016
#08312:1616
#0081a:14
#00810:41
#00914:14
#0101a:14
#01114:14
#01218:14
#01312:14
#01418:14
#01512:14
#0601f:11
#04810:41
#000390:14
#001390:24
#002330:14
#003330:24
#0163a0:14
#0173a0:24
#018320:14
#019320:24
#028380:14
#029380:0024
#030340:14
#031340:3424
#033380:1626
#035320:1626
#041320:1626
#043380:1626
#0483a0:14
#0493a0:24
#050320:14
#051320:24
#060380:14
#0613a0:34
#0623a0:34
#063380:24
#064340:14
#065320:34
#066320:34
#067340:24
#069380:1626
#071320:1626
#077320:1626
#079380:1626
#084380:16
#085380:26
#086320:16
#087320:36363626
