This file was generated by Ched 2.7.0.0.
#TITLE ""
#ARTIST ""
#DESIGNER ""
#DIFFICULTY 0
#PLAYLEVEL
#SONGID ""
#WAVE ""
#WAVEOFFSET 0
#JACKET ""
#REQUEST "ticks_per_beat 480"
#00002: 4
#BPM01: 152
#00008: 01
#TIL00: ""
#HISPEED 00
#MEASUREHS 00
#01118:0013001300003300
#01112:13
#01115:00130033
#0111b:1323
#01114:0000000000330000
#01119:0000000000330000
#0091b:1300001300001300
#00915:0013000000130000
#00918:0000130013000013
#00912:1300001300001300
#01018:0000000013000013
#01015:1300001300000000
#01012:0013
#0101b:1300001300000000
#00812:2300000000000013
#00815:00130000
#0081b:0000001313000000
#00817:00000013
#00810:41
#01318:0013000000130000
#0131b:1300001300001300
#01315:0000130013000013
#01312:1300001300001300
#03812:0013000013001300
#03814:00130000
#0381b:0000000000130013
#03816:0000001300000000
#03815:0000000000130000
#03818:00001313
#03817:0013000000000000
#0391b:0013000013000000
#03912:0000130000130000
#03918:0000230000230000
#03915:0023000023000000
#05612:13000023
#05614:0013000000230000
#05616:00132300
#0561b:00231300
#05619:0023000000130000
#05617:23000013
#00412:1313
#00415:0013001300001300
#00418:0000130000130013
#0041b:2323
#00515:0013001300000000
#00518:00130000
#00516:0000000000140014
#00512:1323
#0051b:23000023
#00615:0013001300001300
#0061b:1313
#00618:0000130000130013
#00612:2323
#00718:0013130000130013
#00715:0000001313000000
#00712:23130013
#0071b:1323
#01615:0013000000000000
#01614:00130000
#01613:0000001300000000
#0161a:0000000000130000
#01619:00000013
#01618:0000000000000013
#01616:23
#0161b:0023
#01714:0013000000000000
#01713:00130000
#01712:0000001300000000
#0171b:0000000000130013
#01715:2300000000130013
#01718:0023
#01818:0013000000000000
#01819:00130000
#0181a:0000001300000000
#01813:0000000000130000
#01814:00000013
#01815:0000000000000013
#01817:23
#01812:0023
#01919:0013000000000000
#0191a:00130000
#0191b:0000001300002300
#01915:00001313
#01918:2300000000130013
#01912:0000000000230023
#0271b:1313130013000023
#02712:0000131323000000
#02716:0014001400000000
#02715:0000000000230000
#02718:00000023
#0301b:0013000023130000
#03012:2300001300000013
#03015:0023
#03018:23
#03016:00240024
#0361b:13130000
#0361a:00001414
#03615:0013000000000000
#03612:13131314
#03618:0000001300000000
#03616:0000000000140014
#04715:0013000013000000
#04718:0000130000130013
#04712:0000230000230013
#0471b:0023000023000000
#04412:0013000000130000
#0441b:0000001300000000
#04415:00000013
#04818:0000131300001313
#0481b:1313000013130000
#04814:13131313
#04816:0013000000130000
#04812:0000001300000013
#04810:41
#05118:0013001300230000
#0511b:00131300
#05115:1300130013000023
#05112:0013000000000000
#05712:00140000000000000014000000000000
#05713:00000014000000140000000000000000
#05714:00000000001400000000000024000000
#05718:0024000024001400
#0571a:2400000000240000
#05717:0000242400000000
#05710:41
#05812:13130000
#05815:00001300000000130000130000000000
#05818:0000001313001300
#0581b:23230000
#0591b:13130000
#05918:00001300000000130000000000000000
#05915:0000001313000000
#05912:23230000
#06018:13
#0601b:00130000
#06012:00000013
#06015:0013
#0601f:11
#06712:0000140000140000
#0671a:0014000014000000
#06717:0000240000240000
#06715:0024000024000000
#06818:00000013
#06812:0000000000000013
#0681b:2300230000130013
#06815:00000000000000000000001300000000
#06819:0000002300000000
#06817:0023
#0681f:21
#06810:0041
#06918:0000000000000013
#06914:0000001300000000
#06912:00130000
#06915:13
#0701b:1300000013000013
#07015:1313000013130000
#07018:0000131300001300
#07012:0000130000001313
#07119:0000000000152500
#07112:2300000000251500
#0711b:23
#0731b:0013001300000013
#07313:0013000000000000
#07316:13
#07312:0000001300130013
#0731a:0000000000130000
#07317:0013
#07319:23
#07314:0023
#04315:0000230013000013
#04312:0023000000130000
#0431b:0000002300001300
#04318:23132300
#03115:00130013001300130000000000000000
#03118:2323232323000000
#0321b:2300000013000013
#03216:13
#03212:00130000
#03217:00130000
#03219:0000001300000000
#03210:41
#0331b:0000130000000013
#03317:13
#03316:0000001300000000
#03418:0013000000001300
#03415:0000001313000000
#03412:0000000000130013
#0341b:0000000000130013
#08115:2300000000000013
#08112:00240013
#0811b:23
#08119:0025
#02612:13
#0141b:13
#00018:13131313
#00019:0013000000130000
#00017:0000001300000013
#00115:13131313
#00116:0013000000130000
#00114:0000001300000013
#00218:13130000
#00219:0013000000000000
#00217:0000001300000000
#00215:00001313
#00216:0000000000130000
#00214:0000000000000013
#03515:23132300
#03518:0000230013000013
#0351b:0023000000130000
#03512:0000002300001300
#06618:0013
#06615:0013
#0661b:00130000
#06612:13
#06613:0000000000330000
#0661a:0000000000330000
#03712:0000130000000013
#0371b:0000130000000013
#03718:13
#03715:23
#03714:0000003300000000
#03719:0000003300000000
#0521b:0013
#05217:00000013
#05219:0000000000130000
#05212:23
#05214:0023000000000000
#05216:00230000
#05315:00140000000000000000230013000000
#0531b:0000000000132300
#05314:00000014000000000000000000000000
#05313:00000000001400000000000000000000
#05312:00000000000000140000000000000000
#05316:0024
#0531a:24
#05319:0024000000000000
#05318:00240000
#05317:0000002400000000
#05517:00140000000000000000000000000000
#05518:00000014000000000000000000000000
#05519:00000000001400000000000000000000
#0551a:00000000000000140000000000000000
#05516:0024
#05512:24
#05513:0024000000000000
#05514:00240000
#05515:0000002400000000
#07218:0000000000000013
#07215:2323
#07212:00230023
#0541b:13
#05417:00130000
#05412:0013
#05416:00000013
#05419:0013000000000000
#05414:0000000000130000
#02812:23130013
#0281b:00131313
#02818:23
#02816:0024
#02912:00131313
#0291b:23130013
#02915:23
#02916:0024
#04915:0000131300001313
#04912:0013000013130000
#04919:13131313
#04917:0013000000130000
#0491b:0000001300000013
#0121b:2300000000000013
#01218:00130000
#01212:0000001313000000
#01216:00000013
#0201b:2300000013000013
#02018:0000131300130000
#02012:0013001313000000
#02015:1300000000001313
#02010:41
#02118:0013130000000000
#02112:0000000013000013
#02115:0000000000131300
#0211b:1300001300000000
#02318:00131300
#02315:0013001323000000
#0231b:13000033
#02312:13000033
#0231a:0000000000330000
#02313:0000000000330000
#02412:2300000013000013
#02415:0000131300130000
#0241b:0013001313000000
#02418:1300000000001313
#02515:0013130000000013
#02512:1300001300130000
#0251b:0013
#02518:00000013
#04012:2300000013000013
#04018:00000000000000000000001300000000
#04015:0000000000131300
#0401b:0000130000000013
#04017:13
#04016:00130000
#04014:0000001300000000
#04112:0000130000000013
#04116:13
#04117:0000001300000000
#04215:0013000000001300
#04218:0000001313000000
#0421b:0000000000130013
#04212:0000000000130013
#07715:0000000000000013
#07718:13
#07712:23
#07717:0023
#0771b:00230000
#07719:0000002300000000
#07912:2300000000152500
#07919:0000000000251500
#07918:0000000000000013
#0791b:23
#06118:1313
#0611b:00130013
#06112:00130000
#06115:13
#07812:0013000000130000
#0781b:0000001300000013
#07818:2323
#07815:00230023
#08415:0000131300001313
#08412:1313000013130000
#08417:0013000000130000
#08419:23131313
#0841b:0000001300000013
#08612:0000001300130000
#08616:0013000000000013
#08617:0000001300130000
#08619:23130013
#0861b:0013000000000013
#08614:00132313
#08518:0000131300001313
#0851b:0013000013130000
#08514:23131313
#08516:0013000000130000
#08512:0000001300000013
#08719:2315251525152500
#08712:0025152515250000
#0821b:13130013
#08212:13131300
#08215:0000002300001313
#08218:0023000013130000
#04518:2300000000000013
#0451b:00000013
#04512:2325
#0451a:00240000
#04612:13130013
#04615:0013000013130000
#0461b:13131300
#04618:0000001300001313
#0741b:1313000013001300
#07419:00130000
#07417:0000001300000000
#07418:0000000000130000
#07415:00001313
#07412:0000000000130013
#07416:0013000000000000
#07414:33330000
#0751b:0013000013000000
#07512:0000130000130000
#07518:0000230000230000
#07515:0023000023000000
#0801b:0013000000130000
#08012:0000001300000000
#08018:00000013
#01512:1313130013000023
#0151b:0000131323000000
#01516:0014001400000000
#01518:0000000000230000
#01515:00000023
#07615:00000013
#0761b:2300000000000013
#07612:2300230000130013
#07618:00000000000000000000001300000000
#07614:0000002300000000
#07616:0023
#0501b:0000001300130000
#05017:0013000000000013
#05016:0000001300130000
#05014:13130013
#05012:0013000000000013
#05019:00131313
#06215:13
#06212:00130000
#0621b:00000013
#06218:0013
#0631b:00130000
#06318:13
#06315:1313
#06312:00130013
#00318:1313000013001300
#00315:0000131300130000
#02215:0000000013000013
#02218:1300001300000000
#0221b:0013
#02212:1300001300000000
#08312:0000240000240000
#0831a:0024000024000000
#0831b:0000000000000023
#08315:0024000024000023
#08317:0000240000240000
#05158:0000000000430000
#05155:0000000000000033
#06058:53
#0605b:00230000
#06052:00000023
#06055:0063
#03455:0063
#03452:0000000000230000
#03458:00000053
#0345b:0000000000000023
#00058:53635363
#00057:0000002300000023
#00059:0023000000230000
#00155:53635363
#00156:0023000000230000
#00154:0000002300000023
#00258:53630000
#00257:0000002300000000
#00259:0023000000000000
#00255:00005363
#00256:0000000000230000
#00254:0000000000000023
#0305b:0013
#03055:0013
#03052:13
#03058:13
#03958:0000130000130000
#03955:0013000013000000
#04752:0000130000130000
#0475b:0013000013000000
#0085b:0013
#00852:13
#0385b:0000000000000013
#03857:0023000000000000
#06655:0063
#06658:0053
#06652:6300000000000013
#0665b:0000530000000013
#07356:63
#07359:53
#07353:0023000000000000
#0735b:0023000000000000
#07352:0000000000230063
#0735a:0000000000230000
#07357:0053
#07354:0063
#08352:0000140000140000
#0835a:0014000014000000
#03752:00230000
#0375b:0000230000000053
#03758:53
#03755:63
#05556:00000014
#05252:00000013
#0525b:00130000
#05452:00130000
#0545b:00000013
#01052:0053
#0105b:63
#01058:0053
#01055:63
#02858:13
#02852:13
#02955:13
#0295b:13
#04856:0023000000230000
#04852:0000002300000023
#04854:53635363
#04959:63536353
#04957:0023000000230000
#0495b:0000002300000023
#01252:0013
#0125b:13
#02052:0023000013000000
#0205b:1353
#02055:53
#02058:0000000000230000
#0245b:0023000013000000
#02458:63
#02452:1363
#02455:0000000000230000
#04258:0053
#0425b:0000000000230000
#04255:00000063
#04252:0000000000000023
#05858:00001313
#05855:0000000000130000
#05955:0013
#06158:5353
#0615b:00230023
#06152:00230000
#06155:63
#08457:0023000000230000
#08459:63536353
#0845b:0000002300000023
#0865b:0023000000000000
#08659:53630000
#08657:0000002300000000
#08652:0000000000230000
#08654:00006353
#08656:0000000000000023
#08554:53635363
#08556:0023000000230000
#08552:0000002300000023
#08759:0000000000000015
#08752:0000000000000015
#02358:0053
#02355:0063
#0445b:00000013
#04455:00000013
#08255:0000000000000013
#08258:0000000000130000
#04658:0000000000000013
#04655:0000000000130000
#07456:0023000000000000
#07558:0000130000130000
#07555:0013000013000000
#08058:00000013
#08052:00000013
#07959:0000000000150000
#07952:00000015
#07159:0000000000150000
#07152:00000015
#0325b:13
#03256:63
#03252:00230000
#04057:53
#0405b:00230000
#04052:13
#0685b:13
#07652:13
#08155:13
#08158:00130000
#08154:0014
#05052:0023000000000000
#05054:53530000
#05056:0000002300000000
#0505b:0000000000230000
#05059:00006363
#05057:0000000000000023
#06255:63
#06252:00230000
#0625b:00000023
#06258:0053
#0635b:00230000
#06358:53
#06355:6363
#06352:00230023
#02552:0000000000130000
#02555:0000000000000013
#02558:00000013
#0255b:0013
#00358:00000013
#03158:0013
#0225b:0063
#02252:53
#02255:0063
#02258:53
#03552:00000013
#0355b:0000000000130000
#04352:0000000000130000
#0435b:00000013
#000380:13333333
#000390:0053000000530000
#000370:0000005300000053
#001380:23
#001351:13333333
#001361:0053000000530000
#001341:0000005300000053
#002351:23
#002380:13332300
#002390:0033000000000000
#002370:0000003300000000
#002351:00001333
#002361:0000000000330000
#002341:0000000000000033
#003351:23
#0083b1:13
#008381:00230000
#008351:0013
#008321:00000023
#0103b1:13
#010381:00230000
#010350:13
#010320:00230000
#010320:0013
#010350:00000023
#010381:0013
#0103b1:00000023
#011321:0013
#011341:0000000000330000
#011351:0000000000003323
#0113b0:0013
#011390:0000000000330000
#011380:0000000000003323
#012320:13
#012350:00230000
#012380:0013
#0123b0:00000023
#014320:13
#014340:0033000000000000
#014360:00230000
#0143b1:00130000
#014391:0000003300000000
#014371:0023
#014320:0014
#014340:0000000000340000
#014360:00000024
#0143a1:00000014
#014381:0000000000000034
#015361:24
#0163b1:13
#016381:0000002300000000
#016321:0013
#016351:0000000000000023
#017381:13
#0173b1:0000002300000000
#018321:13
#018351:0000002300000000
#0183b1:0013
#018381:0000000000000023
#019351:13
#019321:0000002300000000
#020351:13230000
#020321:0053000000000000
#0203b1:00001323
#020381:0000000000530000
#021321:1323000000000000
#021351:0000132300000000
#0213b1:0000000013230000
#021381:0000000000001323
#022321:13
#022351:00230000
#022380:13
#0223b0:00230000
#0223b0:0013
#022380:00000023
#022351:0013
#022321:00000023
#023381:0013
#0233a1:0000000000330000
#0233b1:0000000000003323
#023350:0013
#023330:0000000000330000
#023320:0000000000003323
#024380:13230000
#0243b0:0053000000000000
#024320:00001323
#024350:0000000000530000
#0253b0:1323000000000000
#025380:0000132300000000
#0263b0:13
#026390:0033000000000000
#026370:00230000
#026321:00130000
#026341:0000003300000000
#026361:0023
#0263a0:0014
#026380:0000000000340000
#026360:00000024
#026321:00000014
#026341:0000000000000034
#027361:24
#032361:1323
#032321:00330000
#032381:0000000000132300
#032350:0000000000001323
#033320:13
#033360:00230000
#0333b0:0013
#033370:00000023
#033361:0013
#033321:00000023
#034351:13
#034321:0023000000000000
#0343b1:00130000
#034381:0000002300000000
#034351:00001323
#034321:0000000000530000
#034380:00000013
#0343b0:0000000000000053
#035380:23
#037350:13003323
#037320:00330000
#037340:0000003300000000
#037381:13003323
#0373b1:00330000
#037391:0000003300000000
#0373b1:0000000000000013
#038371:0033000000000000
#0383b1:0000002300000000
#040371:1323
#0403b1:00330000
#0413b1:13
#041371:00230000
#041321:0013
#041361:00000023
#041370:0013
#0413b0:00000023
#042380:13
#0423b0:0023000000000000
#042320:00130000
#042350:0000002300000000
#042380:00001323
#0423b0:0000000000530000
#042351:00000013
#042321:0000000000000053
#043351:23
#044381:13
#0443b1:00230000
#044350:00130000
#044320:0023
#044381:0013
#0443b1:00000023
#045321:13
#045351:00530000230000000000000000000000
#0453a0:00140000
#045380:00000000005400002400000000000000
#045321:0015
#045341:00000000000000000055000025000000
#048341:13333333
#048361:0033000000330000
#048321:0000003300000033
#049341:23
#049390:13333333
#049370:0033000000330000
#0493b0:0000003300000033
#050390:23
#050341:13332300
#050321:0033000000000000
#050361:0000003300000000
#050390:00001333
#0503b0:0000000000330000
#050370:0000000000000033
#051390:23
#0523b0:1333230000000000
#052320:0000000013332300
#054320:1333230000000000
#0543b0:0000000013332300
#055360:000000000000000000000000000000000000000000000000000000000000000000000000000000000000000000000000000000000000000000000000000000000000000000000000000000000000000000000000000000000000000000000000140000005453545454005454345354005453545400005454345400545354545454545254340054545354545400005400240000000000000000000000000000000000000000000000000000000000000000000000000000000000000000000000
#055370:000000000000000000000000000000000000000000000000000000000000000000000000000000000000000000000000000000000000000000000000000000000000000000000000000000000000000000000000000000000000000000000000000000000000000000530000000000530000000053530000000053000000000000000000005300000000000053530000000000000000000000000000000000000000000000000000000000000000000000000000000000000000000000000000
#060380:1323
#0603b0:00530000
#060351:0013
#060321:00000053
#061351:3323
#061321:00530000
#061380:1333
#0613b0:00530053
#062380:23
#062351:1323
#062321:00530000
#062380:0013
#0623b0:00000053
#063380:3323
#0633b0:00530000
#063351:1333
#063321:00530053
#064351:23
#064380:1323
#0643b0:00530000
#064351:0013
#064321:00000053
#065351:23
#0653b0:13
#065380:0053230000000000
#065321:00130000
#065351:0000005323000000
#0653b0:0013
#065380:0000000000532300
#066320:13
#066350:00230000
#0663b1:0000130000003323
#066381:0033
#0663a1:0000000000330000
#066350:0013
#066330:0000000000330000
#066320:0000000000003323
#0673b0:000000000000000000000000000000000000135353535353
#0673a0:000000000000000000000000000000000000000000000000000000000000000000000000005300530053005300530053
#0683b0:23
#068321:13000000005300002300000000000000
#068361:00530000330000000000000000000000
#0693b1:13000000005300003300000000000000
#069371:00530000330000000053000023000000
#069360:0013
#069320:00000000000000000053000023000000
#071320:13332300
#071350:0033003300000000
#0713b1:13332300
#071381:0033003300000000
#071381:0000000000000013
#0723b1:23
#072350:13
#072320:0023000000000000
#0723b1:0013000000000000
#072381:00230000
#072320:00130000
#072350:0000002300000000
#072381:0000001300000000
#0723b1:0023
#072350:0013
#072320:0000000000230000
#0723b1:0000000000130000
#072381:00000023
#072320:00000013
#072350:0000000000000023
#073390:13
#0733b0:0053000000000000
#073380:00230000
#073361:13
#073331:0033000000000000
#073351:00230000
#073341:0013
#073321:0000000000530000
#073351:00000023
#073370:0013
#0733a0:0000000000330000
#073380:00000023
#073320:0000000000000013
#074340:33330000
#074360:0033000000000000
#074320:0000002300000000
#0763b0:13000000005300002300000000000000
#076370:00530000330000000000000000000000
#077320:13000000005300003300000000000000
#077360:00530000330000000053000023000000
#077371:0013
#0773b1:00000000000000000053000023000000
#078381:1323000000000000
#078351:0000132300000000
#078381:0000000013230000
#078351:0000000000001323
#0793b1:13332300
#079381:0033003300000000
#079320:13332300
#079350:0033003300000000
#080350:13
#080320:00230000
#080381:00130000
#0803b1:0023
#080350:0013
#080320:00000023
#0813b0:13
#081380:00530000230000000000000000000000
#081321:00140000
#081341:00000000005400002400000000000000
#081390:0015
#081370:00000000000000000055000025000000
#084390:13333333
#084370:0033000000330000
#0843b0:0000003300000033
#085390:23
#085341:13333333
#085361:0033000000330000
#085321:0000003300000033
#086341:23
#086390:13332300
#0863b0:0033000000000000
#086370:0000003300000000
#086341:00001333
#086321:0000000000330000
#086361:0000000000000033
#087341:23
#087391:0000000000001525
#087320:0000000000001525
