This file was generated by Ched 2.7.0.0.
#TITLE ""
#ARTIST ""
#DESIGNER ""
#DIFFICULTY 0
#PLAYLEVEL
#SONGID ""
#WAVE ""
#WAVEOFFSET 0
#JACKET ""
#REQUEST "ticks_per_beat 480"
#00002: 4
#BPM01: 152
#00008: 01
#TIL00: ""
#HISPEED 00
#MEASUREHS 00
#0601f:11
#06017:00000013
#06019:1313
#0601b:00130000
#07018:00000013
#0701b:0013
#07019:00130000
#07017:13
#07015:0000000000000013
#07012:0000000000130000
#07016:0000001300000000
#07014:0013000000000000
#06918:1300003313000000
#06912:1300003313000013
#0691b:00130000
#06915:00130000
#06815:00000000230000000000001300001300
#06818:2300000000131300
#0681f:21
#06812:2323
#0681b:0000002300000000
#06810:0041
#07212:0013000000000013
#0721b:00130013
#07215:0000001300130000
#07218:1313
#07115:0000230000000013
#0711b:2323
#07118:0000002300000000
#07112:0023000000000000
#08618:1313
#0861b:00130013
#08612:0000001300000013
#08615:0013000000130000
#0231b:00000013
#02315:1300130000130013
#02318:0013000013000000
#02312:0000001300000000
#0221b:0000000000000013
#02218:0000001300000000
#02415:0000001300000000
#02412:0000000000000013
#0241b:23
#02112:00000013
#02118:1300130000130013
#02115:0013000013000000
#0211b:0000001300000000
#01918:0033133300002300
#01915:0000000000230023
#0191b:23
#00715:0033133300001300
#00712:2300000000000013
#00718:0000000000130000
#00315:1313
#00312:00130000
#00314:0033003300330000
#00218:1300000013000033
#0021b:00130013
#00219:0033000000330000
#0021a:0000003300000000
#0751a:0014140000000000
#07512:0000000014140000
#07515:0024240000000000
#07517:0000000024240000
#01116:0000000000000013
#0111b:00000013
#01114:0000000000130000
#01119:0013
#01117:00130000
#01115:13
#01112:0013001300000000
#01018:0000000000000013
#01012:13
#0121b:13
#01212:0000000000000013
#04712:0000000013130000
#04715:0013130000000013
#0471b:0023230000000013
#04718:0000000023230000
#02618:1313
#0261b:00130000
#02512:0000001300000013
#02515:0013000000001300
#02518:0000130000130000
#0251b:1313
#01312:0000000000000013
#01315:0013000013001300
#01318:1300130000130000
#0131b:0000001300000000
#00917:0000000000000013
#00912:00000013
#00919:0000000000130000
#00914:0013
#00916:00130000
#00918:13
#0091b:0013001300000000
#00815:0000000000000013
#0081b:13
#00810:41
#00112:13
#00115:0033
#00113:00330000
#07818:0000000000000013
#0781b:0000000000130000
#07817:0000001300000000
#07819:0013000000000000
#07815:00000023
#07812:0023
#07814:00230000
#07816:23
#0771b:2300003313000013
#07715:2300003313000000
#07712:00130000
#07718:00130000
#07618:00000000230000000000001300001300
#07615:2300000000131300
#0761b:2323
#07612:0000002300000000
#0731b:00130000
#07315:0000000000000013
#07318:23
#07319:0000003300000000
#0801b:0013000000001300
#08012:00130013
#08018:0000001300130000
#08015:1313
#07918:0000230000000013
#07912:2323
#07915:0000002300000000
#0791b:0023000000000000
#06416:0013
#0641b:0013
#06412:13
#06417:13
#06512:13
#06517:13
#06519:00330000
#06514:00330000
#04412:0013000000001300
#0441b:00130013
#04415:0000001300130000
#04418:1313
#04215:0000000000000013
#0421b:0013
#04216:0000001300000000
#04219:00130000
#04214:0013000000000000
#04217:13
#0421a:0000000000330000
#04118:1300003313000000
#0411b:00130000
#04112:0000000000000013
#03418:0000000000000013
#03412:0013
#03417:0000001300000000
#03414:00130000
#03419:0013000000000000
#03416:13
#03315:1300003313000000
#03312:00130000
#0331b:0000000000000013
#07418:1300001300130000
#07412:0013
#07415:00130013
#0741b:0013000000000013
#05918:0013
#05915:0013001300000000
#05912:0013
#0591b:23230000
#05812:23230013
#05818:0013001300130000
#0581b:00000013
#05815:0013
#05412:14140000
#05416:0014000000140000
#0541a:00001414
#05012:1313
#0501b:0000001300000013
#05015:00130013
#05018:0013000000130000
#04815:13
#04812:0000000000000013
#04818:0000000000000013
#0481b:13
#04810:41
#04315:0023000000000013
#04318:2323
#04312:0000002300000000
#0431b:00230000
#0401b:2300000000130000
#04018:0000001300001300
#04012:00130000
#04015:0000000013000013
#03618:0000001300000013
#03612:00130013
#0361b:0013000000130000
#03615:1313
#03718:0000000000000013
#03712:00130000
#03715:23
#03713:0000003300000000
#03212:2300000000130000
#03215:0000001300001300
#0321b:00130000
#03218:0000000013000013
#03210:41
#02912:24000014
#0291a:00140000
#02916:0024
#0281a:24000014
#02812:00140000
#02816:0024
#0841a:0000000000000014
#08415:0000000000000014
#08412:24
#08417:24
#0821b:0023000000130013
#08212:00130013
#08215:0013
#08218:1300002300000000
#08115:0000000000000013
#08113:00250000
#08118:2426
#0001b:13
#00018:0033
#0001a:00330000
#06312:00130000
#06314:13
#06216:00000013
#06214:1313
#06212:00130000
#0611b:00130000
#06119:13
#05112:1300000013000026
#0511b:0000001300000000
#05115:00130000
#05118:0013000000260000
#04615:0000001300000013
#0461b:00130013
#04612:0013000000130000
#04618:1313
#04515:0000000000000013
#04514:00240000
#04518:2325
#03014:0000001400000014
#03012:0014000000140000
#03018:00240024
#0301a:2424
#01815:0013000000130000
#01812:0000001300000013
#01818:00130013
#0181b:2323
#01618:0013000000130000
#0161b:0000001300000013
#01615:00130013
#01612:2323
#0171b:0000001300000000
#01715:0000130000333300
#01718:0013000000000000
#01712:2323
#00618:0013000000130000
#0061b:0000001300000013
#00615:00130013
#00612:2323
#05216:0024000000140000
#05212:00001414
#0521a:24240000
#05715:0000000000130000
#05714:0000001300000000
#05713:0013000000000000
#05718:00000023
#05719:0023
#0571a:00230000
#0571b:23
#05710:41
#05312:0000001300000000
#05315:0013000000130000
#05318:00232300
#0531b:23000023
#03518:0023000000000013
#03515:2323
#0351b:0000002300000000
#03512:00230000
#02715:0013001300000023
#02718:00130023
#02712:0000000000230000
#0271b:0023
#01512:0000001300000000
#01518:0013000000002300
#01515:0000130000230023
#0151b:0023
#06712:0014140000000000
#0671a:0000000014140000
#06717:0024240000000000
#06715:0000000024240000
#0381b:0013
#03818:00130013
#03815:0000001300130000
#03812:0013000000000013
#02015:0000001300000000
#02012:0000000000000013
#0201b:23
#02010:41
#00415:0013000000130000
#00412:0000001300000013
#00418:00130013
#0041b:2323
#00512:0000001300000000
#00518:0000130000333300
#00515:0013000000000000
#0051b:2323
#08312:0024240000000024
#0831a:0000000024240000
#08317:0024240000000024
#08315:0000000024240000
#08712:0000000000240024
#0871a:00002424
#08714:0024002400000000
#08718:24240000
#05612:0000000024242400
#0561a:2424240000000000
#0311a:24
#05515:26
#03914:0000240000240000
#03918:0024000024000000
#01258:0013
#0125b:53
#01055:0013
#01052:63
#00352:00530013
#00355:6353
#05555:00000016
#0315a:0014
#00858:0013
#0085b:53
#06858:13
#06852:13
#0195b:63
#01958:00230000
#08452:54
#08457:54
#0845a:0000000000000024
#08455:0000000000000024
#08752:0000000000000014
#07655:13
#0765b:13
#07755:5353
#0775b:5353
#07752:00530000
#07758:00530000
#07358:53
#0735b:00230000
#0405b:13
#01752:0053
#0055b:0063
#03755:63
#03752:00230000
#03252:13
#00752:53
#00755:00230000
#02952:14
#0285a:14
#03954:0000140000140000
#06958:6363
#06952:6363
#0695b:00630000
#06955:00630000
#00258:5353
#0025b:00630053
#02658:6363
#0265b:00630000
#00152:53
#06456:0053
#0645b:0053
#06452:53
#06457:53
#06552:53
#06557:53
#04158:6363
#0415b:00630000
#03355:5353
#03352:00530000
#04855:63
#04852:0000000000000023
#04858:0000000000000023
#0485b:63
#0425b:0063
#03452:0053
#0005b:63
#06352:00230000
#06354:63
#06256:00000023
#06254:6353
#06252:00230000
#0615b:00230000
#06159:53
#06057:00000023
#06059:5363
#0605b:00230000
#0003b0:13
#0003a0:00330000
#000380:00003323
#001320:13
#001330:00330000
#001350:00003323
#002380:1300000033000033
#002390:0033000000330000
#0023b0:00330033
#0023a0:0000003300000000
#003380:23
#003351:1333
#003341:0033003300330000
#003321:00330023
#0053b1:0013
#005381:0000000000333323
#007321:1323
#007351:0033333300000000
#0083b1:13
#008381:0000003323000000
#010321:13
#010351:0000003323000000
#0123b1:13
#012381:0000003323000000
#014381:13
#0143b1:00230000
#014351:0013
#014321:00000023
#017321:0013
#017351:0000000000333323
#0193b1:1323
#019381:0033333300000000
#0203b1:13
#020381:00230000
#020381:0013
#0203b1:00000023
#022321:13
#022351:00230000
#022351:0013
#022321:00000023
#0243b1:13
#024381:00230000
#024381:0013
#0243b1:00000023
#026381:1333
#0263b1:00330023
#0313a1:14343434343434342400000000000000
#033351:1300003333000000
#033321:00330023
#034321:0013
#034351:00000023
#035351:00001323
#037351:13003323
#037321:00330000
#037331:0000003300000000
#041381:1300003333000000
#0413b1:00330023
#0423b1:0013
#0423a1:0000000000330000
#042381:00000023
#043381:00001323
#045381:13230000
#045340:00142400
#045381:00001525
#048351:13
#048321:0000000000000053
#049351:00000023
#0483b0:13
#048380:0000000000000053
#0493b0:00000023
#055350:160000000056000000560000000056555600000056005600360000005656560056005600565500560056000000000000360000000056005556000000005600560056555655560000360000000000005655560000000000005655560056005600360000005655560056005656555600555600565600000000365600565556560055565456005655005656550000560000260000000000000000000000000000000000000000000000000000000000000000000000000000000000000000000000
#055360:000000000000550055000000000000000000000000550000000000000000005500000000000055000000000000000000000000000000550000000000000055000000000000000000000000000000000000000000000000000000000000550000000000000000000000550000000055000054000000000000000055000000005500000000550000550000005555000000000000000000000000000000000000000000000000000000000000000000000000000000000000000000000000000000
#060390:1333
#0603b0:00530000
#060370:00000053
#061390:3323
#0613b0:00330000
#062340:1333
#062320:00530000
#062360:00000053
#063340:3323
#063320:00330000
#064320:13
#064360:0033
#065320:33
#065340:00330000
#065360:0023
#064371:13
#0643b1:0033
#065371:33
#065391:00330000
#0653b1:0023
#066371:12323222
#069381:1300003333000000
#0693b1:00330023
#069320:1300003333000000
#069350:00330023
#0713b0:0013
#071380:00000023
#073380:13003323
#0733b0:00330000
#073390:0000003300000000
#077350:1300003333000000
#077320:00330023
#0773b1:1300003333000000
#077381:00330023
#079321:0013
#079351:00000023
#081381:14240000
#081330:00152500
#081381:00001626
#084371:14
#0843a1:0000000000000054
#085371:00000024
#084320:14
#084350:0000000000000054
#085320:00000024
