This file was generated by Ched 2.7.0.0.
#TITLE ""
#ARTIST ""
#DESIGNER ""
#DIFFICULTY 0
#PLAYLEVEL
#SONGID ""
#WAVE ""
#WAVEOFFSET 0
#JACKET ""
#REQUEST "ticks_per_beat 480"
#00002: 4
#BPM01: 152
#00008: 01
#TIL00: ""
#HISPEED 00
#MEASUREHS 00
#0041a:1414
#00414:00140014
#00518:1414
#00512:00140000
#0111a:0014
#01118:14
#01114:00140000
#01112:00000014
#00912:14
#00914:0014
#00918:00140000
#0091a:00000014
#03012:00140000
#03014:00000014
#0301a:0024
#03018:24
#03214:0014
#0321a:00000014
#03218:00140000
#03212:24
#03210:41
#0341a:14
#03414:00140000
#03418:0014
#03412:00000014
#03312:14
#03314:00340000
#03612:14
#03618:00140000
#03614:0014
#0361a:00000014
#03714:14
#03718:00140000
#03712:0014
#03818:14
#03814:00140000
#0381a:0014
#03812:00000014
#03918:0016000016000000
#03912:0000160000160000
#04813:00160016
#04812:16
#04814:0016
#04810:41
#04913:00160016
#04912:16
#04914:0016
#05214:0014
#0521a:0014
#05212:24
#05218:24
#05814:14
#05812:0014
#05818:00140000
#0581a:00000014
#05914:14
#05918:00140000
#05912:0014
#06818:00140000
#06814:0014
#0681a:00000014
#06812:24
#0681f:21
#06810:0041
#07418:14
#07414:00140000
#0741a:0014
#07412:00000014
#0351a:14
#03518:00340000
#04018:0014
#04014:00140000
#04012:00000014
#0401a:24
#04118:00140000
#0411a:14
#04212:14
#04218:00140000
#04214:0014
#0421a:00000014
#04314:00140000
#04312:14
#0441a:14
#04414:00140000
#04418:0014
#04412:00000014
#04614:14
#04618:00140000
#04612:0014
#0461a:00000014
#04712:0016000016000000
#04718:0000160000160000
#05018:0016
#05112:16
#05118:0016
#05414:14
#0541a:14
#05412:0014
#05418:0014
#05613:0014
#05619:0014
#0561a:24
#05612:24
#07214:14
#07218:00140000
#07212:0014
#0721a:00000014
#07314:14
#07318:00140000
#07312:0014
#07014:00140000
#07018:0014
#07012:00000014
#0701a:14
#07614:00001414
#0761a:24140000
#07818:00001414
#07812:14140000
#0801a:14
#08012:00140000
#08018:0014
#08014:00000014
#08413:00160016
#08412:16
#08414:0016
#08513:00160016
#08512:16
#08514:0016
#08214:14
#08218:00140000
#08212:0014
#0821a:00000014
#08618:00140014
#08614:0014
#08712:14002626
#0871a:00140000
#08718:0000000000260026
#07718:00140000
#0771a:24
#07914:00140000
#07912:24
#00612:1414
#00618:00140014
#00714:1414
#0071a:00140000
#01314:0014
#01312:14
#01318:00140000
#0131a:00000014
#0151a:0014
#01514:14
#01418:0014
#01412:14
#01612:14
#01618:00140000
#01614:0014
#0161a:00000014
#01714:14
#01712:0014
#01718:00140000
#0181a:14
#01814:00140000
#01818:0014
#01812:00000014
#01918:14
#0191a:0014
#01914:00140000
#02312:0014
#02314:14
#02318:00140000
#0231a:00000014
#0211a:14
#02118:0014
#02114:00140000
#02112:00000014
#02518:0014
#0251a:14
#02514:00140000
#02512:00000014
#02712:0014
#02718:14
#02614:0014
#0261a:14
#0601f:11
#03118:24
#04518:24
#04514:00240000
#0451a:0024
#0571a:24
#05710:41
#06712:0026000026000000
#06718:0000260000260000
#07518:0026000026000000
#07512:0000260000260000
#08118:2626
#08112:00260000
#08312:0026000026000000
#08318:0000260000260000
#02913:0034
#02912:00340000
#02819:0034
#0281a:00340000
#00810:41
#02010:41
#03352:64
#04853:00660056
#04852:26
#04854:0026
#04953:00660066
#04952:26
#04954:0026
#03158:0014
#00352:00000014
#0355a:54
#0415a:54
#04158:00240000
#04352:64
#04354:00240000
#0455a:0014
#05052:16
#05058:0016
#05152:16
#05158:0016
#06954:0014
#07158:0014
#08158:0016
#08453:00660056
#08452:26
#08454:0026
#08553:00660066
#08552:26
#08554:0026
#0775a:6414
#07758:00240000
#07954:00240000
#07952:5414
#000340:14
#000320:0034
#001340:34
#001320:0034
#002340:34
#002330:00340034
#002320:0034
#003340:34
#003330:00340000
#003320:00003424
#008380:14
#0083a0:0024
#010320:14
#010340:0024
#012380:14
#0123a0:0024
#020340:14
#020320:0024
#0223a0:14
#022380:0024
#024340:14
#024320:0024
#0283a0:14340000
#028390:0034
#028380:00000024
#029320:14340000
#029330:0034
#029340:00000024
#031380:1434343424000000
#033320:14
#033340:00342400
#0353a0:14
#035380:00342400
#0413a0:1424
#041380:00340000
#043320:1424
#043340:00340000
#047320:0000000000000016
#048320:36
#048330:00560056
#048340:0036
#049320:36
#049330:00560056
#049340:0036
#050320:26
#053380:14
#053390:00340000
#0533a0:0024
#053321:14
#053331:00340000
#053341:0024
#055341:14
#055331:00340000
#055321:0024
#0553a0:14
#055390:00340000
#055380:0024
#057320:14
#057340:00342400
#0573a1:14
#057381:00342400
#060381:14
#0603a1:0034
#0613a1:34
#061381:0024
#062341:14
#062321:0034
#063321:34
#063341:0024
#0643a1:14
#064381:0024
#065321:14
#065341:0024
#0663a1:14
#066381:0024
#069321:14
#069341:00342400
#0713a1:14
#071381:00342400
#0773a1:1424
#077381:00340000
#079321:1424
#079341:00340000
#083321:0000000000000016
#084321:36
#084331:00560056
#084341:0036
#085321:36
#085331:00560056
#085341:0036
#086321:26
