This file was generated by Ched 2.7.0.0.
#TITLE ""
#ARTIST ""
#DESIGNER ""
#DIFFICULTY 0
#PLAYLEVEL
#SONGID ""
#WAVE ""
#WAVEOFFSET 0
#JACKET ""
#REQUEST "ticks_per_beat 480"
#00002: 4
#BPM01: 137
#00008: 01
#TIL00: ""
#VOLUME: ""
#HISPEED 00
#MEASUREHS 00
#00019:14
#00213:14
#0041a:14
#00410:41
#00514:14
#0061a:14
#03712:0016
#03718:26
#0371f:21
#03818:16
#03812:0016
#03918:16
#04118:0016
#04112:16
#04212:16
#04218:0016
#04312:16
#04518:2616
#04612:1616
#04718:16
#04712:0016
#04912:1616
#04910:41
#05018:1616
#05112:16
#05118:0016
#05312:0016
#05318:26
#05418:1616
#05512:16
#05518:0016
#05712:16
#05718:0016
#05812:1616
#05918:16
#05912:0016
#05910:41
#06213:14
#0281a:14
#0281f:11
#02914:14
#03212:14
#03318:14
#00714:14
#00818:14
#00912:14
#01018:14
#01112:14
#0121a:14
#01210:41
#01312:14
#01514:14
#01418:14
#0161a:14
#01712:14
#01818:14
#01914:14
#06319:24
#06119:24
#02310:41
#04010:41
#0203a0:14
#0213a0:24
#022320:14
#023320:24
#024380:14
#025380:24
#026340:14
#027340:24
#0303a0:14
#0313a0:24
#034320:14
#035320:3434
#036320:24
#039380:0016
#040380:3626
#043320:0016
#044320:3626
#048380:1626
#052320:1626
#056380:1626
#060320:1626
#063390:14
#064390:3424
#065320:14
#066320:24
#0673a0:14
#0683a0:3400000000000024
