This file was generated by Ched 2.7.0.0.
#TITLE ""
#ARTIST ""
#DESIGNER ""
#DIFFICULTY 0
#PLAYLEVEL
#SONGID ""
#WAVE ""
#WAVEOFFSET 0
#JACKET ""
#REQUEST "ticks_per_beat 480"
#00002: 4
#BPM01: 137
#00008: 01
#TIL00: ""
#VOLUME: ""
#HISPEED 00
#MEASUREHS 00
#00412:00130000
#00416:24
#00410:41
#0051b:00130000
#00515:23
#00812:00130000
#00815:23
#00612:00130013
#00615:0013
#00618:23
#00715:0013
#0071b:13
#00718:00130000
#00712:00000013
#01012:00130000
#01016:0013
#0101b:2300000000130000
#01017:0000000000000013
#01112:14
#01118:00140000
#01114:0014
#0111a:00000014
#00917:00130000
#00916:23
#01212:00130000
#01216:2400000013130000
#01217:0000000000000013
#0121b:0000000000130000
#01210:41
#01316:0013130000000000
#0131b:00130000
#0161b:00130000
#01617:0000000013130000
#01616:2400000000000013
#01612:0000000000130000
#01716:0014
#01417:1300000000000013
#01416:0000000013130000
#01516:00000013
#01512:00130000
#0151b:00130000000000000000000000000000
#01817:13000013
#01816:00131300
#01812:13
#0181b:0013
#01912:00131300
#0191b:13000013
#01916:13
#01917:0013
#02012:16
#02018:16
#0201c:00000012
#02118:12000012
#02116:0000001200000000
#02415:00000012
#02419:00000012
#02512:12
#0251c:0000001200000000
#02616:0012
#02614:00000012
#0261a:00000012
#0261c:0012
#02712:12
#02318:12
#02312:12
#02316:0012
#0231c:0012
#02310:41
#0291b:13
#02917:00130000
#02912:0013000000000000
#03312:13
#03316:00130000
#0331b:0013000000000000
#03017:13000013
#0301b:00131300
#03016:0013
#03012:13
#03116:1300000000130000
#03112:00130000
#0311b:1300000000130000
#03416:13000013
#03412:00131300
#03417:0013
#0341b:13
#03517:1300000013000022
#0351b:00130000
#03512:1313
#03212:16
#03712:00130000
#0371b:00130013
#03715:0000000013000013
#0371f:21
#03818:1300000013000013
#03815:0013000000001300
#0381b:00130000
#03812:0013
#03912:1313
#03918:0013000000000000
#03915:00130000
#0391b:0013
#0411b:00130000
#04112:00130013
#04118:0000000013000013
#04115:16
#04215:1300000013000013
#04218:0013000000001300
#04212:00130000
#0421b:0013
#0431b:1313
#04315:0013000000000000
#04318:00130000
#04312:0013
#04015:13
#04012:0000131300000000
#04018:1300001300000000
#04010:41
#04418:13
#0441b:0000131300000000
#04415:1300001300000000
#0451b:0000000000001313
#04512:00132300
#04515:26
#04517:00230000
#04618:0013130000001313
#0461b:0013
#04615:2323
#0471b:0013130000000000
#04712:2313
#04718:0013
#04818:1300001300000000
#04812:13
#04815:0000131300000000
#04912:0000000000001313
#0491b:00132300
#04914:28
#04916:00230000
#04910:41
#05015:0013230000001313
#05012:0013
#05018:2323
#05112:0013230000000000
#0511b:2313
#05115:0013
#0521b:1300001300000000
#05215:13
#05212:0000131300000000
#05314:18
#0531a:00141400
#05312:00140014
#05316:0000000000000014
#05416:0014140014000014
#05412:14001414
#0541a:0000000000140000
#05516:14001424
#0551a:0014140000000000
#05512:0024
#05712:00140000
#0571a:00000014
#05716:0000140014000014
#05714:28
#05816:0014140014000014
#0581a:14001414
#05812:0000000000140000
#05916:14001424
#05912:0014140000000000
#0591a:0024
#05910:41
#05612:14000000000000000014000000000000
#05616:00000000000014000014000000000000
#0561a:2400242400000000
#0601a:14000000000000000014000000000000
#06016:00000000000014000014000000000000
#06012:2400242400000000
#06712:12
#06716:00000000320000003200003200003200
#0651c:12
#06518:00000000320000003200003200003200
#06618:12
#0661c:00000000320000003200003200003200
#06816:12
#06812:00000000320000003200003200000000
#0611a:0000001414000000
#06116:0014
#06112:00000014
#06114:28
#0621a:1414
#06214:00140000000000000000000000000000
#06212:00000014000000000034143400000000
#06218:0014000000000000
#06216:0000140024140000
#06312:24000000130000000033133300000000
#06314:0000001300000000
#06316:0013
#06317:13
#06417:00000000130000000033133300000000
#06419:0000001300000000
#0641b:0013
#06416:13
#0281f:11
#02818:26
#00018:00000000320000003200003200003200
#0011c:00000000320000003200003200003200
#00216:00000000320000003200003200003200
#00312:00000000320000003200003200003200
#01152:14
#01158:00140000
#01154:0014
#0115a:00000014
#01356:00630000
#0135b:00630000
#01352:0013
#01357:0013
#01756:0014
#01257:0000000000000053
#01256:0000000000630000
#01656:0000000000000063
#01657:0000000000530000
#01456:0000000000630000
#01457:0000000000000053
#01556:00000063
#01552:00530000
#0155b:00230000000000000000000000000000
#01857:53
#01856:0063
#01952:0053
#0195b:63
#02052:16
#02058:16
#02156:0000005200000000
#02158:52
#02552:52
#0255c:0000005200000000
#02452:12
#02458:12
#02352:52
#02358:52
#02356:0052
#0235c:0052
#02858:16
#0295b:0013
#02957:00530000
#03356:00630000
#03352:0013
#03052:53
#03056:0053
#03152:00530000
#03156:0000000000530000
#0315b:5300000000530000
#03457:0063
#0345b:63
#0355b:00630000
#03552:6353
#03557:0000000053000052
#03753:1a
#0375b:00530000
#03755:0053
#03252:16
#0385b:00130000
#03858:0053
#03955:00130000
#03952:0053
#0395b:0053
#04252:00130000
#04255:0063
#04158:0063
#04152:00630000
#04155:16
#04358:00130000
#0435b:0063
#04352:0063
#04058:5300005300000000
#04052:0000005300000000
#04455:6300006300000000
#0445b:0000006300000000
#04555:16
#04557:00530000
#04552:0053
#04658:00130000
#04655:5353
#0475b:00130000
#04752:5363
#04758:0063
#04858:6300005300000000
#04855:0000006300000000
#0515b:6353
#05155:0053
#05152:00130000
#04954:18
#0495b:0063
#04956:00630000
#05058:6363
#05055:00130000
#0525b:5300006300000000
#05252:0000005300000000
#05354:18
#05352:00540000
#0535a:0054
#05456:00145400
#0545a:0000140000240000
#0555a:00140000
#05556:00145400
#05756:00646400
#05754:18
#05856:00146400
#05852:0000140000240000
#05952:00140000
#05956:00146400
#05652:54000000000000000024000000000000
#05656:00000000000054000024000000000000
#0565a:0000005400000000
#0605a:64000000000000000024000000000000
#06056:00000000000064000024000000000000
#06052:0000006400000000
#06154:18
#0615a:0054
#06152:00000014
#06752:52
#0655c:52
#06658:52
#06856:52
#06256:0000540054240000
#0625a:00005414
#06252:0000000000240000
#0645b:0063
#06457:0000000000230000
#06456:53
#06356:0063
#06352:0000000000230000
#06357:53
#0003c0:12
#000380:00000000320000003200003200003200
#001380:32
#0013c0:00000000320000003200003200003200
#0023c0:22
#002321:12
#002361:00000000320000003200003200003200
#003361:32
#003321:00000000320000003200003200003200
#004321:22
#0043b1:00130000
#004381:0023
#004350:0013
#004320:00000023
#0043b1:00000013
#005381:23
#005321:00130000
#005351:0023
#005380:0013
#0053b0:00000023
#005321:00000013
#006351:23
#006381:00130023
#0063b1:0033
#007351:13
#007321:00230000
#0073b1:0013
#007381:00000033
#0083b1:23
#008371:00130000
#0083b1:0023
#008360:0013
#008320:00000023
#008371:00000013
#0093b1:23
#009321:00130000
#009361:0023
#0093b0:0013
#009370:00000023
#009321:00000013
#010361:23
#010371:00130000
#0103b1:0023
#010361:0000000000130000
#010321:0000000000000023
#0123b1:00132300
#012361:0000000000130000
#012321:0000000000000023
#012370:0000000000000013
#0133b0:0023000000000000
#0133b0:00130000
#013370:0023
#013361:00130000
#013321:0023
#014321:13230000
#0143b0:00132300
#014360:0000000000130000
#014320:0000000000000023
#014371:0000000000000013
#0153b1:00530000000000000000000000000000
#015371:00230000
#015320:00130000
#015360:0023
#0153b1:00001323
#015360:00000013
#016320:23
#016320:00132300
#016370:0000000000130000
#0163b0:0000000000000023
#016361:0000000000000013
#017321:00230000
#0173b0:00132300
#018370:13
#0183b0:00230000
#018360:0013
#018320:00000023
#0193b0:13
#019370:00230000
#019320:0013
#019360:00000023
#020320:00000012
#021320:22
#021381:12
#0213c1:0000002200000000
#021360:0000001200000000
#021320:00000022
#0223c0:12
#022380:00220000
#022321:12
#022361:00220000
#023321:12
#023361:0032
#024321:22
#023380:12
#0233c0:0032
#024380:22
#025320:12
#025360:0000002200000000
#0253c1:0000001200000000
#025381:00000022
#025320:00000012
#026320:32
#026360:00220000
#026381:12
#0263c1:00220000
#027381:12320000
#0273c1:00000022
#027320:00120000
#027360:00000022
#028320:00130000
#028360:0023
#0283b1:00001323
#028360:00000013
#029320:23
#029370:00130000
#0293b0:0023
#030320:13
#030360:00230000
#030360:0013
#030320:00000023
#0313b0:13
#031370:00230000
#031321:00130000
#031361:0023
#031361:0000000000130000
#031321:0000000000000023
#0313b0:0000000000130000
#031370:0000000000000023
#0323b0:00130000
#032370:0023
#032321:00001323
#032370:00000013
#0333b0:23
#033360:00130000
#033320:0023
#0343b0:13
#034370:00230000
#034370:0013
#0343b0:00000023
#035320:13
#035360:00230000
#0353b1:00130023
#035371:0033
#035320:0013
#035360:00000023
#035370:0000000000000012
#037330:2a
#0373b0:00130000
#037380:0023
#037351:0013
#037321:00000023
#038381:0013
#0383b1:00000023
#0393b1:0013
#039381:00000023
#039320:0013
#039350:00000023
#040380:13
#0403b0:00230000
#040320:0000001300000000
#040350:00000023
#040381:0000001300000000
#0403b1:00000023
#041321:00130000
#041351:0023
#041380:0013
#0413b0:00000023
#042350:0013
#042320:00000023
#043320:0013
#043350:00000023
#0433b1:0013
#043381:00000023
#044351:13
#044321:00230000
#0443b1:0000001300000000
#044381:00000023
#044350:0000001300000000
#044320:00000023
#045370:00130000
#0453b0:0023
#045321:0013
#045361:00000023
#046351:13
#046321:00230000
#046351:0013
#046321:00000023
#047321:13
#047351:00230000
#047321:0013
#047351:00000023
#047380:0013
#0473b0:00000023
#048380:13
#0483b0:00230000
#048350:0000001300000000
#048320:00000023
#048381:0000001300000000
#0483b1:00000023
#049361:00130000
#049321:0023
#0493b0:0013
#049370:00000023
#050380:13
#0503b0:00230000
#050380:0013
#0503b0:00000023
#0513b0:13
#051380:00230000
#0513b0:0013
#051380:00000023
#051351:0013
#051321:00000023
#0523b1:13
#052381:00230000
#052321:0000001300000000
#052351:00000023
#0523b0:0000001300000000
#052380:00000023
#053320:00140000
#053360:0024
#0533a1:0014
#053361:00000024
#054361:14
#0543a1:0054240000000000
#054361:00001424
#0543a1:0000000000540000
#055321:14
#055361:0054240000000000
#055361:0014
#0553a1:00000024
#056321:14
#056361:00240000
#056361:0000001400002400
#056321:00000000000000000054000000000000
#0563a0:0000001400002400
#056360:00000000000000000054000000000000
#057360:00140000
#0573a0:0024
#057361:0014
#057321:00000024
#058361:14
#058321:0054240000000000
#058361:00001424
#058321:0000000000540000
#0593a1:14
#059361:0054240000000000
#059361:0014
#059321:00000024
#0603a1:14
#060361:00240000
#060361:0000001400002400
#0603a1:00000000000000000054000000000000
#060320:0000001400002400
#060360:00000000000000000054000000000000
#061320:0000142400000000
#0613a0:0014
#061360:00000024
#062360:0000140000540000
#0623a0:00005424
#062361:00001424
#062321:00000000000000000034343400000000
#063371:13
#0643b1:23
#063360:00001323
#063320:00000000000000000033333300000000
#064360:13
#065320:23
#0643b1:00001323
#064371:00000000000000000033333300000000
#0653c1:12
#065381:00000000320000003200003200003200
#066381:32
#0663c1:00000000320000003200003200003200
#0673c1:22
#067320:12
#067360:00000000320000003200003200003200
#068360:32
#068320:00000000320000003200003200002200
