This file was generated by Ched 2.7.0.0.
#TITLE ""
#ARTIST ""
#DESIGNER ""
#DIFFICULTY 0
#PLAYLEVEL
#SONGID ""
#WAVE ""
#WAVEOFFSET 0
#JACKET ""
#REQUEST "ticks_per_beat 480"
#00002: 4
#BPM01: 137
#00008: 01
#TIL00: ""
#VOLUME: ""
#HISPEED 00
#MEASUREHS 00
#00412:00120000
#00414:0012
#0041a:22
#00410:41
#00518:00120000
#0051a:0012
#00617:0012
#00614:00120000
#0061a:00000012
#0081c:00120000
#0081a:0012
#00814:22
#00916:00120000
#00914:0012
#01017:0012
#0101a:00120000
#01014:00000012
#01215:0000130013130000
#01219:24
#01210:41
#0131b:0013130000000000
#01618:0000130013130000
#01613:24
#01712:0013130000000000
#0151b:00000013
#01518:0013
#01412:1300000000000013
#01415:0000130000130000
#01418:0013
#0181b:13
#01818:00331300
#01912:13
#01915:00130000
#0191b:00000013
#01918:0013
#02015:16
#0201b:00000012
#02219:12
#02413:00000012
#02615:12
#0261a:0012
#02617:00000012
#02714:12
#02812:15
#0281b:00130000
#02818:0013
#02815:00000013
#0281f:11
#03219:15
#03212:00130000
#03215:0013
#03218:00000013
#0311b:00130000
#03112:0000000000130000
#03115:13
#03418:13
#03412:00130000
#0341b:0013
#03415:00000013
#03518:13130000
#03512:00130000
#03514:0000000000000022
#0351a:00000022
#0371b:00130000
#03718:0013
#03712:0000000000000013
#0371f:21
#03815:0013000013000000
#03818:23130000
#0381b:0000000000000013
#03918:0013000013000000
#03915:23130000
#03912:0013
#04112:00130000
#04115:0013
#04118:1600000000000013
#04218:0013
#0421b:0013000000000000
#04215:2300130000000013
#04312:0013000000000000
#04318:23130000
#0431b:0013
#04315:0013
#0401b:13
#04015:0000001300000000
#04012:00000000000000000013000000000000
#04010:41
#04412:13
#04418:0000001300000000
#0441b:00000000000000000013000000000000
#05316:0000140000000014
#05318:0013
#05312:2513
#05319:25
#04616:0014000000000000
#0461a:00140000
#04618:00000014
#04614:0000000000000014
#04612:2416
#04514:00000014
#04518:0000000000000014
#0451a:00140000
#04512:26
#04716:0014000000000000
#04712:00141300
#0471b:0013
#0471a:24
#03015:13
#0301b:00130000
#03012:0013
#03018:00000013
#04813:14
#04819:14
#0481b:00130000
#04812:0000001300000000
#04815:00000000000000000013000000000000
#05018:0014000016000000
#05014:00140000
#05012:24000014
#05016:0000000000000014
#0491a:00000014
#04916:0000000000000014
#04912:00140000
#04918:26
#04910:41
#05114:0014000000000000
#05118:00141300
#05115:0013
#0511a:24
#0521a:14
#05212:14
#05216:00140000
#05417:0014
#05412:0014
#05416:0000000000000014
#05716:0000140000000014
#05715:0013
#0571b:0013
#05712:25
#05719:25
#05815:0014
#0581a:0014
#05816:0000000000000014
#05612:00130000
#0561b:0000001300000000
#05618:00000000000000000013000000000000
#05615:16
#06015:16000000000000000013000000000000
#06012:0000131300000000
#0601b:0000131300000000
#06018:00000000000000000013000000000000
#06116:0000140000001414
#06112:2514
#0611a:0014
#06119:25
#06212:0014
#0621a:0014
#06216:00000014
#06215:0033000000000000
#06218:0033000000000000
#06512:14
#06517:0012
#06717:0012
#0671b:12
#02912:23
#02915:00230000
#02918:0023
#0331b:23
#03318:00230000
#03315:0023
#05518:0026
#05512:00000026
#05912:0026
#05918:00000026
#05910:41
#06312:24
#06316:0000343434000000
#0641a:24
#06416:0034340034000000
#02310:41
#01255:0000000000530000
#0135b:00530000
#01358:0013
#01658:0000000000630000
#01752:00630000
#01755:0013
#01455:0000000000530000
#01452:0000000000000053
#0185b:63
#01858:0063
#02055:16
#02259:12
#02453:12
#02459:12
#02655:12
#02852:15
#02958:0053
#03259:15
#03355:0063
#0315b:00530000
#03152:0000000000630000
#03558:00630000
#03552:00630000
#03554:0000000000000052
#03752:16
#0375b:00530000
#03758:0053
#03855:0063
#04152:00630000
#04155:0063
#04158:16
#04258:0053
#0405b:63
#04055:0000006300000000
#04052:00000000000000000023000000000000
#04452:53
#04458:0000005300000000
#0445b:00000000000000000023000000000000
#05358:0063
#05352:1563
#05359:15
#04552:16
#0455a:00540000
#04652:0016
#0475b:0063
#04752:0053
#03952:0053
#03958:0053
#0435b:0063
#04355:0063
#04952:00640000
#04958:16
#05058:0016
#05158:0053
#05155:0063
#04852:0000005300000000
#04855:00000000000000000023000000000000
#05457:0064
#05452:0064
#05755:0053
#0575b:0053
#05752:15
#05759:15
#05855:0054
#0585a:0054
#0565b:0000006300000000
#05658:00000000000000000023000000000000
#05655:16
#06055:16000000000000000023000000000000
#0605b:0000006300000000
#06058:00000000000000000023000000000000
#06052:0000005300000000
#06152:15
#06159:15
#06352:54
#0645a:64
#06552:14
#0003c0:1232
#001380:3222
#002320:1232
#003360:3222
#004360:00000012
#005360:22
#0053c0:00000012
#0063c0:22
#007320:12
#007350:00220000
#007390:0012
#0073c0:00000022
#008380:00000012
#009380:22
#009320:00000012
#010320:22
#0113c0:12
#011390:00220000
#011350:0012
#011320:00000022
#012350:0000000000130000
#012320:0000000000000023
#0133b0:00130000
#013380:0023
#014350:0000000000130000
#014320:0000000000000033
#015350:00230000
#016380:0000000000130000
#0163b0:0000000000000023
#017320:00130000
#017350:0023
#0183b0:13000023
#018380:00333300
#021330:12000022
#021360:0000003200000000
#023330:12
#023360:0032
#024330:22
#023391:12
#0233c1:0032
#024391:22
#0253b1:12000022
#025381:0000003200000000
#0273b1:00120000
#027381:00005222
#029381:0013
#0293b1:00000023
#0313b1:00130000
#031381:0023
#031321:0000000000130000
#031351:0000000000000023
#033351:0013
#033321:00000023
#035381:00130000
#0353b1:0023
#035320:00130000
#035350:0023
#035340:0000000000000012
#037320:26
#0373b0:00130023
#037380:0033
#038350:0013
#038320:00000023
#039320:0013
#039350:00000023
#039381:0013
#0393b1:00000023
#0403b1:13
#040381:00230000
#040351:0000001300002300
#040321:00000000000000000053000000000000
#041321:00130023
#041351:0033
#042381:0013
#0423b1:00000023
#0433b1:0013
#043381:00000023
#043350:0013
#043320:00000023
#044320:13
#044350:00230000
#044380:0000001300002300
#0443b0:00000000000000000053000000000000
#0453a0:00140000
#045360:0024
#0473b0:0013
#047380:00000023
#047321:0013
#047351:00000023
#048321:0000001300002300
#048351:00000000000000000053000000000000
#049321:00140000
#049361:0024
#051381:0013
#0513b1:00000023
#051350:0013
#051320:00000023
#052360:0000001400000000
#052370:00000022
#053380:0013
#0533b0:00000023
#053321:0013
#053351:00000023
#054351:13
#054321:0033230000000000
#0543b0:13
#054380:0033230000000000
#054370:0014
#0543a0:00000024
#054321:0014
#054351:00000024
#055351:14
#055321:0034240000000000
#0553a0:14
#055370:0034240000000000
#0563b0:0000001300002300
#056380:00000000000000000053000000000000
#057350:0013
#057320:00000023
#0573b1:0013
#057381:00000023
#058381:13
#0583b1:0033230000000000
#058320:13
#058350:0033230000000000
#058350:0014
#058320:00000024
#0583a1:0014
#058371:00000024
#059371:14
#0593a1:0034240000000000
#059320:14
#059350:0034240000000000
#0603b0:0000001300002300
#060380:00000000000000000053000000000000
#060321:0000001300002300
#060351:00000000000000000053000000000000
#062321:13
#062351:0033230000000000
#0623b0:13
#062380:0033230000000000
#063320:14
#063360:0000343434002400
#0643a0:14
#064360:0034340034002400
#0663b0:12322200
#068330:12000000320000003200003200002200
