This file was generated by Ched 2.7.0.0.
#TITLE ""
#ARTIST ""
#DESIGNER ""
#DIFFICULTY 0
#PLAYLEVEL
#SONGID ""
#WAVE ""
#WAVEOFFSET 0
#JACKET ""
#REQUEST "ticks_per_beat 480"
#00002: 4
#BPM01: 137
#00008: 01
#TIL00: ""
#VOLUME: ""
#HISPEED 00
#MEASUREHS 00
#00018:12
#0001c:00000000320000003200003200003200
#00116:12
#00112:00000000320000003200003200003200
#0021c:12
#00218:00000000320000003200003200003200
#00312:12
#00316:00000000320000003200003200003200
#00416:0012
#00412:00120012
#00418:00000012
#0041c:00120000
#00410:41
#00518:0012
#0051c:00120012
#00516:00000012
#00512:00120000
#00618:0012
#00612:00120012
#00616:0000000000000012
#0061c:00120000
#00716:00120000
#0071c:12001212
#00718:0000000000120000
#00712:00000012
#00816:0000001212000000
#00812:00120012
#0081c:0000120000121200
#00918:0000001212000000
#0091c:00120012
#00912:0000120000121200
#01016:0000120000120000
#01012:0000001200000000
#01018:0000001200000012
#0101c:0000120000120000
#0111c:1200000000120000
#01118:0012000012000000
#01116:1200120000000012
#01112:0000001200001200
#0121c:1200000000000012
#01218:0000120000120000
#01216:00120000
#01212:0000000012120000
#01210:41
#0131c:00121200
#01318:0000001200000000
#01312:0012001200000000
#01316:00120000
#01612:1200000000000012
#01616:0000120000120000
#01618:00120000
#0161c:0000000012120000
#01712:00121200
#01716:0000001200000000
#0171c:0012001200000000
#01718:00120000
#01814:0012000000120000
#0181a:0000001200000000
#0181c:1200000012000012
#01816:1200000000000012
#01812:00120012
#01914:0012000000120000
#0191a:0000001200000000
#01918:1200000012000012
#01916:00120012
#01912:0000000000000012
#0201c:12000012
#02018:00120000
#02014:0012
#02017:00000012
#01412:1200000012000012
#01418:12
#01416:0000000000120000
#0141c:0000120000120000
#01518:0000120000000012
#01512:0012
#0151c:00000012
#01516:00120000000000000000000000000000
#02117:00000012000012000000000000000000
#0211c:12000012
#02112:00000000000000000012000000000000
#02215:0012
#02219:00000012
#02212:12
#02217:12
#02313:00120000
#02317:0000001200000012
#0231b:00000012
#02310:41
#02413:12
#02412:00000012
#02417:00000012
#02517:00000012000012000000000000000000
#02512:12000012
#0251c:00000000000000000012000000000000
#0261c:1212
#02617:12
#02612:00000012
#0271c:12
#03612:0012
#0361c:0012
#02812:00131313
#02815:0000001300000000
#02817:0000000000000013
#02816:0000000000130000
#0281f:11
#02814:28
#02917:13
#0291b:0013000000000000
#02912:0000001300130000
#02916:0013
#0291a:00000014
#03218:00130000
#0321b:0000001300130013
#03217:0013
#03216:00000013
#03312:13000014
#03316:0013000000000000
#0331b:0000001300130000
#03317:0013
#0301b:1313000000001300
#03012:0000001300000000
#03016:0000000000130014
#03112:13001313
#0311b:00131313
#03116:0014001400120000
#03118:0000000000120000
#03417:13130013
#0341b:0013001300130000
#03412:1313
#03416:0013001300130014
#03516:13130013
#03512:0013001300130024
#0351b:1313
#03517:0013001300130000
#0351a:0000000000000024
#06516:12
#06512:00000000320000003200003200003200
#06618:12
#0661c:00000000320000003200003200003200
#06712:12
#06716:00000000320000003200003200003200
#0681c:12
#06818:00000000320000003200003200000000
#03912:1613160013000000
#0391b:13001313
#03916:0013000000130000
#03917:0000000000000013
#04012:1400001300001400
#0401b:00130000
#04016:0000001400000014
#0401a:00000000000000000014000000000000
#04010:41
#0411a:14
#0411b:0000000000131300
#04116:0000130000000014
#04112:0000001300000000
#04212:1416140000131300
#04216:1300000013000014
#0421b:0013000000000000
#04317:1300000000130000
#04318:0016000000000000
#0431a:14140000
#04312:0013000013001300
#0431b:0013
#04316:0000000000000013
#0371b:00130000
#03717:0000001300000000
#03716:0000000000130000
#03712:00000013
#03718:0000000000000013
#03715:0000000000000013
#0371f:21
#03812:13
#0381b:0013000013001300
#03818:1600160000000013
#03817:0013000000130000
#03815:0000000000000013
#0441a:14000014
#04412:00000000130000000014000000000000
#04416:0000001400000014
#0441b:0000001300000000
#0451b:0000131300130013
#04512:2400001300131300
#04518:0013
#04517:0000130000000013
#0451a:24
#0461b:0013000000131300
#04612:1300000000130013
#04615:0013
#04616:0013000000000013
#04618:0013
#04917:0000131300000000
#0491b:0000001300000013
#04912:0000130000130013
#04916:0000000000131300
#04918:0013
#04910:41
#0501b:0013000000130013
#05017:0000000000131300
#05015:1313
#05018:1313
#05012:0013000000000013
#05118:13
#05112:0013000000130000
#05115:13
#0511b:0013000013001300
#05117:0000000000000013
#05116:0013
#04712:0013000013001300
#04716:0000000000000013
#04717:0013000013000000
#0471b:1300000000130000
#04814:00000014000000000000000000000000
#04812:0000002400001400
#04818:00000000000000000014000000000000
#0481a:24000024
#05217:0000000000001212
#0521c:0000002200000012
#05212:22000022
#05412:0014000014000000
#05416:0014000024141400
#05414:0000000000000014
#0541a:2400000000140000
#05312:00141414
#0531a:0000001400140024
#05316:0000241414140000
#0581a:0014000014000000
#05816:0014000024141400
#05818:0000000000000014
#05812:2400000000140000
#0571a:00141414
#05712:0000001400140024
#05716:0000241414140000
#05516:1424000014000014
#05512:0014000014001400
#0551a:0000000000140000
#05916:1424000014000014
#0591a:0014000014001400
#05912:0000000000140000
#05910:41
#05612:00000016000026000000000016001300
#0561b:0000000000000013
#05618:26000000000000000016000026000000
#06018:00000016000026000000000016000000
#0601b:0000000000000013
#06012:26000000000000000016000026001300
#06112:00141400
#0611a:00140000
#06116:0000001200000000
#06118:0000001200000012
#06212:1214181400140000
#06216:00000014000000001400000000001200
#06218:00120000000000000000000000000000
#0631c:00120000
#0631a:0000001200000000
#06312:16
#06318:26
#0641a:1212000000000000
#06416:00120012000000001200000000000000
#0641c:00000012
#06412:0000000000120000
#00456:1252
#00458:12000052
#00452:00000052
#0045c:00520000
#00058:52
#0025c:52
#00156:52
#00352:52
#00558:0062
#0055c:00000062
#00556:12000062
#00552:00620000
#00658:1252
#00652:00520052
#00656:0000000000000022
#00756:00620000
#0075c:62006252
#00758:0000000000220000
#00752:00000052
#00856:1252
#00858:12
#00852:00000052
#0085c:00520062
#00956:12
#00958:1262
#0095c:00000062
#00952:00620052
#01058:1200002200000000
#01056:1200620000620000
#01052:0000002200000000
#0105c:00620000
#0115c:6200000000220000
#01158:0022000052000000
#01156:0000620000000022
#01152:0000002200005200
#01252:1200000000520000
#0125c:1200000000000052
#01256:0000000000000032
#01258:0000520000520000
#01356:00524200
#01352:0000002200000000
#01652:1200000000000062
#01656:0000620000620000
#0165c:1200000000620000
#01658:0000000000000042
#01758:00623200
#0175c:0000002200000000
#01852:00520052
#0185c:5252
#01856:0000000000000022
#01958:6262
#01956:00620062
#01952:0000000000000022
#02056:12
#0205c:12
#02057:00000052
#01452:5200000000000052
#0145c:0000520000520000
#01558:0000520000000022
#01552:0052
#0155c:00000052
#01556:00220000000000000000000000000000
#0215c:52000052
#02157:00000022000052000000000000000000
#02152:00000000000000000022000000000000
#02252:52
#02257:52
#02353:00520000
#02357:0000002200000022
#0235b:00000052
#02453:52
#02457:00000062
#0245b:12
#02557:00000022000062000000000000000000
#02552:62000062
#0255c:00000000000000000022000000000000
#0265c:6252
#02657:62
#02652:00000052
#02854:18
#03552:0000002300000054
#0355a:0000000000000064
#03556:00630000
#0355b:6363
#03557:0023000000230000
#03752:16
#03758:16
#03652:0022
#0365c:0022
#02956:00005343
#02952:0000000000230000
#0295a:00000044
#03357:00006333
#0335b:0000000000230000
#03352:00000034
#03152:00000023
#03156:0000000000520000
#03158:0000000000620000
#0315b:00000023
#03252:34
#0325a:44
#03457:00530000
#0345b:0000002300000000
#03452:5353
#03456:0023000000230000
#06556:62
#06658:62
#06752:62
#0685c:62
#03952:00165300
#0395b:63130063
#03956:0023000000230000
#03957:0000000000000023
#04052:54000054
#04056:0000005400000024
#0405a:00000000000000000024000000000000
#04152:14
#0415a:14
#04357:6300130000230000
#0435a:00140000
#04352:0023000000005300
#0435b:0063
#04356:0000000000000023
#03852:53130000
#03858:00160000
#03857:0023000000000000
#0445a:64000064
#04456:0000006400000024
#04452:00000000000000000024000000000000
#04552:1400002300000000
#0455a:14
#04558:0063
#04557:00630000
#0455b:0000000000230000
#04256:53130000
#04252:00140000
#0425b:0023000000000000
#04652:5300130000230000
#04655:0053
#04656:0023000000000000
#0465b:0053000000000000
#04657:00130000
#04957:0000002300000000
#04952:14530000
#04956:0000000000230000
#04958:0053
#0495a:14
#05057:0000000000230000
#05055:63136300
#05058:53130000
#05052:0023000000000000
#0505b:0023000000000000
#05158:53130000
#05152:0023000000230000
#05155:63130000
#0515b:0023000000006300
#05157:0000000000000023
#05156:0063
#04752:0063000000005300
#04756:0000130000000023
#04757:0023000053000000
#0475b:6300130000230000
#04852:0000005400005400
#04858:00000000000000000024000000000000
#0485a:54000054
#04854:00000024000000000000000000000000
#05257:0000000000006222
#05252:00000062
#0525c:0000000000000022
#05357:12
#05352:12545454
#05356:0000542454240000
#0535a:0000002400240000
#05456:0024440054245400
#0545a:5400440000240000
#05452:0024000054000000
#0585a:0024000064000000
#05856:0024340064246400
#05852:6400340000240000
#0575a:00646464
#05752:1600002400240000
#05756:0000642464240000
#05758:16
#05556:5424440054000024
#0555a:0000440000240000
#05552:0024000000005400
#05956:6424340064000024
#0595a:0024000000006400
#05952:0000340000240000
#05658:56000000000000000026000056000000
#05652:00000026000056000000000056002300
#0565b:0000000000000023
#06058:00000026000066000000000066000000
#0605b:0000000000000023
#06052:66000000000000000026000066002300
#06152:1654
#06158:16
#06156:00000014
#0615a:00000014
#06256:00005414
#06252:0000000000240000
#0625a:00000014
#06358:00000012
#06352:56
#06456:00005212
#0645c:00000012
#06452:0000000000220000
#000380:12
#0003c0:00000000320000003200003200003200
#0013c0:32
#0023c0:32
#002380:00000000320000003200003200003200
#003380:32
#004380:22
#000361:12
#001361:32
#001321:00000000320000003200003200003200
#002321:32
#003321:32
#003361:00000000320000003200003200003200
#004361:22
#0043c1:00120000
#004381:0022
#004360:0012
#004320:00000032
#005360:22
#004381:00000012
#0053c1:22
#005321:00120000
#005361:0022
#005380:0012
#0053c0:00000032
#006380:22
#005361:00000012
#006321:22
#006321:00120000
#006361:0022
#006380:0012
#0063c0:00000022
#006321:00000012
#006361:0000000000000052
#007321:22
#0073c0:12
#007380:00220000
#007361:00120000
#007321:0022
#0073c0:00001232
#007380:0000000000520000
#008380:22
#007321:00000012
#008361:22
#0083c1:00120000
#008381:0022
#008360:0012
#008320:00000032
#009360:22
#0083c1:00000012
#009381:22
#009321:00120000
#009361:0022
#009380:0012
#0093c0:00000032
#010380:22
#009321:00000012
#010361:22
#010361:00122200
#010321:0000005200000000
#0103c0:00122200
#010380:0000005200000000
#010360:0000000000120000
#010320:0000000000000022
#0113c0:12220000
#011380:0052000000000000
#011361:00122200
#011321:0000005200000000
#011380:00001222
#0113c0:0000000000520000
#011321:00000012
#011361:0000000000000052
#012321:22
#012381:00120000
#0123c1:0022
#012321:0000000000120000
#012361:0000000000000022
#012380:0000000000120000
#0123c0:0000000000000032
#013380:0022000000000000
#013360:00122200
#013320:0000005200000000
#014320:12
#014360:00220000
#0143c1:00120000
#014381:0022
#0143c1:0000000000120000
#014381:0000000000000022
#014320:0000000000000012
#015360:00520000000000000000000000000000
#015320:00220000
#015381:00120000
#0153c1:0022
#015320:0012
#015360:00000022
#0153c1:00000012
#015381:0000000000000052
#0163c1:22
#016361:00120000
#016321:0022
#0163c1:0000000000120000
#016381:0000000000000022
#016360:0000000000120000
#016320:0000000000000032
#017360:0022000000000000
#017380:00122200
#0173c0:0000005200000000
#0183c0:12
#018380:00220000
#018321:00120000
#018361:0022
#0183c0:0012
#018380:00000022
#018321:00000012
#018361:0000000000000052
#019321:22
#019380:12
#0193c0:00220000
#019361:00120000
#019321:0022
#019380:0012
#0193c0:00000022
#019361:00000012
#019321:0000000000000052
#020361:22
#020371:00000012
#021321:22
#0213c0:1200002200000000
#021370:00000052000000000000000000000000
#021371:0000001200002200
#021321:00000000000000000052000000000000
#0213c0:00000012
#022370:32
#0223c0:00220000
#022321:12
#022371:00220000
#023331:1252525252525252320000000000000032525252525252522200000000000000
#023341:00520052005200520052005200520052000000000000000000000000000000000052005200520052005200520052005200000000000000000000000000000000
#023371:0000005200000000
#0233b0:1252525252525252220000000000000000000000000000000000000000000000
#0233a0:00520052005200520052005200520052000000000000000000000000000000000000000000000000000000000000000000000000000000000000000000000000
#0233b0:0000000000000000000000000000000012525252525252523200000000000000
#0233a0:00000000000000000000000000000000000000000000000000000000000000000052005200520052005200520052005200000000000000000000000000000000
#023370:0000000000000052
#0243b0:22
#024331:12
#024371:0022
#024371:00000012
#0253c1:22
#025320:1200002200000000
#025370:00000052000000000000000000000000
#025371:0000001200002200
#0253c1:00000000000000000052000000000000
#025320:00000012
#026370:32
#026320:00220000
#0263c1:12
#026371:00220000
#0263c1:0012
#026371:00000022
#026320:00000012
#027370:22
#027330:0000000000000000125252000000000000000000000052522200000000000000
#027340:00000000000000000000000000000000005200520000520052005200520000000000000052005200520052000052005200000000000000000000000000000000
#027350:00000000000000000000000000000000000000000052005200520052000052005200520000520052005200520000000000000000000000000000000000000000
#027360:00000000000000000000000000000000000000000000000000000000005200520052005200000000000000000000000000000000000000000000000000000000
#027381:0000000000000000125252000000000000000000000052522200000000000000
#027391:00000000000000000000000000000000005200520000520052005200520000000000000052005200520052000052005200000000000000000000000000000000
#0273a1:00000000000000000000000000000000000000000052005200520052000052005200520000520052005200520000000000000000000000000000000000000000
#0273b1:00000000000000000000000000000000000000000000000000000000005200520052005200000000000000000000000000000000000000000000000000000000
#028381:00130000
#0283b1:0000002300000000
#028371:0013
#0283b1:0000000000230000
#028361:00000013
#0283b1:0000000000000023
#029321:13230000
#029361:0053000000000000
#0293b0:00132300
#029370:0000005300000000
#029361:00001323
#029321:0000000000530000
#030371:13
#030321:0053230000000000
#030360:00130000
#0303b0:0000005323000000
#030371:0013
#030321:0000000000532300
#0313b1:1323000000000000
#031321:0000132300000000
#031361:0000000000120000
#031321:00000053
#0323a1:24
#031380:0000000000120000
#0313b0:00000053
#032320:24
#032320:00130000
#032350:0000002300000000
#032320:0013
#032360:0000000000230000
#032320:00000013
#032370:0000000000000023
#033370:13230000
#0333b0:0053000000000000
#033321:00132300
#033361:0000005300000000
#033370:00001323
#0333b0:0000000000530000
#034320:13230000
#034360:0053000000000000
#034371:00132300
#0343b1:0000005300000000
#034320:00001323
#034360:0000000000530000
#0353b0:13230000
#035370:0053000000000000
#035361:00132300
#035321:0000005300000000
#0353b0:00001323
#035370:0000000000530000
#035320:0000000000000014
#036320:0052
#037320:26
#0353a1:0000000000000014
#0363c1:0052
#037381:26
#037361:00130000
#037321:00000000005300002300000000000000
#037370:0013
#0373b0:00000000000000000053000023000000
#038320:13230000
#038370:0053000000000000
#038360:0013
#038320:00000000000000000053000023000000
#0393b0:13230000
#039360:0053000000000000
#039320:00001323
#039360:0000000000530000
#0393b1:00000013
#039371:0000000000000053
#0403b1:23
#040320:14
#040360:00240000
#040360:0000001400002400
#0403a0:00000000000000000054000000000000
#040321:00000014
#040361:0000000000000054
#041321:24
#0413b1:00130000
#041371:00000000005300002300000000000000
#041320:0013
#041360:00000000000000000053000023000000
#042360:13230000
#0423b0:0053000000000000
#0423b0:0013
#042370:00000000000000000053000023000000
#043370:13230000
#043320:0053000000000000
#0433b0:00001323
#043370:0000000000530000
#043321:00000013
#043361:0000000000000053
#044321:23
#0443a0:14
#044360:00240000
#044360:0000001400002400
#044320:00000000000000000054000000000000
#0443a1:00000014
#044361:0000000000000054
#0453a1:24
#045371:00130000
#045321:0000005300000000
#045351:0023
#045380:0013
#0453b0:0000000000530000
#045360:00000023
#046320:13230000
#046360:0053000000000000
#0463b1:1353000000000000
#046371:00230000
#046351:0013
#046321:0000000000530000
#046371:00000023
#0473b1:13230000
#047371:0053000000000000
#047320:1353000000000000
#047360:00230000
#047370:00001323
#0473b0:0000000000530000
#047321:00000013
#047361:0000000000000053
#048321:23
#0483a0:1400002400000000
#048340:00000054000000000000000000000000
#048321:0000001400003400
#048381:00000000000000000054000000000000
#0493a1:24
#0483a0:00000014
#049320:24
#049320:00130000
#049370:0000005300000000
#049350:0023
#049381:0013
#049361:0000000000530000
#0493b1:00000023
#050381:13230000
#050321:0053000000000000
#050350:13230000
#0503b0:0053000000000000
#050350:0013
#050370:0000000000530000
#050320:00000023
#051380:13230000
#051320:0053000000000000
#051351:13230000
#0513b1:0053000000000000
#051361:00001323
#051321:0000000000530000
#0513b0:00000013
#051370:0000000000000053
#0523b0:23
#052321:12
#052371:0052220000000000
#0523c1:0000001200000052
#052371:00005232
#053371:22
#052320:00000012
#052370:0000000000000052
#053320:22
#053320:00143434
#053360:0000005400540000
#054360:24
#053361:00143424
#0533a1:0000005400540000
#0543a1:14240000
#054361:0054000000000000
#054320:0014000000000000
#054360:00240000
#054360:00001434
#0543a0:0000000000540000
#0553a0:24
#054321:00001424
#054361:0000000000540000
#055361:14240000
#055321:0054000000000000
#055360:0014000000000000
#0553a0:00240000
#055360:00001424
#0553a0:0000000000540000
#055321:00000014
#055361:0000000000000054
#056321:24
#056380:1600002600000000
#056320:00000056000000000000000000000000
#056321:0000001600003600
#056381:00000000000000000056000000000000
#0563b1:0000000000000053
#057381:26
#056380:00000016
#056320:0000000000000053
#057320:26
#0573a0:00143434
#057360:0000005400540000
#058360:24
#057361:00143424
#057321:0000005400540000
#058321:14240000
#058361:0054000000000000
#0583a0:0014000000000000
#058360:00240000
#058360:00001434
#058320:0000000000540000
#059320:24
#0583a1:00001424
#058361:0000000000540000
#059361:14240000
#0593a1:0054000000000000
#059360:0014000000000000
#059320:00240000
#059360:00001424
#059320:0000000000540000
#0593a1:00000014
#059361:0000000000000054
#0603a1:24
#060320:1600002600000000
#060380:00000056000000000000000000000000
#060381:0000001600003600
#060321:00000000000000000056000000005300
#061321:26
#060320:00000016
#0603b0:0000000000000053
#061380:26
#0613a0:0000000000000000000000000000000014343434343434342400000000000000
#0613b0:00000000000000000000000000000000000000000000000000000000000000000052005200520052005200520052005200000000000000000000000000000000
#061321:0014
#061361:00000024
#0623a1:00140000
#062361:0000002400000000
#062361:00001424
#062321:0000000000540000
#0623a0:0000000000000000000000000000000014343434343434342400000000000000
#0623b0:00000000000000000000000000000000000000000000000000000000000000000052005200520052005200520052005200000000000000000000000000000000
#063320:16
#064320:22
#063381:0000000000000000000000000000000012323232323232322200000000000000
#064380:00000000123232322200000000000000
#064361:00001222
#064321:0000000000520000
#065361:12
#065321:00000000320000003200003200003200
#066321:32
#067321:32
#067361:00000000320000003200003200003200
#068361:3200000000000022
#065380:12
#066380:32
#0663c0:00000000320000003200003200003200
#0673c0:32
#0683c0:32
#068380:00000000320000003200003200002200
