This file was generated by Ched 2.7.0.0.
#TITLE ""
#ARTIST ""
#DESIGNER ""
#DIFFICULTY 0
#PLAYLEVEL
#SONGID ""
#WAVE ""
#WAVEOFFSET 0
#JACKET ""
#REQUEST "ticks_per_beat 480"
#00002: 4
#BPM01: 137
#00008: 01
#TIL00: ""
#VOLUME: ""
#HISPEED 00
#MEASUREHS 00
#00414:0014
#0041a:24
#00410:41
#0051a:14
#00612:14
#00618:0014
#00712:14
#0081a:14
#00812:0014
#0091a:14
#01014:14
#01018:0014
#01212:14
#0121a:0014
#01210:41
#01114:14
#0141a:14
#01412:0014
#01612:14
#0161a:0014
#0181a:14
#01812:0014
#02118:14
#02114:0014
#02514:14
#02518:0014
#02612:14
#0261a:0014
#0281a:14
#02812:0014
#0281f:11
#02918:1414
#02914:00140000
#03012:1414
#03118:14
#0311a:00340000
#03212:14
#0321a:0014
#03314:1414
#03318:00140000
#0341a:1414
#03514:14000034
#03512:00341400
#0371a:0014
#0371f:21
#03812:1414
#03818:00140000
#0391a:1414
#03914:00140000
#04112:0014
#04118:14
#04014:14
#04010:41
#0421a:1414
#04214:00140000
#04312:1414
#04318:00140000
#04418:14
#04618:00001414
#0471a:0014
#04712:00000014
#05014:00001414
#05112:0014
#0511a:00000014
#04518:0016
#04512:26
#04912:0016
#04918:26
#04910:41
#04814:0014
#0481a:14
#05513:0014
#05519:00000014
#05518:26260000
#05512:0026000000000000
#05313:0014
#05319:25000014
#05312:25
#05419:0014
#05413:00000014
#05412:26260000
#05418:0026000000000000
#05919:0014
#05913:00000014
#05912:26260000
#05918:0026000000000000
#05910:41
#05719:2514
#05713:00000014
#05712:25
#05813:0014
#05819:00000014
#05818:26260000
#05812:0026000000000000
#02714:14
#02312:14
#02310:41
#0241a:14
#05212:14
#05214:00340000
#06015:0000361600000000
#06018:26
#0611a:00001414
#06112:26
#06214:14140000
#06218:00001414
#0651a:14
#06612:14
#06718:14
#02012:26
#05612:26
#05618:0026
#06312:24
#06314:00003434
#06414:24
#03158:54
#03554:64
#03552:0054
#03754:14
#04054:54
#04158:14
#04458:64
#04552:16
#04958:16
#05352:15
#05359:15
#05759:15
#05752:15
#06152:16
#04854:0054
#0485a:54
#02754:54
#02352:54
#0245a:54
#05252:54
#06058:56
#06055:0000002600000000
#06352:54
#06454:54
#0003a0:14
#0013a0:24
#002320:14
#003320:24
#013340:1424
#015380:1424
#017320:14
#017340:0024
#0193a0:14
#019380:0024
#022380:1424
#023320:14
#023340:0024
#0243a0:14
#024380:0024
#027340:14
#027320:0024
#031380:14
#0313a0:00342400
#035340:1400000000003434
#035320:00343400
#037340:24
#040340:14
#040320:0024
#044380:14
#0443a0:0024
#046320:14
#046330:0034000000000000
#046340:00240000
#047340:14
#047330:0034000000000000
#047320:00240000
#0483a0:14
#048380:00240000
#048340:0014
#048320:00000024
#0503a0:14
#050390:0034000000000000
#050380:00240000
#051380:14
#051390:0034000000000000
#0513a0:00240000
#052320:14
#052340:0000343400002400
#056320:16
#056350:00260000
#056380:0016
#056350:00000026
#060380:16000026
#060350:0000365600000000
#063320:14
#063340:00003434
#064340:34
#064320:0024
#068340:14000000000000003400003400002400
