This file was generated by Ched 2.7.0.0.
#TITLE ""
#ARTIST ""
#DESIGNER ""
#DIFFICULTY 0
#PLAYLEVEL
#SONGID ""
#WAVE ""
#WAVEOFFSET 0
#JACKET ""
#REQUEST "ticks_per_beat 480"
#00002: 4
#BPM01: 186
#00008: 01
#TIL00: ""
#HISPEED 00
#MEASUREHS 00
#00118:14
#00214:14
#0031a:14
#0041a:14
#00514:14
#00614:14
#00718:14
#00818:14
#00912:14
#01012:14
#0111a:14
#01110:41
#01214:14
#01512:14
#01618:14
#01918:14
#02012:14
#02314:14
#0241a:14
#03519:14
#03513:0014
#03612:0016
#03618:26
#03610:41
#03718:1616
#03712:00160000
#03812:16
#03818:0016
#04012:0016
#04018:26
#04118:1616
#04112:00160000
#04212:16
#04218:0016
#04312:16161600
#04418:16
#04412:0016
#04518:16
#04512:0016
#04618:16
#04612:0016
#04718:16161600
#04812:16
#04818:0016
#04810:41
#04912:16
#04918:0016
#05012:16
#05018:0016
#05112:16161600
#05218:16161600
#05312:14
#05418:14
#05514:14
#0561a:14
#05712:14
#0581a:14
#0591a:14
#06014:14
#06114:14
#06218:14
#06210:41
#06318:14
#06412:14
#06512:14
#06813:14
#06819:0014
#0681f:11
#06913:14
#06919:0014
#07012:14
#0711a:14
#07213:14
#07219:0014
#07313:14
#07319:0014
#07412:14
#0751a:14
#07613:14
#07619:0014
#07718:0016
#07712:26
#0771f:21
#07812:1616
#07818:00160000
#07810:41
#07918:16
#07912:0016
#08118:0016
#08112:26
#08212:1616
#08218:00160000
#08318:16
#08312:0016
#08418:16161600
#08512:16
#08518:0016
#08612:16
#08618:0016
#08712:16
#08718:0016
#08812:16161600
#08918:16
#08912:0016
#09018:16
#09012:0016
#09118:16
#09112:0016
#09218:16161600
#09312:16161600
#09612:00140000
#0961a:0014
#09418:00363636
#09518:36363636
#02710:41
#0133a0:1434
#0143a0:24
#017320:1434
#018320:24
#021380:1434
#022380:24
#025340:1434
#026340:24
#0273a0:14
#027390:0034
#028380:24
#029320:14
#029330:0034
#030340:24
#031380:14
#031390:0034
#0323a0:24
#033340:14
#033330:0034
#034320:24
#039320:1636363600002600
#066380:1400343434340024
#080380:1636363600002600
#094380:16363636
#095380:36363636
#096360:26
