This file was generated by Ched 2.7.0.0.
#TITLE ""
#ARTIST ""
#DESIGNER ""
#DIFFICULTY 0
#PLAYLEVEL
#SONGID ""
#WAVE ""
#WAVEOFFSET 0
#JACKET ""
#REQUEST "ticks_per_beat 480"
#00002: 4
#BPM01: 186
#00008: 01
#TIL00: ""
#HISPEED 00
#MEASUREHS 00
#00015:0000000000001313
#00018:00000000000000000000000000130013
#00112:13131300
#00118:0013000000131300
#0011b:13131300
#00115:00000000000013000000001300001300
#00212:13001413
#00215:0014000000000000
#00219:00000014000000000000000000000000
#00214:00140000
#00218:00000000001400000000000000000000
#00217:00000000000000140000000000000000
#00213:0000001400000000
#0021b:13000013
#00316:1300000000130000
#00312:0000130013000013
#0031b:13
#00317:0000130000000013
#00415:00000013000013000000001300001300
#00418:00001300000000130000130000000000
#0041b:00130013
#00412:0013
#00712:1300130000000013
#0071b:1300000013130013
#00717:00130000
#00818:0000000000000013
#0081b:00131313
#01116:0000000000000013
#0111b:13131313
#01112:1313
#01110:41
#01212:0013000013000000
#01215:00130000
#01218:0000001300001300
#0121b:1313
#01317:1300000013130000
#0131b:0000130000000013
#01312:1300000013000013
#01316:00130000
#0141b:0013000013000000
#01418:0000130000000013
#01415:0000001300001300
#01412:0013
#01917:1300000013000013
#0191b:00130013
#01912:1300000013000013
#01916:00130000
#02018:0013001300000000
#02015:00130000
#0201b:00001313
#02012:00001313
#02117:1300000000130000
#02119:00130000
#0211b:0000000013000013
#02112:1300000000130013
#02114:00130000
#02116:0013
#02215:0013001300001300
#02218:0000130000000013
#0221b:0013
#02212:0013
#0271b:1300000013130000
#02717:00130000
#02718:0000000000000013
#02713:00130000
#02714:0013
#02715:00000013
#02710:41
#0311b:1300000013130000
#03117:00130000
#03118:0000000000000013
#03116:1313
#03112:00130013
#0321b:0013000013001300
#03218:00130000
#03215:0000001300000000
#03212:1313
#03216:00000013
#03317:13
#03318:0000001313000000
#03315:00000000000000130000000000000000
#03312:13000013
#03519:00000013
#03514:00000013
#03617:00131300
#0361b:2300001300000000
#03615:0000000000130013
#03612:00131313
#03618:00000000000000000000001300000000
#03616:23
#03610:41
#03718:1313130000000000
#03715:00000013000013000000000000001300
#0371b:0000003323000000
#03712:0023
#0381b:13131313
#03818:0013000000130000
#03815:0000001300000013
#03812:13131313
#03918:0000000000131300
#03915:00000000000000000000001300000000
#04417:1300130013000013
#0441b:0000000000130000
#04412:2300230023000023
#04416:0000000000230000
#04718:0000000000131300
#04715:00000000000000000000001300000000
#0581b:1300000013000013
#05818:0000000000130000
#05816:13
#05815:0013
#05812:0000000000000013
#05912:0013000000130013
#05915:00130000
#05918:0000001300000000
#0591b:00001313
#0601b:1300000013000013
#06012:0000130000130000
#06017:0000001300130000
#06016:0000000013000013
#06915:0013230000000000
#06918:23000013000013000000000000000000
#0691b:0023
#06912:0023
#07015:0000000000130000
#07018:00000013
#0701b:0000000000000013
#07012:0013
#07118:0000000000130000
#07115:00000000000000000000001300000000
#0711b:00000013
#07112:00000013
#0721b:1313
#07217:00130013
#07214:0000001300000013
#07216:1313
#07219:0000000000130000
#07212:00130013
#0731b:13
#07312:0013130000001313
#07317:00000013000000000000000000000000
#07315:0000001300000000
#07318:0013
#07316:13
#0741b:0013000000130013
#07415:0013
#07412:0000001300130000
#07418:13
#0771b:0000130000130013
#07719:0000001300000000
#07717:00001313
#07716:00130000
#07712:2413
#0771a:24
#0771f:21
#07817:13
#07816:0013130000000000
#0781b:00000013000000001300000000001300
#07814:0000001300000000
#07812:1300000013000013
#07819:0000001300000000
#07810:41
#07916:1400001400000000
#07918:0013130013000000
#07919:0000000000130000
#0791a:00000013
#0791b:0000001300000013
#07915:00000013000000000000000000001300
#07912:1313
#07913:0000000000130000
#07914:00000013
#08015:0000000000131300
#08018:00000000000000000000001300000000
#08017:13
#0801b:0013001300000000
#08012:13130000
#08217:0013130000000013
#08216:13
#08212:00000013000000001300000000001300
#08219:0000001300000000
#0821b:1313
#08214:0000001300000000
#08317:0013000000130000
#0831b:1313
#08316:13130000
#08312:0000001300130000
#08418:00000013
#08415:00000013
#08412:23232300
#0851b:1300130000130013
#08517:0013
#08512:0000130013000013
#08516:0000000000130000
#0861b:0000000000000013
#08612:0000000000000013
#08718:1300130013000013
#08715:0013000000130013
#0871b:0000001300000000
#08712:00131300
#0961b:00130000
#09612:0013
#09616:00141400
#00517:1300000000130000
#0051b:0000130013000013
#00512:13
#00516:0000130000000013
#00618:00000013000013000000001300001300
#00615:00001300000000130000130000000000
#00612:00130013
#0061b:0013
#0091b:1300130000000013
#00912:1300000013130013
#00916:00130000
#01012:00131313
#01517:0000000000000013
#01512:13131313
#0151b:1313
#0161b:0013000013000000
#01618:00130000
#01615:0000001300001300
#01612:1313
#01716:1300000013130000
#01712:0000130000000013
#0171b:1300000013000013
#01717:00130000
#01812:0013000013001300
#01815:00130000
#01818:0000001300000000
#0181b:00001313
#02316:1300000013000013
#02312:00130013
#0231b:1300000013000013
#02317:00130000
#02415:0013001300000000
#02418:00130000
#02412:00001313
#0241b:00001313
#02516:1300000000130000
#02514:00130000
#02512:0000000013000013
#0251b:1300000000130013
#02519:00130000
#02517:0013
#02618:0013001300001300
#02615:00130013
#02612:0013
#0261b:0013
#02812:13
#02813:00130000
#02814:0013
#02815:00000013
#0281b:00000013
#02912:1300000013130000
#02916:00130000
#02915:0000000000000013
#0291a:00130000
#02919:0013
#02918:00000013
#0291b:13
#0301b:13
#0301a:00130000
#03019:0013
#03018:00000013
#03012:00000013
#04016:00131300
#04012:2300001300000000
#04018:0000000000130013
#0401b:00131313
#04015:00000000000000000000001300000000
#04017:23
#04115:1313130000000000
#04118:00000013000013000000000000000000
#0411b:0000000023000013
#04112:0000003323000000
#04212:0000000000130000
#0451b:0023130000000013
#04518:0000002313000000
#04515:00230000
#04512:0023
#04618:13
#04615:0013000000000000
#04612:00131300
#0461b:0000001300130000
#04617:0013
#04616:0000000000130000
#04816:1300130013000013
#04812:0000000000130000
#0481b:2300230023000023
#04817:0000000000230000
#04810:41
#04912:0023130000000013
#04915:0000002313000000
#04918:00230000
#0491b:0023
#05015:13
#05018:0013000000000000
#0501b:00131300
#05012:0000001300130000
#05016:0013
#05017:0000000000130000
#05312:1300130000000013
#05317:0000130000130000
#0531b:1300000013000013
#05319:0013001300000000
#05418:0000000000000013
#0541b:00130013
#05412:0013
#0551b:1300130000000013
#05516:0000130000130000
#05512:1300000013000013
#05514:0013001300000000
#05612:00130013
#0561b:0013
#05712:13
#0571a:0012
#05716:00000000000000000012000000000000
#05718:0000000000120000
#05714:00000000000000000000001200000000
#06118:0013130013001300
#06115:00000013000000000000000000000000
#06112:0000001300130013
#06212:0000130013000013
#06218:1313
#06215:0000000000130000
#0621b:00333333000000000000000000001300
#06210:41
#0631b:0013000000130013
#06318:00130000
#06315:0000001300000000
#06312:00001313
#06412:1300000013000013
#0641b:0000130000130000
#06416:0000001300130000
#06417:0000000013000013
#06515:0013130013001300
#06518:00000013000000000000000000000000
#0651b:0000001300130013
#06616:1212
#0661a:0000120000000022
#06618:0000001200000000
#06614:0000000000120000
#07518:0013
#07512:0000000000000013
#08112:2400130000130013
#08114:0000001300000000
#08116:00001313
#08117:00130000
#0811b:0013
#0811a:24
#08818:0023001300001300
#08815:0023001300001300
#08912:1300130000130013
#08916:0013
#0891b:0000130013000013
#08917:0000000000130000
#09012:0000000000000013
#0901b:0000000000000013
#09115:13131300
#09118:0013000000130000
#09112:0000001300000013
#0911b:0000130013000013
#0921b:0023001300000013
#09212:0023001300000000
#09216:0000000000000013
#0931b:0000001300000000
#09316:0000001300000000
#09312:0023000000000000
#09317:0023000000000023
#0681f:11
#0681a:2424
#06812:2424
#05112:0000000000000023
#05117:0000000000000023
#09412:0023000000230000
#09417:0000002300000023
#09512:0024000000240000
#09516:0000002400000024
#0341b:0000000000000023
#03416:0000000000000023
#07612:0023
#0761b:0023
#01152:5353
#01252:0053
#01255:00000013
#0135b:0000000000000013
#01352:0000000000000013
#0145b:0013
#01452:0013
#0165b:0063
#01658:00000013
#01752:0000000000000013
#0175b:0000000000000013
#0185b:0013
#01852:0013
#0155b:6363
#01952:5353
#01956:00530000
#02052:00000013
#0205b:00000013
#02152:0000000000000013
#0215b:0000000000000013
#02252:0013
#0225b:0013
#02452:00000013
#0245b:00000013
#02552:0000000000000013
#0255b:0000000000000013
#02652:0013
#0265b:0013
#02655:00000053
#0235b:6363
#02357:00630000
#0275b:0000000000130000
#02952:0000000000130000
#02858:0013
#03055:0013
#0315b:0000000000130000
#0325b:0013
#03252:0013
#03358:0053
#0375b:0013
#03758:00530000
#03752:0013
#04155:00630000
#04152:0013
#0415b:0013
#0435b:00000013
#04356:00000013
#0495b:0013
#04552:0013
#0585b:53
#05857:00130000
#05856:53
#05852:00130000
#0595b:00005353
#05952:0000000000230023
#0605b:53
#06158:00535353
#06152:0000002300230023
#0625b:00130000
#06258:53
#06252:00130000
#06452:63
#06352:00006363
#0635b:0000000000230023
#06555:00636363
#0655b:0000002300230023
#0685a:14
#06852:0014
#0695b:0013
#06952:0013
#07358:0053
#07558:0013
#07552:0013
#07852:0013
#0785b:0013
#08052:53530000
#0805b:0023000000000000
#08252:0013
#0825b:0013
#0835b:53
#08357:0023000000000000
#08352:0000002300000000
#08356:00530000
#08455:00000053
#08552:1300130000000013
#0855b:1300130000000013
#08658:0013
#08655:0013
#08758:0000000000000053
#08755:0000000000000053
#08855:0053005300000000
#08858:0053005300006300
#08952:1300130000000013
#0895b:1300130000000013
#09058:0013
#09055:0013
#0915b:0000000000000023
#09152:0000000000000023
#0925b:0023002300000023
#09252:0023002300000000
#09256:0000000000000053
#0935b:0000002300000000
#09352:0023000000000000
#09356:0000005300000000
#09357:0063000000000000
#0025b:00000013
#00252:00000013
#0765b:00000043
#07652:00000033
#0033b0:0000000013230000
#005320:0000000013230000
#007360:0000000013230000
#008320:0013000000000000
#008340:00000033000000000000000000000000
#008360:00230000
#008320:0000001300000000
#008340:00000000000000330000000000000000
#008360:0023
#008320:0000000000130000
#008340:00000000000000000000003300000000
#008360:00000023
#009370:0000000013230000
#0103b0:0013000000000000
#010390:00000033000000000000000000000000
#010370:00230000
#0103b0:0000001300000000
#010390:00000000000000330000000000000000
#010370:0023
#0103b0:0000000000130000
#010390:00000000000000000000003300000000
#010370:00000023
#011320:13
#011360:00230000
#011320:0013
#011360:00000023
#012320:0013
#012350:00000023
#0153b0:13
#015370:00230000
#0153b0:0013
#015370:00000023
#0163b0:0013
#016380:00000023
#019320:1333
#019360:00330023
#0233b0:1333
#023370:00330023
#026350:00000013
#027320:23
#0283b0:0013003300000000
#028380:00332300
#030320:0013003300000000
#030350:00332300
#033380:0013
#0333b0:00000023
#033370:0000000000000013
#0343b0:33332300
#034370:0033003300000000
#033321:0000000000000013
#034361:33332300
#034321:0033003300000000
#034361:0000000000000013
#035321:33332300
#035361:0033003300000000
#0343b0:0000000000000013
#035370:33332300
#0353b0:0033003300000000
#037380:00130000
#0373b0:0000003323000000
#0393b0:13330000
#039370:0033002300000000
#039361:13330000
#039321:0033002300000000
#041351:00130000
#041321:0000003323000000
#041321:0000000000000013
#042351:23
#042380:13
#0423b0:0023000000000000
#042321:0013000000000000
#042351:00230000
#042380:00130000
#0423b0:0000002300000000
#042321:0000001300000000
#042351:0023
#042380:0013
#0423b0:0000000000230000
#042370:0000000000000013
#0433b0:33333323
#043370:0033003300000000
#042321:0000000000000013
#043361:33333323
#043321:0033003300000000
#046371:0000000000000013
#0473b1:33332300
#047371:0033003300000000
#046320:0000000000000013
#047360:33332300
#047320:0033003300000000
#050360:0000000000000013
#051320:33332300
#051360:0033003300000000
#0503b1:0000000000000013
#051371:33332300
#0513b1:0033003300000000
#051371:0000000000000013
#0523b1:33332300
#052371:0033003300000000
#051320:0000000000000013
#052360:33332300
#052320:0033003300000000
#053360:0013
#053320:0000000000230000
#054320:0013000000000000
#054340:00000033000000000000000000000000
#054360:00230000
#0543b0:0000001300000000
#054390:00000000000000330000000000000000
#054370:0023
#054320:0000000000130000
#054340:00000000000000000000003300000000
#054360:00000023
#055370:0013
#0553b0:0000000000230000
#0563b0:0013000000000000
#056390:00000033000000000000000000000000
#056370:00230000
#056320:0000001300000000
#056340:00000000000000330000000000000000
#056360:0023
#0563b0:0000000000130000
#056390:00000000000000000000003300000000
#056370:00000033
#057370:23
#0583b0:13
#058370:00230000
#058361:13
#058321:00230000
#0593b1:0013
#059371:0000000000230000
#059320:0000000000130000
#059360:00000023
#0593b1:00000013
#059371:0000000000000023
#059320:0000000000000013
#060360:23
#0603b1:13
#060371:00230000
#061381:00130000
#0613b1:0000002300000000
#061320:0000001300000000
#061350:0023
#061381:0013
#0613b1:0000000000230000
#061320:0000000000130000
#061350:00000023
#061381:00000013
#0613b1:0000000000000023
#061320:0000000000000013
#062350:23
#062381:13
#0623b1:00333333230000000000000000000000
#063321:0013
#063361:0000000000230000
#0633b0:0000000000130000
#063370:00000023
#063321:00000013
#063361:0000000000000023
#0633b0:0000000000000013
#064370:23
#064321:13
#064361:00230000
#065351:00130000
#065321:0000002300000000
#0653b0:0000001300000000
#065380:0023
#065351:0013
#065321:0000000000230000
#0653b0:0000000000130000
#065380:00000023
#065351:00000013
#065321:0000000000000023
#0653b0:0000000000000013
#066380:23
#069320:0000000000000013
#070360:33
#070320:0023000000000000
#0703b0:00132300
#070370:0000003300000000
#071320:13330000
#071360:0033002300000000
#071371:13330000
#0713b1:0033002300000000
#073381:0013
#0733b1:0000000000000023
#074351:13230000
#074321:0033000000000000
#074380:00132300
#0743b0:0000003300000000
#074350:0000000000000013
#075320:33332300
#075350:0033003300000000
#075381:13
#0753b1:0023000000000000
#075381:00130000
#0753b1:0000002300000000
#075380:0000000000000013
#0763b0:33330000
#076380:0033002300000000
#076351:13
#076321:0023000000000000
#076351:00130000
#076321:0000002300000000
#076321:00001323
#076351:0000000000530000
#0763b0:00001323
#076380:0000000000530000
#077360:0000000000130000
#077340:00000000000000000000003300000000
#077320:00000023
#080320:13
#080360:0023000000000000
#0803b1:0013000000000000
#080371:00230000
#080320:00130000
#080360:0000002300000000
#081370:0000000000130000
#081390:00000000000000000000003300000000
#0813b0:00000023
#0833b0:13230000
#083370:0033000000000000
#083361:00132300
#083321:0000003300000000
#0833b1:0000000000000013
#084371:23
#0843b1:0013000000000000
#084371:00230000
#0843b1:0000001300000000
#084371:0023
#084351:00000013
#085321:23
#086321:0013003300000000
#086351:00332300
#0863b0:0013003300000000
#086380:00332300
#087380:0000000000000013
#0883b0:23
#087351:0000000000000013
#088321:23
#088381:0013000000000000
#0883b1:00230000
#088350:0013000000000000
#088320:00230000
#088380:0000001300000000
#0883b0:0023
#088351:0000001300000000
#088321:0023
#088381:00000013
#0893b1:23
#0903b1:0013003300000000
#090381:00332300
#090320:0013003300000000
#090350:00332300
#091320:0000000000000013
#092350:23
#0913b1:0000000000000013
#092381:23
#0923b1:0013000000000000
#092381:00230000
#092320:0013000000000000
#092350:00230000
#0923b0:0000001300000000
#092380:0023
#092321:0000001300000000
#092351:0023
#0923b1:0000000000000013
#093371:23
#092360:0000000000000013
#093320:23
#093320:0013000000000000
#093360:00230000
#093371:0013000000000000
#0933b1:00230000
#0933b1:0000001300000000
#093371:0023
#093360:0000001300000000
#093320:0023
#093320:0000000000000013
#094360:23
#093371:0000000000000013
#0943b1:23
#094321:0013000000000000
#094361:00230000
#094370:0013000000000000
#0943b0:00230000
#094320:0000001300000000
#094360:0023
#094371:0000001300000000
#0943b1:0023
#094321:0000000000130000
#094361:00000023
#094370:0000000000130000
#0943b0:00000023
#094320:0000000000000013
#095360:23
#094371:0000000000000013
#0953b1:23
#095321:0014000000000000
#095361:00240000
#095370:0013000000000000
#0953b0:00230000
#095320:0000001300000000
#095360:0023
#095361:0000001400000000
#0953a1:0024
#095321:0000000000140000
#095361:00000024
#095370:0000000000130000
#0953b0:00000023
#095320:0000000000000013
#096360:23
#095361:0000000000000014
#0963a1:24
