This file was generated by Ched 2.7.0.0.
#TITLE ""
#ARTIST ""
#DESIGNER ""
#DIFFICULTY 0
#PLAYLEVEL
#SONGID ""
#WAVE ""
#WAVEOFFSET 0
#JACKET ""
#REQUEST "ticks_per_beat 480"
#00002: 4
#BPM01: 186
#00008: 01
#TIL00: ""
#HISPEED 00
#MEASUREHS 00
#00115:0013001300000013
#00118:00131300
#00112:0000000000130000
#0011b:00000013
#00312:13
#0031b:0000130000000013
#00318:0000000000130000
#00315:0000000013000013
#01115:0000000000000013
#01112:13
#0111b:0013
#01110:41
#0121b:0013000000000000
#01215:00130000
#01218:0000001300000000
#01212:0013
#0131b:13131300
#01315:13131300
#01318:0000000000130000
#01312:0000000000000013
#0141b:0013000000000000
#01415:00130000
#01418:0000001300000000
#01412:0013
#01918:0000000000000013
#01912:1313
#01915:00130000
#02015:0013001300000000
#02018:00130000
#0201b:0013
#02012:00000013
#0211b:1313
#02118:0000130000130000
#02115:1313
#02112:0000130000000013
#0221b:0013000000000000
#02215:00130000
#02218:0000001300000000
#02212:0013
#02715:0000130000130000
#02718:0013
#0271b:0000000000000013
#02710:41
#03118:0000130000130000
#0311b:0000000000000013
#03115:0013
#03112:0000000000000013
#03215:0013001300001300
#03218:00131300
#0321b:00000013
#03318:1313
#03315:0000001300000000
#03312:13
#03518:00000013
#03512:00000013
#03618:0000001300000013
#0361b:2300000000130000
#03615:23001313
#03612:00130000
#03610:41
#03712:13
#03718:0013000000000000
#03715:00000013000000000000000000001300
#0371b:0000003323000000
#03812:0013000000130000
#03815:0000001300000013
#0381b:13131313
#03915:00000013
#0391b:00000013
#04418:1300130013230000
#0441b:0000000000000013
#04412:2300230023000023
#04718:00000013
#05818:0000000000130000
#0581b:1300000000000013
#05815:0013
#05812:0000000000000013
#05912:0013000000000000
#05918:0000130000001333
#05915:0000001300000000
#0591b:0000000013330000
#06018:0000000000130000
#0601b:1300000000000013
#06015:0013
#06012:0000000000000013
#07015:0000000000130013
#07018:00000013
#07012:33
#0701b:0000003300000000
#0711b:00000013
#07112:00000013
#07218:1300001300000013
#0721b:0000000000130000
#07212:00130013
#07215:0013
#07315:1300001300000000
#07312:0000130000000013
#0731b:0013000000000000
#07318:0013
#0771b:23130013
#07718:0000001300130000
#07715:0013
#07712:2300000000000013
#0771f:21
#07818:13130000
#07815:0013001300000000
#0781b:0013
#07812:0000000000000013
#07810:41
#07918:0013000000130000
#0791b:00131300
#07915:13000013
#07912:0000001300000013
#08012:00000013
#0801b:00000013
#0851b:0000130000000013
#08518:0000000013130000
#08512:0000000013130013
#0861b:0000000000000013
#08618:0013001300000000
#08615:00131300
#08715:1313
#0871b:0013001300130000
#08712:00130000
#0961b:00130000
#09612:0013
#09615:00130000
#09618:2613
#00218:13
#0021a:00000014
#00212:00000033333333330000000000000000
#02615:0000001300001300
#02612:0013000000000000
#02618:00130000
#0261b:0013
#02912:1300000000000013
#0291b:13
#02918:0000130000130000
#02915:0013
#0411b:1300000000000013
#04115:0013000000000000
#04118:00000013000000000000000000000000
#04112:0000003323000000
#04212:0000000000130000
#04215:13131300
#04218:0013001300000000
#0421b:0000000000130000
#0451b:0023000000000013
#04515:00230000
#04518:0000002300000000
#04512:0023
#04615:1313
#0461b:0013001300130000
#04612:00130000
#05315:0000130000130000
#05312:1300000000000013
#0531b:1300000000000013
#05318:0013
#06212:1300000000000013
#06215:00333333000000000000130000000000
#06218:0013
#0621b:0000000000000013
#06210:41
#0821b:0000000000000013
#08215:13130000
#08218:0013001300000000
#08212:0013
#08415:0013000000001300
#08412:0000001300000000
#08418:2323
#0841b:00230000
#0051b:13
#00512:0000130000000013
#00515:0000000000130000
#00518:0000000013000013
#00712:1300000000000013
#0071b:0000130000000013
#00718:1300000000130000
#00715:00131300
#0091b:1300000000000013
#00912:0000130000000013
#00915:1300000000130000
#00918:00131300
#01518:0000000000000013
#0151b:13
#01512:0013
#01612:0013000000000000
#01618:00130000
#01615:0000001300000000
#0161b:0013
#01712:13131300
#01718:13131300
#01715:0000000000130000
#0171b:0000000000000013
#01812:0013000000000000
#01818:00130000
#01815:0000001300000000
#0181b:0013
#02315:0000000000000013
#0231b:1313
#02318:00130000
#02418:0013001300000000
#02415:00130000
#02412:0013
#0241b:00000013
#02512:1313
#02515:0000130000130000
#02518:1313
#0251b:0000130000000013
#02812:0013000000000000
#02818:00130000
#02815:0000001300000000
#0281b:0013
#0301b:0013000000000000
#03015:00130000
#03018:0000001300001300
#03012:0013
#04015:0000001300000013
#04012:2300000000130000
#04018:23001313
#0401b:00130000
#04815:1300130013230000
#04812:0000000000000013
#0481b:2300230023000023
#04810:41
#04912:0023000000000013
#04918:00230000
#04915:0000002300000000
#0491b:0023
#05018:1313
#05012:0013001300130000
#0501b:00130000
#05518:0000130000130000
#0551b:1300000000000013
#05512:1300000000000013
#05515:0013
#06118:0013133300000000
#06115:00000013000000000000000000000000
#0611b:0000000013330000
#0631b:0013000000000000
#06315:0000130000001333
#06318:0000001300000000
#06312:0000000013330000
#06415:0000000000130000
#06412:1300000000000013
#06418:0013
#0641b:0000000000000013
#06515:0013133300000000
#06518:00000013000000000000000000000000
#06512:0000000013330000
#06618:1300000013000023
#0661b:00130000
#06615:0000001300000000
#06612:0000000000130000
#07418:1313
#07415:0013001300000000
#0741b:00130000
#07412:0000000000130000
#08112:23130013
#08115:0000001300130000
#08118:0013
#0811b:2300000000000013
#08315:1313
#08318:0013001300000000
#08312:0000130000000013
#0831b:0000000000130000
#08912:0000130000000013
#08915:0000000013130000
#0891b:0000000013130013
#09012:0000000000000013
#09015:0013001300000000
#09018:00131300
#09118:1313
#09112:0013001300130000
#0911b:00130000
#08818:00000013
#09312:0000000000000013
#09415:0013000000130000
#09412:0000001300000013
#09418:2323
#0941b:00230023
#09514:0014000000140000
#09512:0000001400000016
#09518:2324
#0951a:00240024
#0681f:11
#06812:26
#06818:0026
#06915:23230000
#0691b:0023
#06912:0023
#0341a:0000000000000024
#05112:0000000000000024
#0761a:0024
#07612:0024
#0001b:00000000000000000000000000333333
#0041b:00000000000000330000000000000000
#00412:00000033000000000000003300000000
#00612:00000000000000330000000000000000
#0061b:00000033000000000000003300000000
#00818:00000000000000330000000000000000
#00815:00000033000000000000003300000000
#01015:00000000000000330000000000000000
#01018:00000033000000000000003300000000
#05418:00000033000000000000003300000000
#05415:00000000000000330000000000000000
#05615:00000033000000000000003300000000
#05618:00000000000000330000000000000000
#01152:53
#0115b:0053
#01252:0053
#01255:00000013
#01452:0013
#01952:5353
#01955:00530000
#02052:00000013
#02252:0013
#02655:00000053
#0265b:0013
#02755:0000000000130000
#03158:0000000000130000
#03258:0013
#03358:0053
#0375b:0013
#0435a:00000014
#04354:00000014
#04552:0013
#0585b:53
#05858:00130000
#06255:00130000
#06252:53
#06852:16
#06858:0016
#0695b:0013
#06952:0013
#0755a:0014
#0785b:0013
#08455:00000053
#08552:1300000000000013
#0855b:0000130000000013
#0025a:00000014
#0165b:0063
#01658:00000013
#0185b:0013
#0155b:63
#01552:0063
#0235b:6363
#02358:00630000
#0245b:00000013
#0285b:0013
#02958:0000000000130000
#03052:0013
#03058:00000063
#04152:0013
#0495b:0013
#0595b:0053
#05958:00000053
#0605b:53
#06158:00630000
#0615b:0063
#06352:0063
#06355:00000063
#06452:63
#06555:00530000
#06552:0053
#07358:0053
#07652:00000034
#0765a:00000044
#08252:0013
#08655:0013
#08952:0000130000000013
#0895b:1300000000000013
#08858:00000063
#09058:0013
#0003b0:00000000000000000000000013333333
#001380:23
#002350:0013000000000000
#002320:00000033333333332300000000000000
#004320:00001333000000000000000000000000
#004350:00230000
#0043b0:00000000000013330000000000000000
#004380:0023
#004320:00000000000000000000133300000000
#004350:00000023
#0063b0:00001333000000000000000000000000
#006380:00230000
#006320:00000000000013330000000000000000
#006350:0023
#0063b0:00000000000000000000133300000000
#006380:00000023
#008350:00001333000000000000000000000000
#008320:00230000
#008380:00000000000013330000000000000000
#0083b0:0023
#008350:00000000000000000000133300000000
#008320:00000023
#010380:00001333000000000000000000000000
#0103b0:00230000
#010350:00000000000013330000000000000000
#010320:0023
#010380:00000000000000000000133300000000
#0103b0:00000023
#011320:13
#011350:00230000
#0113b0:0013
#011380:00000023
#012320:0013
#012350:00000023
#0153b0:13
#015380:00230000
#015320:0013
#015350:00000023
#0163b0:0013
#016380:00000023
#019320:1333
#019350:00330023
#0233b0:1333
#023380:00330023
#026350:00000013
#027320:23
#030380:00000013
#0313b0:23
#033380:0013
#0333b0:00000023
#033320:0000000000000014
#034340:34342400
#034320:0034003400000000
#0343a0:0000000000000014
#035380:34342400
#0353a0:0034003400000000
#037380:00130000
#0373b0:0000003323000000
#0393a0:14340000
#039380:0034002400000000
#041350:00130000
#041320:0000003323000000
#042380:0000000000000014
#0433a0:34343424
#043380:0034003400000000
#043341:00001424
#046321:0000000000000014
#047341:34342400
#047321:0034003400000000
#0503a1:0000000000000014
#051381:34342400
#0513a1:0034003400000000
#051321:0000000000000014
#052341:34342400
#052321:0034003400000000
#0543b1:0013000000000000
#054381:00000033230000000000000000000000
#054321:0000001300000000
#054351:00000000000000332300000000000000
#0543b1:0000000000130000
#054381:00000000000000000000003323000000
#056321:0013000000000000
#056351:00000033230000000000000000000000
#0563b1:0000001300000000
#056381:00000000000000332300000000000000
#056321:0000000000130000
#056351:00000000000000000000003333000000
#057351:23
#057371:00000000000000001232322200000000
#0583b1:13
#058381:00230000
#0593b1:0000000013330000
#059381:0000000000003333
#0603b1:33
#060381:00230000
#061381:0000133300002300
#0613b1:0000000033330000
#062321:13
#062351:00333333230000000000000000000000
#063321:0000000013330000
#063351:0000000000003333
#064321:33
#064351:00230000
#065351:0000133300002300
#065321:0000000033330000
#069321:0000000000000013
#070321:33
#070351:0023000000000000
#0703b1:0000133300000000
#070381:0023
#0713a1:14340000
#071381:0034002400000000
#073381:0013
#0733b1:00000023
#074381:0000000000000014
#0753a1:34342400
#075381:0034003400000000
#075341:0000000000000014
#076321:34240000
#076341:0034000000000000
#0763a1:00001424
#076381:0000000000540000
#076320:00001424
#076340:0000000000540000
#0803a0:14340000
#080380:0034002400000000
#084350:00000013
#085320:23
#087340:0000000000000014
#088320:34342400
#088340:0034003400000000
#088380:00000013
#0893b0:23
#091380:0000000000000014
#0923a0:34342400
#092380:0034003400000000
#092340:0000000000000014
#093320:34342400
#093340:0034003400000000
#0923a1:0000000000000014
#093381:34342400
#0933a1:0034003400000000
