This file was generated by Ched 2.7.0.0.
#TITLE ""
#ARTIST ""
#DESIGNER ""
#DIFFICULTY 0
#PLAYLEVEL
#SONGID ""
#WAVE ""
#WAVEOFFSET 0
#JACKET ""
#REQUEST "ticks_per_beat 480"
#00002: 4
#BPM01: 186
#00008: 01
#TIL00: ""
#HISPEED 00
#MEASUREHS 00
#00014:00000012
#00018:00000000000000000000000000120000
#00016:0000000000000012
#0001a:00000000000000000000000000000012
#00112:13161316
#00118:16001300000000000000001300001300
#0011b:00130013
#00115:0000001300130000
#00218:00001300001300000000000000000000
#0021b:13000013000000000000000000000000
#00215:00000000130000130000000000000000
#00212:0000001313001400
#0021a:00000014
#00316:1314001400000000
#00312:0000130013130013
#0031b:1300000000000013
#00317:00130000
#00318:00000013
#00315:00000000000000000000000000130000
#00412:0013000000000013
#00414:00000013000013000000000000000000
#00416:00000000130000130000130000000000
#00418:00000000000000001300001300000000
#0041a:00000013
#0041b:0000000000000013
#00712:0000130000000013
#00717:0000000000130000
#0071b:1300000013000013
#00716:14000000140000000000000014140000
#00714:0013000000000000
#00719:0000001300000000
#01112:13000013000000000013000000001300
#0111b:0000130013000013
#01117:13000013
#01119:0013000000130000
#01116:00130000000000001300001300000000
#01114:0013000000130000
#01110:41
#01212:1c1300001c001600
#01214:00130000
#01216:0000001300000000
#01217:0013000000000000
#01219:00130000
#0121b:0000001300000000
#01218:00000016
#01316:14141400
#0131a:0000140000000014
#01312:1400000014180014
#01318:0014000000000000
#01314:0000001400000000
#01412:001c191613000000
#0141b:0013
#01416:0000000000121200
#01419:0000000000000012
#01418:00000000000000000000001200000000
#01415:0000000000000012
#02012:001c000016001300
#02015:00000000130000000000001300000000
#02018:0000001300131600
#0201b:0013
#02117:1300001300130000
#0211b:0013130013000000
#0211a:0000000000000014
#02112:0000000000130014
#02116:0013
#02118:00000013
#02115:00000000000000000000000000130000
#02212:001c130016001600
#02218:0000130016160000
#02215:00000000000013000000001600000000
#02219:0000000000000013
#0221b:0000001300000000
#02214:0000000000000013
#0271b:130000000000003333333333000000000000000000130000
#02712:00001300001c0013
#02716:0013
#02718:00000013
#02719:0013000000000000
#02714:0000001300000000
#02717:00130000
#02710:41
#0301b:0013001300001300
#03012:0013001300001300
#03018:13131300
#03015:00131300
#03215:16000000130000000000000019131600
#03218:00000000130000001600000000000013
#0321b:0013001300000000
#03212:0013001316000000
#03318:00000000000000130000000000001300
#0331b:0013001300130000
#03312:1900130000130000
#03316:0013000000000000
#03317:00130000
#03315:00000000000000001300000000000013
#0351a:2424002400001400
#03512:24242414
#03617:00130000
#03612:2300001813001300
#0361b:2313000013001300
#03615:0000000000130013
#03618:00000000000000000000001300000000
#03610:41
#03715:13
#03716:00000000000014002400001400001400
#03712:0000001400140000
#0371a:00142414
#0381b:13131313
#03818:0013000000000000
#03815:00000013000013000000000000000000
#03817:0000000000130000
#03812:13131313
#03816:0000000000000013
#03813:0000000000130000
#0381a:0000000000000013
#0391b:00000013
#03915:0000000000130000
#03918:00000000000000000000001300000000
#03912:00000013
#04417:1313
#04415:00150000
#0441a:2400000024140000
#04412:0000230000280014
#04416:0014001400000028
#04712:00000014
#04718:0000000000121600
#04716:00000000000000000000001200000000
#0471a:0014
#0581b:1300000013130013
#05812:0000000000000013
#05816:00000000000000000013000014000000
#05817:13
#05912:0013000013130013
#05915:0000131300000000
#0591b:0000001313001300
#05916:14
#05918:00001313000000000000000000000000
#0601b:1300000013000013
#06012:0000130000130000
#06015:0000000033333333000000001300000016000000160000000000000016000000
#06916:0012280000000000
#06918:00000012000000000000000000000000
#06919:0000001225000000
#06915:0000001200000000
#06912:2800230025000012
#0691b:23
#07118:0000000000130000
#07115:00000000000000000000001300000000
#0711b:00000013
#07112:00000013
#0771a:2400140000140000
#07712:2400001814001400
#07718:0012
#0771c:0000000000000012
#07716:00000000120000000000001400001400
#0771f:21
#07817:13
#07816:00001800180014000000001400000000
#0781b:00000013000000000000000000000000
#07812:130000131400001c
#0781a:0014
#07818:0000000000121200
#07810:41
#07916:1300120000130000
#0791a:0012000000000000
#07917:0000001300001300
#07918:00000012000000000000000000000000
#07912:1313
#0791b:0000001300000013
#08012:13130013
#08016:00000000000000000000141400000000
#0801b:0013001300001300
#08018:13
#08316:1400000000140014
#08312:0000000000130000
#0831b:0013
#0831a:00000000000000000000000000000014
#0851a:00140000
#08516:0014001413130000
#0851b:0000000000130013
#08512:0000140013000013
#0861b:0000000000000013
#08612:0000000000000013
#08619:0000000000120000
#08615:00000000000000000000001400000000
#08617:00000012
#08715:16001300001200000000140000000000
#0871b:00131300
#08717:0000001400000000
#08712:00131300
#08719:00120000000000000012000000000000
#0871a:00000012
#08714:00000012
#0191b:00000013000000001300000000001300
#01912:1300001300000000
#01916:0014140013140000
#01917:00000013
#02618:0000001316001300
#02615:00130013
#02612:001c001316000000
#0261b:00130000
#02815:13131313
#02818:00131313
#02812:0013001300000000
#0281b:0013001300000000
#0411b:0000000000000013
#04118:13
#04116:00000000000014002400001400000000
#0411a:0000001400140000
#04112:0000140024001413
#04518:0000000000000012
#04512:0023002300001300
#0451b:00002313
#04516:00000000230000002300000000000012
#04618:1200001200000000
#0461a:0014140000000000
#04612:0014
#04616:0012000000121314
#0461b:00000013
#06118:0016120012001200
#06112:00000016000013000000130000000000
#0611b:0000001300130000
#06116:00121212
#07512:00000000000000000000001600001300
#07518:0000000000161600
#0751b:1300130013000013
#07517:0013001300000000
#01812:001c000013001300
#0181a:00000014
#01815:00190000
#01818:0000001600000000
#0181b:0013
#00517:13
#0051b:0000130013130013
#00512:1300000000000013
#00516:0014131400000000
#00515:00000013
#00518:00000000000000000000000000130000
#0061b:0013000000000013
#00619:00000013000013000000000000000000
#00617:00000000130000130000130000000000
#00615:00000000000000001300001300000000
#00613:00000013
#00612:0000000000000013
#0081a:00140000
#00816:0014000000001400
#00815:0000000000000012
#00819:0000000000000012
#00812:0000000000140000
#0091b:0000130000000013
#00916:14000000140000000000130014140000
#00912:1300000013000013
#00919:0013000000000000
#00914:0000001300000000
#01012:00140000
#01016:0014000000001400
#0101a:0000000000140000
#0151b:13000013000000000013000000001300
#01512:0000130013000013
#01516:13000013
#01514:0013000000130000
#01517:00130000000000001300001300000000
#01519:0013000000130000
#0161b:0013000000000000
#01619:00130000
#01617:0000001300000000
#01612:1c0000131c001600
#01616:0013000000000000
#01614:00130000
#01618:00000016
#01716:1400140014180000
#01712:0000140000000014
#0171a:1400000014000014
#01714:0014000000000000
#01718:0000001400000000
#02412:001c000013001600
#02418:00000000130000001600001300000000
#02415:0000001300130000
#0241b:00000013
#02516:1300001300130000
#02512:0013130013000014
#0251a:0000000000000014
#02517:0013
#0251b:0000000000130000
#02515:00000013
#02518:00000000000000000000000000130000
#02312:00000013000000001300000000001300
#0231b:1300001300000000
#02316:1314140000141300
#02317:0013
#02912:1300000000000033333333330000001c0000000000130000
#0291b:0000130000000013
#02917:0013
#02915:00000013
#02914:0013000000000000
#02919:0000001300000000
#02916:00130000
#03118:0000000000160000
#03112:000000130000003333333333000000160000000000130000
#03115:00000016
#0311b:0013130000000013
#03116:00130000
#03117:000000000000003333333333000000000000000000000000
#03418:00000000000000000000001200000023
#03416:0000000000121200
#03412:14
#0341a:0014
#03415:0000000000000023
#04016:0000131800000000
#04012:2313000013001300
#04018:0000000000130013
#04015:00000000000000000000001300000000
#0401b:23001313
#04214:00000013
#04219:00000013
#04212:0000000000000014
#04816:1314151413280000
#04812:2400000024140028
#0481a:0000000000000014
#0481b:00230000
#04810:41
#04916:0000000000000012
#0491b:0023002300001300
#04912:00002313
#04918:00000000000000000000130000000012
#04915:00000000000000000000001300000000
#04917:00232300
#05016:1200001200000014
#05012:0014140000001300
#0501a:0014
#05017:00000013
#05018:0012000000120000
#05112:0000000014000024
#05116:00000000000000000000141414002400
#05312:0000130000130016
#05316:14001200140000001400140000140000
#0531b:1313
#0531c:0000000000000012
#05318:0000001200001600
#05412:0000000000000014
#05417:0000000000000012
#05416:0014001400140000
#0551b:0000130000130000
#05516:14000000140012001400140000140000
#05518:0012000000000016
#05512:1300000013001612
#05616:0014001400140000
#06212:14343434000000001300130000001300
#06216:14000014
#0621b:0000000000000013
#06217:00000000000000000013000000000000
#0621a:00343434000000000000000000000000
#06210:41
#0631b:0013000013130013
#06318:0000131300000000
#06312:0000001313001300
#06316:14
#06315:00001313000000000000000000000000
#06412:1300000013000013
#0641b:0000130000130000
#06418:0000000033333333000000001300000000000000000000000000000000000000
#06415:0000000016160016
#06617:12
#06612:0000003232000022
#06616:0000003232000000
#06718:0000000000121200
#06716:00000000000000000000001200000000
#07012:1212000000130000
#0701c:0000121212000000
#07014:00000013
#0701b:0000000000000013
#07017:0000000000130000
#07019:00000013
#07016:0000000000000013
#0721b:1300131313001313
#07212:13001300130000001300131300000000
#07216:0014001400140014
#0731b:1300131300000013
#07312:1300131300000013
#07315:00000013000000001300000000000000
#07318:0013000013000000
#07314:0000000000130000
#07319:0000000000130000
#0731a:00000013
#07313:00000013
#07416:0000000024002414
#07418:26
#0741b:0023000023000000
#07412:2326000000002300
#07612:13132300
#07616:0013001300000000
#0761b:0023
#08112:2400140000140012
#08116:00000000000018001200001400001400
#08118:00120000
#0811a:24001414
#08216:13000000000014000000121412000000
#08212:00001813180000001400000000001c00
#0821b:1300001300000000
#0821a:0014
#08412:24242414
#0841a:24000014240000142400000014000000
#08416:0014001400000000
#08818:0000000000130000
#08815:00000000000000000000001300000000
#0881a:00000014
#08812:0023000000001400
#08817:0023000000000000
#08912:0000140000130013
#08917:0000000013130000
#0891a:00140000
#0891b:0000000013000013
#08916:0014001400000000
#09012:0000000000000013
#0901b:0000000000000013
#09015:0000000000120000
#09017:00000000000000000000001412000000
#09115:16120000000014000012000000000000
#09118:0013000000000000
#09112:00131300
#09117:0000000000140000
#0911b:00131300
#09119:00000000001200000000000000000000
#09114:00000012
#0911a:00000012
#09218:0000000000120000
#09212:00000000000000000000001600000000
#09216:0023000000001400
#0921b:0023000000000000
#09312:0024000000000014
#09316:0024000000000023
#09417:1414
#09415:0014000000140000
#0941a:00140014
#09412:0023001400230014
#09416:0000002300000023
#09517:1400000013120000
#09516:0013000000000000
#0951b:00130000
#09512:0024001300250012
#0951c:00000012
#09515:0000002400000000
#09514:0000000000000025
#09617:12140000
#0961c:00120000
#09612:0012
#09615:0014
#05717:0000000000000000000000000000000012121212121200000000000000000000
#05715:00000000000000000000000000000000000000000000000000000000000000000012000000120000001200000000000000000000000000000000000000000000
#05719:00000000000000000000000000000000000000000000000000000000000000000000001200000012000000120000000000000000000000000000000000000000
#06516:0012001200120000
#06518:00000012000012000000120000000000
#0651b:00131313
#06512:00131313
#0681f:11
#06816:28
#0681a:0024
#06812:2428
#0521a:2424
#05217:00230000
#01152:53000023000000000023000000000000
#01154:0053000000630000
#01156:00230000000000006300002300000000
#0135a:0000440000000014
#01352:3400000034480014
#0145b:0013
#01452:0013
#02655:00000053
#02652:0036
#02658:0046
#04556:0013
#0455b:0013
#0595b:00005353
#05952:0000000000230023
#0605b:53
#06055:0000000036460036
#06959:0015
#06952:0015
#07852:0014
#0785a:0014
#08052:53530000
#0805b:0023000000000000
#0855a:14140000
#08552:1400140000000013
#0855b:0000000000000013
#00252:00000014
#0025a:00000014
#00152:3333
#0015b:00430000
#01258:00000016
#01252:00000016
#01752:0000340000000014
#0175a:4400000044000014
#01756:0000000000380000
#0185b:0013
#01852:0013
#0185a:00000064
#0155b:63000023000000000023000000000000
#01557:00230000000000005300002300000000
#01559:0063000000530000
#01658:00000016
#01652:00000016
#02052:00000033
#02058:00000046
#0215a:0000000000000044
#02152:0000000000000034
#02252:0036
#02258:0046
#02452:00000036
#0245b:00000043
#02552:0000000000000034
#0255a:0000000000000044
#02855:0033
#02858:00004363
#03058:0043
#03055:0033
#0305b:00000053
#03052:00000053
#02752:00000000003c0000
#02757:00530000
#02952:00000000004c0000
#02956:00530000
#03158:0000000000460000
#03152:0000000000360000
#0315b:00530000
#03156:00530000
#03258:0046
#03252:0036
#03355:0053
#03352:0000000000230000
#0335b:0000000000230000
#0375a:00544400
#03756:0000002444000000
#03752:0000002400000000
#04156:0000002434000000
#0415a:0000002400000000
#04152:00643400
#04358:00000044
#04354:00000034
#04452:0000000000180000
#04456:0000000000000018
#04856:0000000000180000
#04852:0000000000000018
#0535b:1313
#05352:0000130000130000
#0555b:0000130000130000
#05552:1313
#0585b:53
#05857:53
#05852:00130000
#05856:00130000
#06256:54140000
#0625a:00140000
#06252:24
#06452:63
#06455:0000000046360046
#06352:00006363
#0635b:0000000000230023
#06852:34
#0685a:0044
#07458:16
#07452:0016000000000000
#0755b:0043
#08252:0014
#0825a:0014
#0835b:0013
#08352:0000000000130000
#08452:34343454
#0845a:00000054
#08655:0013
#08659:0013
#0885b:13131300
#08856:13131300
#0885a:00000064
#08852:00000064
#08952:1400140000000013
#0895a:14140000
#0895b:0000000000000013
#09058:0013
#09054:0013
#04957:0013
#04952:0013
#05757:0000000000000000000000000000000052525252525200000000000000000000
#05755:00000000000000000000000000000000000000000000000000000000000000000022000000220000002200000000000000000000000000000000000000000000
#05759:00000000000000000000000000000000000000000000000000000000000000000000002200000022000000220000000000000000000000000000000000000000
#09257:13131300
#09252:13131300
#09356:14141400
#0935a:14141400
#0615b:0000002300230000
#06158:00525252
#06156:00626262
#06152:0000002300230000
#0655b:00535353
#06558:0000002200220000
#06552:00636363
#06556:0000002200220000
#07652:00000033
#0765b:00000043
#001380:0000000016260000
#001350:0000000000000013
#002380:23
#0033b0:0013
#003360:0000000000230000
#005320:0013
#005370:0000000000230000
#007360:0014
#007320:0000000000240000
#008320:0014000000000000
#008340:00000034000000000000000000000000
#008360:00240000
#008340:0000001200000000
#008360:00000000000000320000000000000000
#008380:0022
#008371:0000001200000000
#008391:00000000000000320000000000000000
#0083b1:0022
#008361:0000000000140000
#008381:00000000000000000000003400000000
#0083a1:00000024
#009361:0014
#0093a1:0000000000240000
#0103a1:0014000000000000
#010381:00000034000000000000000000000000
#010361:00240000
#0103a1:0000001200000000
#010381:00000000000000320000000000000000
#010361:0022
#010370:0000001200000000
#010350:00000000000000320000000000000000
#010330:0022
#010360:0000000000140000
#010340:00000000000000000000003400000000
#010320:00000024
#011320:13000053000000000000000000000000
#011360:00530000230000000000000000000000
#011340:0033000000000000
#011360:00000000000000001300005300000000
#011320:00000000000000000053000023000000
#011340:0000000000330000
#0153b0:13000053000000000000000000000000
#015370:00530000230000000000000000000000
#015390:0033000000000000
#015370:00000000000000001300005300000000
#0153b0:00000000000000000053000023000000
#015390:0000000000330000
#0183a0:00000014
#019360:24
#019320:00000013
#019360:0000000000000023
#021320:13
#021360:0023000000000000
#021360:00130000
#021320:0000002300000000
#0233b0:00000013
#023370:0000000000000023
#0253b0:13
#025370:0023000000000000
#025370:00130000
#0253b0:0000002300000000
#026350:00000013
#027320:23
#027370:00130000
#0273b0:000000000000003333333333230000000000000000000000
#028380:00000013
#0293b0:23
#029360:00130000
#029320:000000000000003333333333230000000000000000000000
#030320:00000013
#031350:23
#0303b1:00000013
#031381:23
#0313b1:00130000
#031371:000000000000003333333333230000000000000000000000
#031360:00130000
#031320:000000000000003333333333230000000000000000000000
#033350:00001323
#033320:0000000000530000
#0333b1:0000000000130000
#033381:00000023
#0343a1:14
#034361:0024000000000000
#034320:0014000000000000
#034360:00240000
#0343a1:00140000
#034361:0000002400000000
#034320:0000001400000000
#034360:0024
#035320:14
#035360:0024000000000000
#0353a1:0014000000000000
#035361:00240000
#035320:00140000
#035360:0000002400000000
#0353a1:0000001400000000
#035361:0024
#036361:0013000000000000
#036321:00230000
#036381:0000000000000013
#037381:23
#0373a1:00001424000000000000000000000000
#037360:00000014240000000000000000000000
#0373a1:00142400
#037361:0000003400000000
#037320:0000001400000000
#037360:0024
#039320:13
#039380:0033000000000000
#039350:00330000
#0393b0:0000002300000000
#039361:13
#039331:0033000000000000
#0393a1:00330000
#039371:0000002300000000
#040371:0013000000000000
#0403b1:00230000
#040351:0000000000000013
#041351:23
#041321:00001424000000000000000000000000
#041360:00000014240000000000000000000000
#041321:00142400
#041361:0000003400000000
#0413a0:0000001400000000
#041360:0024
#042370:13
#042320:0023000000000000
#0423b1:13
#042361:0023000000000000
#042371:00130000
#042321:0000002300000000
#0423b0:00130000
#042360:0000002300000000
#042370:0013
#042320:0000000000230000
#0423b1:0013
#042361:0000000000230000
#0423a1:0000000000000014
#043361:24
#043320:14
#043340:00340000000000000000000000000000
#043360:0024000000000000
#0433a1:0014000000000000
#043361:00240000
#043320:00140000
#043340:00000000003400000000000000000000
#043360:0000002400000000
#0433a1:0000001400000000
#043361:0034
#043381:000000000000000000000000000000000000000000000000000000000000000000000000000000000000000000000000000000000000000000000000000000000000000000000000000000000000000000000000000000000000000000000000000000000000000000000000000000000000000000000000000000000000000000000000000000000000000000000000000000000000000000000000000000000000000000000000000000000000000000000000000000000000000000000000000000000000000000000000000000000000000000000000000000000000000000000000000000000000000000000000005400000000000000000000000000000000000000000000000000000000000000000000000000000000000000000000000000000000000000000000000000000000000000000000000000000000000000000000000000000000000000000000000000000000000000000000000000000000000000000000240000000000000000000000000000000000000000000000000000000000000000000000000000000000000000000000000000000000000000000000000000000000000000000000000000000000000000000000000000000000000000000000000000000000000000000000000000000000000000000000
#043320:0014
#043340:000000000000000000000000000000000000000000000000000000000000000000000000000000000000000000000000000000000000000000000000000000000000000000000000000000000000000000000000000000000000000000000000000000000000000000000000000000000000000000000000000000000000000000000000000000000000000000000000000000000000000000000000000000000000000000000000000000000000000000000000000000000000000000000000000000000000000000000000000000000000000000000000000000000000000000000000000000000000000000000000005400000000000000000000000000000000000000000000000000000000000000000000000000000000000000000000000000000000000000000000000000000000000000000000000000000000000000000000000000000000000000000000000000000000000000000000000000000000000000000000240000000000000000000000000000000000000000000000000000000000000000000000000000000000000000000000000000000000000000000000000000000000000000000000000000000000000000000000000000000000000000000000000000000000000000000000000000000000000000000000
#045370:0013003300000000
#0453a0:000000000000000000000000000000000000000000000000000000000000000000000000000000000000000000000000000000000000000000000000000000000000000000000000000000000000000000000000000000000000000000000000000000000000000000000000000000000000000000000000000000000000000000000000000000000000000000000000000000000000000000000000000000000000000000000000000000000000000000000000000000000000000000000000000000000000000000000000000000000000000000000000000000000000000000000000000000000000000000000000000000000000000000000000000000000000000000000000000000000000000000000000000000000000000000000000000000000000000000000000000000000000000000000000000000000000000000000000000000000000000000000000000000000000000000000000000000000000000000000000000000000000000000000000000000000000000000000000000000000000000000000000000000000000000000000000000000000000000000000000000000000000000000000000000000000000000000000000000000000000000000000000000000000000000000000000000000000000000000000053000000000000000000000000000000000000000000000000000000000000000000000000000000000000000000000000000000000000000000000000000000000000000000000000000000000000000000000000000000000000000000000000000000000000000000000000000000000000000000000000000000000000000000000000000000000000000000000000000000000000000000000000000000000000000000000000000000000000000000000000000000000000000000000000000000000000000000000000000000000000000000000000000000000000000000000000000000000000000000000000000000000000000000000000000000000000000000000000000000000000000000000000000000000000000000000000000000000000000000000000000000000000000000000000000000000000000000000000000000000000000000000000000000000000000000000000000000000000000000000000000000000000000000000000000000000000000000000000000000000000000000000000000000000000000000000000000000000000000000000000000000000000000000000000000000000000000000000000000000000000000000000000000000000000000000000000000000000000000053000000000000000000000000000000000000000000000000000000000000000000000000000000000000000000000000000000000000000000000000000000000000000000000000000000000000000000000000000000000000000000000000000000000000000000000000000000000000000000000000000000000000000000000000000000000000000000000000000000000000000000000000000000000000000000000000000000000000000000000000000000000000000000000000000000000000000000000000000000000000000000000000000000000000000000000000000000000000000000000000000000000000000000000000000000000000000000000000000000000000000000000000000000000000000000000000000000000000000000000000000000000000000000000000000000000000000000000000000000000000000000000000000000000000000000000000000000000000000000000000000000000000000000000000000000000000000000000000000000000000000000000000000000000000000000000000000000000000000000000000000000000000000000000000000000000000000000000000000000000000000000000000000000000000000000000000000000000000000000000000000000000000000000000000000000000000000000000000000000000000000000000000000000000000000000000000000000000000000000000000000000000000000000000000000000000000000000000000000000000000000000000000000000000000000000000000000000000000000000000000000000000000000000000000000000000000000000000000000000000000000000000000000000000000000000000000000000000000000000000000000000000000000000000000000000000000000000000000000000000000000000000000000000000000000000000000000000000000000000000000000000000000000000000000000000000000000000000000000000000000000000000000000000000000000000000000000000000000000000000000000000000000000000000000000000000000000000000000000000000000000000000000000000000000000000000000000000000000000000000000000000000000000000000000000000000000000000000000000000000000000000000000000000000000000000000000000000000000000000000000000000000000000000000000000000000000000000000000000000000000000000000000000000000000000000000000000000000000000000000000000000
#0453b0:00332300
#045380:000000000000000000000000000000000000000000000000000000000000000000000000000000000000000000000000000000000000000000000000000000000000000000000000000000000000000000000000000000000000000000000000000000000000000000000000000000000000000000000000000000000000000000000000000000000000000000000000000000000000000000000000000000000000000000000000000000000000000000000000000000000000000000000000000000000000000000000000000000000000000000000000000000000000000000000000000000000000000000000000000000000000000000000000000000000000000000000000000000000000000000000000000000000000000000000000000000000000000000000000000000000000000000000000000000000000000000000000000000000000000000000000000000000000000000000000000000000000000000000000000000000000000000000000000000000000000000000000000000000000000000000000000000000000000000000000000000000000000000000000000000000000000000000000000000000000000000000000000000000000000000000000000000000000000000000000000000000000000000000000000000000000000000000000000000000000000000000000000000000000000000000000000000000000000000000000000000000000000000000000000000000000000000000000000000000000000000000000000000000000000000000000000000000000000000000000000000000000000000000000000000000000000000000000000000000000000000000000000000000000000000000000000000000000000000000000000000000000000000000000000000000000000000000000000000000000000000000000000000000000000000000000000000000000000000000000000000000000000000000053000000000000000000000000000000000000000000000000000000000000000000000000000000000000000000000000000000000000000000000000000000000000000000000000000000000000000000000000000000000000000000000000000000000000000000000000000000000000000000000000000000000000000000000000000000000000000000000000000000000000000000000000000000000000000000000000000000000000000000000000000000000000000000000000000000000000000000000000000000000000000000000000000000000000000000000000000000000000000000000000000000000000000000000000000000000000000000000000000000000000000000000000000000000000000000000000000000000000000000000000000000000000000000000000000000000000000000000000000000000000000000000000000000000000000000000000000000000000000000000000000000000000000000000000000000000000000000000000000000000000000000000000000000000000000000000000000000000000000000000000000000000000000000000000000000000000000000000000000000000000000000000000000000000000000000000000000000000000000000000000000000000000000000000000000000000000000000000000000000000000000000000000000000000000000000000000000000000000000000000000000000000000000000000000000000000000000000000000000000000000000000000000000000000000000000000000000000000000000000000000000000000000000000000000000000000000000000000000000000000000000000000000000000000000000000000000000000000000000000000000000000000000000000000000000000000000000000000000000000000000000000000000000000000000000000000000000000000000000000000000000000000000000000000000000000000000000000000000000000000000000000000000000000000000000000000000000000000000000000000000000000000000000000000000000000000000000000000000000000000000000000000000000000000000000000000000000000000000000000000000000000000000000000000000000000000000000000000000000000000000000000000000000000000000000000000000000000000000000000000000000000000000000000000000000000000000000000000000000000000000000000000000000000000000000000000000000000000000000000000000000000000000000000000000000000000000000000000000000000000000000000000000000000000000000000000000000000000000000000000000000000000000000000000000000000000000000000000000000000000000000000000000000000000000000000000000000000000000000000000000000000000000000000000000000000000000000000000000000000000000000000000000000000000000000000000000000000000000000000000000000000000000000000000000000000000000000000000000000000000000000000000000000000000000000000000000000000000000000000000000
#046360:00140000
#046320:0000002400000000
#046360:0014
#0463a0:0000000000240000
#046320:0000000000000014
#047370:33
#047320:0024000000000000
#0473a1:14340000
#047361:0033002300000000
#047370:00132300
#047320:0000003400000000
#049360:0013003300000000
#049330:000000000000000000000000000000000000000000000000000000000000000000000000000000000000000000000000000000000000000000000000000000000000000000000000000000000000000000000000000000000000000000000000000000000000000000000000000000000000000000000000000000000000000000000000000000000000000000000000000000000000000000000000000000000000000000000000000000000000000000000000000000000000000000000000000000000000000000000000000000000000000000000000000000000000000000000000000000000000000000000000000000000000000000000000000000000000000000000000000000000000000000000000000000000000000000000000000000000000000000000000000000000000000000000000000000000000000000000000000000000000000000000000000000000000000000000000000000000000000000000000000000000000000000000000000000000000000000000000000000000000000000000000000000000000000000000000000000000000000000000000000000000000000000000000000000000000000000000000000000000000000000000000000000000000000000000000000000000000000000000053000000000000000000000000000000000000000000000000000000000000000000000000000000000000000000000000000000000000000000000000000000000000000000000000000000000000000000000000000000000000000000000000000000000000000000000000000000000000000000000000000000000000000000000000000000000000000000000000000000000000000000000000000000000000000000000000000000000000000000000000000000000000000000000000000000000000000000000000000000000000000000000000000000000000000000000000000000000000000000000000000000000000000000000000000000000000000000000000000000000000000000000000000000000000000000000000000000000000000000000000000000000000000000000000000000000000000000000000000000000000000000000000000000000000000000000000000000000000000000000000000000000000000000000000000000000000000000000000000000000000000000000000000000000000000000000000000000000000000000000000000000000000000000000000000000000000000000000000000000000000000000000000000000000000000000000000000000000000000053000000000000000000000000000000000000000000000000000000000000000000000000000000000000000000000000000000000000000000000000000000000000000000000000000000000000000000000000000000000000000000000000000000000000000000000000000000000000000000000000000000000000000000000000000000000000000000000000000000000000000000000000000000000000000000000000000000000000000000000000000000000000000000000000000000000000000000000000000000000000000000000000000000000000000000000000000000000000000000000000000000000000000000000000000000000000000000000000000000000000000000000000000000000000000000000000000000000000000000000000000000000000000000000000000000000000000000000000000000000000000000000000000000000000000000000000000000000000000000000000000000000000000000000000000000000000000000000000000000000000000000000000000000000000000000000000000000000000000000000000000000000000000000000000000000000000000000000000000000000000000000000000000000000000000000000000000000000000000000000000000000000000000000000000000000000000000000000000000000000000000000000000000000000000000000000000000000000000000000000000000000000000000000000000000000000000000000000000000000000000000000000000000000000000000000000000000000000000000000000000000000000000000000000000000000000000000000000000000000000000000000000000000000000000000000000000000000000000000000000000000000000000000000000000000000000000000000000000000000000000000000000000000000000000000000000000000000000000000000000000000000000000000000000000000000000000000000000000000000000000000000000000000000000000000000000000000000000000000000000000000000000000000000000000000000000000000000000000000000000000000000000000000000000000000000000000000000000000000000000000000000000000000000000000000000000000000000000000000000000000000000000000000000000000000000000000000000000000000000000000000000000000000000000000000000000000000000000000000000000000000000000000000000000000000000000000000000000000000000000000000000
#049320:00332300
#049350:000000000000000000000000000000000000000000000000000000000000000000000000000000000000000000000000000000000000000000000000000000000000000000000000000000000000000000000000000000000000000000000000000000000000000000000000000000000000000000000000000000000000000000000000000000000000000000000000000000000000000000000000000000000000000000000000000000000000000000000000000000000000000000000000000000000000000000000000000000000000000000000000000000000000000000000000000000000000000000000000000000000000000000000000000000000000000000000000000000000000000000000000000000000000000000000000000000000000000000000000000000000000000000000000000000000000000000000000000000000000000000000000000000000000000000000000000000000000000000000000000000000000000000000000000000000000000000000000000000000000000000000000000000000000000000000000000000000000000000000000000000000000000000000000000000000000000000000000000000000000000000000000000000000000000000000000000000000000000000000000000000000000000000000000000000000000000000000000000000000000000000000000000000000000000000000000000000000000000000000000000000000000000000000000000000000000000000000000000000000000000000000000000000000000000000000000000000000000000000000000000000000000000000000000000000000000000000000000000000000000000000000000000000000000000000000000000000000000000000000000000000000000000000000000000000000000000000000000000000000000000000000000000000000000000000000000000000000000000000000053000000000000000000000000000000000000000000000000000000000000000000000000000000000000000000000000000000000000000000000000000000000000000000000000000000000000000000000000000000000000000000000000000000000000000000000000000000000000000000000000000000000000000000000000000000000000000000000000000000000000000000000000000000000000000000000000000000000000000000000000000000000000000000000000000000000000000000000000000000000000000000000000000000000000000000000000000000000000000000000000000000000000000000000000000000000000000000000000000000000000000000000000000000000000000000000000000000000000000000000000000000000000000000000000000000000000000000000000000000000000000000000000000000000000000000000000000000000000000000000000000000000000000000000000000000000000000000000000000000000000000000000000000000000000000000000000000000000000000000000000000000000000000000000000000000000000000000000000000000000000000000000000000000000000000000000000000000000000000000000000000000000000000000000000000000000000000000000000000000000000000000000000000000000000000000000000000000000000000000000000000000000000000000000000000000000000000000000000000000000000000000000000000000000000000000000000000000000000000000000000000000000000000000000000000000000000000000000000000000000000000000000000000000000000000000000000000000000000000000000000000000000000000000000000000000000000000000000000000000000000000000000000000000000000000000000000000000000000000000000000000000000000000000000000000000000000000000000000000000000000000000000000000000000000000000000000000000000000000000000000000000000000000000000000000000000000000000000000000000000000000000000000000000000000000000000000000000000000000000000000000000000000000000000000000000000000000000000000000000000000000000000000000000000000000000000000000000000000000000000000000000000000000000000000000000000000000000000000000000000000000000000000000000000000000000000000000000000000000000000000000000000000000000000000000000000000000000000000000000000000000000000000000000000000000000000000000000000000000000000000000000000000000000000000000000000000000000000000000000000000000000000000000000000000000000000000000000000000000000000000000000000000000000000000000000000000000000000000000000000000000000000000000000000000000000000000000000000000000000000000000000000000000000000000000000000000000000000000000000000000000000000000000000000000000000000000000000000000000000000000
#050360:00140000
#0503a0:0000002400000000
#050360:0014
#050320:0000000000240000
#0503a0:0000000000000014
#051360:33
#0513a0:0024000000000000
#051321:14340000
#051371:0033002300000000
#051360:00132300
#0513a0:0000003400000000
#051320:0000000000000014
#052370:33
#052320:0024000000000000
#0523a1:14340000
#052361:0033002300000000
#052370:00132300
#052320:0000003400000000
#054320:0014000000000000
#054360:00000034000000000000000000000000
#0543a0:00240000
#054320:0000001400000000
#054360:00000000000000340000000000000000
#0543a0:0024
#054320:0000000000140000
#054360:00000000000000000000003400000000
#0543a0:00000024
#0563a0:0014000000000000
#056360:00000034000000000000000000000000
#056320:00240000
#0563a0:0000001400000000
#056360:00000000000000340000000000000000
#056320:0024
#0563a0:0000000000140000
#056360:00000000000000000000003400000000
#056320:00000034
#057320:24
#057370:0000000000000000000000000000000012523252325222000000000000000000
#057350:00000000000000000000000000000000000000000000000000000000000000000052000000520000005200000000000000000000000000000000000000000000
#057390:00000000000000000000000000000000000000000000000000000000000000000000005200000052000000520000000000000000000000000000000000000000
#058370:13
#058320:00230000
#0583b1:13
#058361:00230000
#0593b1:0013
#059351:0000000000230000
#059320:0000000000130000
#059380:00000023
#0593b1:00000013
#059351:0000000000000023
#059320:0000000000000013
#060380:23
#0603b1:13
#060351:0000000033333333230000000000000000000000000000000000000000000000
#061381:00123232
#0613b1:0000003300330023
#061360:00123232
#061320:0000003300330023
#062320:14343434000000000000000000000000
#062360:00240000
#062361:14
#0623a1:00343434240000000000000000000000
#063321:0013
#063381:0000000000230000
#0633b0:0000000000130000
#063350:00000023
#063321:00000013
#063381:0000000000000023
#0633b0:0000000000000013
#064350:23
#064321:13
#064381:0000000033333333230000000000000000000000000000000000000000000000
#0653b1:00133333
#065381:0000003200320022
#065320:00133333
#065360:0000003200320022
#0663c0:00120000
#066360:0000003232320022
#066381:00120000
#066321:0000003232220000
#0713b0:13
#071350:0033000000000000
#071380:00330000
#071320:0000002300000000
#071371:13
#0713a1:0033000000000000
#071331:00330000
#071361:0000002300000000
#075361:14342400
#075321:0034003400000000
#076361:14340000
#0763a1:0034002400000000
#076321:0013
#0763b1:00000023
#0763b0:0013
#076320:00000023
#079360:0014
#0793a0:0000000000240000
#079320:00000014
#079360:0000000000000024
#080320:13
#080380:0023000000000000
#0803b1:0013000000000000
#080351:00230000
#080320:00130000
#080380:0000002300000000
#0833b0:13
#083360:00542400000000000000000000000000
#083321:0013000000000000
#083361:00000054240000000000000000000000
#0833b0:00130000
#083360:00000000005424000000000000000000
#083321:0000001300000000
#083361:00000000000000542400000000000000
#0843a1:00000014
#085321:24
#084320:00000014
#0853a0:24
#086370:0013003300000000
#086340:000000000000000000000000000000000000000000000000000000000000000000000000000000000000000000000000000000000000000000000000000000000000000000000000000000000000000000000000000000000000000000000000000000000000000000000000000000000000000000000000000000000000000000000000000000000000000000000000000000000000000000000000000000000000000000000000000000000000000000000000000000000000000000000000000000000000000000000000000000000000000000000000000000000000000000000000000000000000000000000053000000000000000000000000000000000000000000000000000000000000000000000000000000000000000000000000000000000000000000000000000000000000000000000000000000000000000000000000000000000000000000000000000000000000000000000000000000000000000000000000000000000000000000000000000000000000000000000000000000000000000000000000000000000000000000000000000000000000000000000000000000000000000000000000000000000000000000000000000000000000000000000000000000000000000000000000000000000000000000000000000000000000000000000000000000000000000000000000000000000000000000000000000000000000000000000000000000000000000000000000000000000000000000000000000000000000000000000000000000000000000000000000000000000000000000000000000000000000000000000000000000000000000000000000000000000000000000000000000000000000000000000000000000000000000000000000000000000000000000000000000000000000000000000000000000000000000000000000000000000000000000000000000000000000000000000000000000000000000000000000000000000000000000000000000000000000000000000000000000000000000000000000000000000000000000000000000000000000000000000000000000000000000000000000000000000000000000000000000000000000000000000000000000000000000000000000000000000000000000000000000000000000000000000000000000000000000000000000000000000000000000000000000000000000000000000000000000000000000000000000000000000000000000000000000000000000000000000000000000000000000000000000000000000000000000000000000000000000000000000000
#086320:00330000
#086350:000000000000000000000000000000000000000000000000000000000000000000000000000000000000000000000000000000000000000000000000000000000000000000000000000000000000000000000000000000000000000000000000000000000000000000000000000000000000000000000000000000000000000000000000000000000000000000000000000000000000000000000000000000000000000000000000000000000000000000000000000000000000000000000000000000000000000000000000000000000000000000000000000000000000000000000000000000000000000000000000000000000000000000000000000000000000000000000000000000000000000000000000000000000000000000000000000000000000000000000000000000000000000000000000000000000000000000000000000000000000000000000000000000000000000000000000000000000000000000000000005300000000000000000000000000000000000000000000000000000000000000000000000000000000000000000000000000000000000000000000000000000000000000000000000000000000000000000000000000000000000000000000000000000000000000000000000000000000000000000000230000000000000000000000000000000000000000000000000000000000000000000000000000000000000000000000000000000000000000000000000000000000000000000000000000000000000000000000000000000000000000000000000000000000000000000000000000000000000000000000000000000000000000000000000000000000000000000000000000000000000000000000000000000000000000000000000000000000000000000000000000000000000000000000000000000000000000000000000000000000000000000000000000000000000000000000000000000000000000000000000000000000000000000000000000000000000000000000000000000000000000000000000000000000000000000000000000000000000000000000000000000000000000000000000000000000000000000000000000000000000000000000000000000000000000000000000000000000000000000000000000000000000000000000000000000000000000000000000000000000000000000000000000000000000000000000000000000000000000000000000000000000000000000000000000000000000000000000000000000000000000000000000000000000000000000000000000000000000000000000
#0863b1:0013003300000000
#086381:000000000000000000000000000000000000000000000000000000000000000000000000000000000000000000000000000000000000000000000000000000000000000000000000000000000000000000000000000000000000000000000000000000000000000000000000000000000000000000000000000000000000000000000000000000000000000000000000000000000000000000000000000000000000000000000000000000000000000000000000000000000000000000000000000000000000000000000000000000000000000000000000000000000000000000000000000000000000000000000053000000000000000000000000000000000000000000000000000000000000000000000000000000000000000000000000000000000000000000000000000000000000000000000000000000000000000000000000000000000000000000000000000000000000000000000000000000000000000000000000000000000000000000000000000000000000000000000000000000000000000000000000000000000000000000000000000000000000000000000000000000000000000000000000000000000000000000000000000000000000000000000000000000000000000000000000000000000000000000000000000000000000000000000000000000000000000000000000000000000000000000000000000000000000000000000000000000000000000000000000000000000000000000000000000000000000000000000000000000000000000000000000000000000000000000000000000000000000000000000000000000000000000000000000000000000000000000000000000000000000000000000000000000000000000000000000000000000000000000000000000000000000000000000000000000000000000000000000000000000000000000000000000000000000000000000000000000000000000000000000000000000000000000000000000000000000000000000000000000000000000000000000000000000000000000000000000000000000000000000000000000000000000000000000000000000000000000000000000000000000000000000000000000000000000000000000000000000000000000000000000000000000000000000000000000000000000000000000000000000000000000000000000000000000000000000000000000000000000000000000000000000000000000000000000000000000000000000000000000000000000000000000000000000000000000000000000000000000000000000000
#086361:00330000
#086391:000000000000000000000000000000000000000000000000000000000000000000000000000000000000000000000000000000000000000000000000000000000000000000000000000000000000000000000000000000000000000000000000000000000000000000000000000000000000000000000000000000000000000000000000000000000000000000000000000000000000000000000000000000000000000000000000000000000000000000000000000000000000000000000000000000000000000000000000000000000000000000000000000000000000000000000000000000000000000000000000000000000000000000000000000000000000000000000000000000000000000000000000000000000000000000000000000000000000000000000000000000000000000000000000000000000000000000000000000000000000000000000000000000000000000000000000000000000000000000000000005300000000000000000000000000000000000000000000000000000000000000000000000000000000000000000000000000000000000000000000000000000000000000000000000000000000000000000000000000000000000000000000000000000000000000000000000000000000000000000000230000000000000000000000000000000000000000000000000000000000000000000000000000000000000000000000000000000000000000000000000000000000000000000000000000000000000000000000000000000000000000000000000000000000000000000000000000000000000000000000000000000000000000000000000000000000000000000000000000000000000000000000000000000000000000000000000000000000000000000000000000000000000000000000000000000000000000000000000000000000000000000000000000000000000000000000000000000000000000000000000000000000000000000000000000000000000000000000000000000000000000000000000000000000000000000000000000000000000000000000000000000000000000000000000000000000000000000000000000000000000000000000000000000000000000000000000000000000000000000000000000000000000000000000000000000000000000000000000000000000000000000000000000000000000000000000000000000000000000000000000000000000000000000000000000000000000000000000000000000000000000000000000000000000000000000000000000000000000000000000
#087321:0000000000000013
#087341:000000000000000000000000000000000000000000000000000000000000000000000000000000000000000000000000000000000000000000000000000000000000000000000000000000000000000000000000000000000000000000000000000000000000000000000000000000000000000000000000000000000000000000000000000000000000000000000000000000000000000000000000000000000000000000000000000000000000000000000000000000000000000000000000000000000000000000000000000000000000000000000000000000000000000000000000000000000000000000000000000000000000000000000000000000000000000000000000000000000000000000000000000000000000000000000000000000000000000000000000000000000000000000000000000000000000000000000000000000000000000000000000000000000000000000000000000000000000000000000000000000000000000000000000000000000000000000000000000000000000000000000000000000000000000000000000000000000000000000000000000000000000000000000000000000000000000000000000000000000000000000000000000000000000000000000000000000000000000000000000000000000000000000000000000000000000000000000000000000000000000000000000000000000000000000000000000000000000000000000000000000000000000000000000000000000000000000000000000000000000000000000000000000000000000000000000000000000000000000000000000000000000000000000000000000000000000000000000000000000000000000000000000000000000000000000000000000000000000000000000000000000000000000000000000000000000000000000000000000000000000000000000000000000000000000000000000000000000000000000000000000000000000000000000000000000000000000000000000000000000000000000000000000000000000000000000000000000000000000000000000000000000000000000000000000000000000000000000000000000000000000000000000000000000000000000000000000000000000000000000005300000000000000000000000000000000000000000000000000000000000000000000000000000000000000000000000000000000000000000000000000000000000000000000000000000000000000000000000000000000000000000000000000000000000000000000000000000000000000000000
#088361:23
#087370:0000000000000013
#087390:000000000000000000000000000000000000000000000000000000000000000000000000000000000000000000000000000000000000000000000000000000000000000000000000000000000000000000000000000000000000000000000000000000000000000000000000000000000000000000000000000000000000000000000000000000000000000000000000000000000000000000000000000000000000000000000000000000000000000000000000000000000000000000000000000000000000000000000000000000000000000000000000000000000000000000000000000000000000000000000000000000000000000000000000000000000000000000000000000000000000000000000000000000000000000000000000000000000000000000000000000000000000000000000000000000000000000000000000000000000000000000000000000000000000000000000000000000000000000000000000000000000000000000000000000000000000000000000000000000000000000000000000000000000000000000000000000000000000000000000000000000000000000000000000000000000000000000000000000000000000000000000000000000000000000000000000000000000000000000000000000000000000000000000000000000000000000000000000000000000000000000000000000000000000000000000000000000000000000000000000000000000000000000000000000000000000000000000000000000000000000000000000000000000000000000000000000000000000000000000000000000000000000000000000000000000000000000000000000000000000000000000000000000000000000000000000000000000000000000000000000000000000000000000000000000000000000000000000000000000000000000000000000000000000000000000000000000000000000000000000000000000000000000000000000000000000000000000000000000000000000000000000000000000000000000000000000000000000000000000000000000000000000000000000000000000000000000000000000000000000000000000000000000000000000000000000000000000000000000000000005300000000000000000000000000000000000000000000000000000000000000000000000000000000000000000000000000000000000000000000000000000000000000000000000000000000000000000000000000000000000000000000000000000000000000000000000000000000000000000000
#0883b0:23
#088320:0013000000000000
#088340:000000000000000000000000000000000000000000000000000000000000000000000000000000000000000000000000000000000000000000000000000000000000000000000000000000000000000000000000000000000000000000000000000000000000000000000000000000000000000000000000005300000000000000000000000000000000000000000000000000000000000000000000000000000000000000000000000000000000000000000000000000000000000000000000000000000000000000000000000000000000000000000000000000000000000000000000000000000000000000000000000000000000000000000000000000000000000000000000000000000000000000000000000000000000000000000000000000000000000000000000000000000000000000000000000000000000000000000000000000000000000000000000000000000000000000000000000000000000000000000000000000000000000000000000000000000000000000000000000000000000000000000000000000000000000000000000000000000000000000000000000000000000000000000000000000000000000000000000000000000000000000000000000000000000000000000000000000000000000000000000000000000000000000000000000000000000000000000000000000000000000000000000000000000000000000000000000000000000000000000000000000000000000000000000000000000000000000000000000000000000000000000000000000000000000000000000000000000000000000000000000000000000000000000000000000000000000000000000000000000000000000000000000000000000000000000000000000000000000000000000000000000000000000000000000000000000000000000000000000000000000000000000000000000000000000000000000000000000000000000000000000000000000000000000000000000000000000000000000000000000000000000000000000000000000000000000000000000000000000000000000000000000000000000000000000000000000000000000000000000000000000000000000000000000000000000000000000000000000000000000000000000000000000000000000000000000000000000000000000000000000000000000000000000000000000000000000000000000000000000000000000000000000000000000000000000000000000000000000000000000000000000000000000000000000000000000000000000000000000000000
#088360:00230000
#088371:0013000000000000
#088391:000000000000000000000000000000000000000000000000000000000000000000000000000000000000000000000000000000000000000000000000000000000000000000000000000000000000000000000000000000000000000000000000000000000000000000000000000000000000000000000000005300000000000000000000000000000000000000000000000000000000000000000000000000000000000000000000000000000000000000000000000000000000000000000000000000000000000000000000000000000000000000000000000000000000000000000000000000000000000000000000000000000000000000000000000000000000000000000000000000000000000000000000000000000000000000000000000000000000000000000000000000000000000000000000000000000000000000000000000000000000000000000000000000000000000000000000000000000000000000000000000000000000000000000000000000000000000000000000000000000000000000000000000000000000000000000000000000000000000000000000000000000000000000000000000000000000000000000000000000000000000000000000000000000000000000000000000000000000000000000000000000000000000000000000000000000000000000000000000000000000000000000000000000000000000000000000000000000000000000000000000000000000000000000000000000000000000000000000000000000000000000000000000000000000000000000000000000000000000000000000000000000000000000000000000000000000000000000000000000000000000000000000000000000000000000000000000000000000000000000000000000000000000000000000000000000000000000000000000000000000000000000000000000000000000000000000000000000000000000000000000000000000000000000000000000000000000000000000000000000000000000000000000000000000000000000000000000000000000000000000000000000000000000000000000000000000000000000000000000000000000000000000000000000000000000000000000000000000000000000000000000000000000000000000000000000000000000000000000000000000000000000000000000000000000000000000000000000000000000000000000000000000000000000000000000000000000000000000000000000000000000000000000000000000000000000000000000000000000000000000
#0883b1:00230000
#088321:0000001300000000
#088341:000000000000000000000000000000000000000000000000000000000000000000000000000000000000000000000000000000000000000000000000000000000000000000000000000000000000000000000000000000000000000000000000000000000000000000000000000000000000000000000000000000000000000000000000000000000000000000000000000000000000000000000000000000000000000000000000000000000000000000000000000000000000000000000000000000000000000000000000000000000000000000000000000000000000000000000000000000000000000000000000000000000000000000000000000000000000000000000000000000000000000000000000000000000000000000000000000000000000000000000000000000000000000000000000000000000000000000000000000000000000000000000000000000000000000000000000000000000000000000000000005300000000000000000000000000000000000000000000000000000000000000000000000000000000000000000000000000000000000000000000000000000000000000000000000000000000000000000000000000000000000000000000000000000000000000000000000000000000000000000000000000000000000000000000000000000000000000000000000000000000000000000000000000000000000000000000000000000000000000000000000000000000000000000000000000000000000000000000000000000000000000000000000000000000000000000000000000000000000000000000000000000000000000000000000000000000000000000000000000000000000000000000000000000000000000000000000000000000000000000000000000000000000000000000000000000000000000000000000000000000000000000000000000000000000000000000000000000000000000000000000000000000000000000000000000000000000000000000000000000000000000000000000000000000000000000000000000000000000000000000000000000000000000000000000000000000000000000000000000000000000000000000000000000000000000000000000000000000000000000000000000000000000000000000000000000000000000000000000000000000000000000000000000000000000000000000000000000000000000000000000000000000000000000000000000000000000000000000000000000000000000000000000000000000000000000000000000000000000000000000
#088361:0023
#088370:0000001300000000
#088390:000000000000000000000000000000000000000000000000000000000000000000000000000000000000000000000000000000000000000000000000000000000000000000000000000000000000000000000000000000000000000000000000000000000000000000000000000000000000000000000000000000000000000000000000000000000000000000000000000000000000000000000000000000000000000000000000000000000000000000000000000000000000000000000000000000000000000000000000000000000000000000000000000000000000000000000000000000000000000000000000000000000000000000000000000000000000000000000000000000000000000000000000000000000000000000000000000000000000000000000000000000000000000000000000000000000000000000000000000000000000000000000000000000000000000000000000000000000000000000000000005300000000000000000000000000000000000000000000000000000000000000000000000000000000000000000000000000000000000000000000000000000000000000000000000000000000000000000000000000000000000000000000000000000000000000000000000000000000000000000000000000000000000000000000000000000000000000000000000000000000000000000000000000000000000000000000000000000000000000000000000000000000000000000000000000000000000000000000000000000000000000000000000000000000000000000000000000000000000000000000000000000000000000000000000000000000000000000000000000000000000000000000000000000000000000000000000000000000000000000000000000000000000000000000000000000000000000000000000000000000000000000000000000000000000000000000000000000000000000000000000000000000000000000000000000000000000000000000000000000000000000000000000000000000000000000000000000000000000000000000000000000000000000000000000000000000000000000000000000000000000000000000000000000000000000000000000000000000000000000000000000000000000000000000000000000000000000000000000000000000000000000000000000000000000000000000000000000000000000000000000000000000000000000000000000000000000000000000000000000000000000000000000000000000000000000000000000000000000000000000
#0883b0:0023
#088320:00000014
#0893a0:24
#0883a1:00000014
#089321:24
#090361:0013003300000000
#090391:000000000000000000000000000000000000000000000000000000000000000000000000000000000000000000000000000000000000000000000000000000000000000000000000000000000000000000000000000000000000000000000000000000000000000000000000000000000000000000000000000000000000000000000000000000000000000000000000000000000000000000000000000000000000000000000000000000000000000000000000000000000000000000000000000000000000000000000000000000000000000000000000000000000000000000000000000000000000000000000053000000000000000000000000000000000000000000000000000000000000000000000000000000000000000000000000000000000000000000000000000000000000000000000000000000000000000000000000000000000000000000000000000000000000000000000000000000000000000000000000000000000000000000000000000000000000000000000000000000000000000000000000000000000000000000000000000000000000000000000000000000000000000000000000000000000000000000000000000000000000000000000000000000000000000000000000000000000000000000000000000000000000000000000000000000000000000000000000000000000000000000000000000000000000000000000000000000000000000000000000000000000000000000000000000000000000000000000000000000000000000000000000000000000000000000000000000000000000000000000000000000000000000000000000000000000000000000000000000000000000000000000000000000000000000000000000000000000000000000000000000000000000000000000000000000000000000000000000000000000000000000000000000000000000000000000000000000000000000000000000000000000000000000000000000000000000000000000000000000000000000000000000000000000000000000000000000000000000000000000000000000000000000000000000000000000000000000000000000000000000000000000000000000000000000000000000000000000000000000000000000000000000000000000000000000000000000000000000000000000000000000000000000000000000000000000000000000000000000000000000000000000000000000000000000000000000000000000000000000000000000000000000000000000000000000000000000000000000000000000000
#0903b1:00330000
#090381:000000000000000000000000000000000000000000000000000000000000000000000000000000000000000000000000000000000000000000000000000000000000000000000000000000000000000000000000000000000000000000000000000000000000000000000000000000000000000000000000000000000000000000000000000000000000000000000000000000000000000000000000000000000000000000000000000000000000000000000000000000000000000000000000000000000000000000000000000000000000000000000000000000000000000000000000000000000000000000000000000000000000000000000000000000000000000000000000000000000000000000000000000000000000000000000000000000000000000000000000000000000000000000000000000000000000000000000000000000000000000000000000000000000000000000000000000000000000000000000000005300000000000000000000000000000000000000000000000000000000000000000000000000000000000000000000000000000000000000000000000000000000000000000000000000000000000000000000000000000000000000000000000000000000000000000000000000000000000000000000230000000000000000000000000000000000000000000000000000000000000000000000000000000000000000000000000000000000000000000000000000000000000000000000000000000000000000000000000000000000000000000000000000000000000000000000000000000000000000000000000000000000000000000000000000000000000000000000000000000000000000000000000000000000000000000000000000000000000000000000000000000000000000000000000000000000000000000000000000000000000000000000000000000000000000000000000000000000000000000000000000000000000000000000000000000000000000000000000000000000000000000000000000000000000000000000000000000000000000000000000000000000000000000000000000000000000000000000000000000000000000000000000000000000000000000000000000000000000000000000000000000000000000000000000000000000000000000000000000000000000000000000000000000000000000000000000000000000000000000000000000000000000000000000000000000000000000000000000000000000000000000000000000000000000000000000000000000000000000000000
#090320:0013003300000000
#090350:000000000000000000000000000000000000000000000000000000000000000000000000000000000000000000000000000000000000000000000000000000000000000000000000000000000000000000000000000000000000000000000000000000000000000000000000000000000000000000000000000000000000000000000000000000000000000000000000000000000000000000000000000000000000000000000000000000000000000000000000000000000000000000000000000000000000000000000000000000000000000000000000000000000000000000000000000000000000000000000053000000000000000000000000000000000000000000000000000000000000000000000000000000000000000000000000000000000000000000000000000000000000000000000000000000000000000000000000000000000000000000000000000000000000000000000000000000000000000000000000000000000000000000000000000000000000000000000000000000000000000000000000000000000000000000000000000000000000000000000000000000000000000000000000000000000000000000000000000000000000000000000000000000000000000000000000000000000000000000000000000000000000000000000000000000000000000000000000000000000000000000000000000000000000000000000000000000000000000000000000000000000000000000000000000000000000000000000000000000000000000000000000000000000000000000000000000000000000000000000000000000000000000000000000000000000000000000000000000000000000000000000000000000000000000000000000000000000000000000000000000000000000000000000000000000000000000000000000000000000000000000000000000000000000000000000000000000000000000000000000000000000000000000000000000000000000000000000000000000000000000000000000000000000000000000000000000000000000000000000000000000000000000000000000000000000000000000000000000000000000000000000000000000000000000000000000000000000000000000000000000000000000000000000000000000000000000000000000000000000000000000000000000000000000000000000000000000000000000000000000000000000000000000000000000000000000000000000000000000000000000000000000000000000000000000000000000000000000000000000000
#090370:00330000
#090340:000000000000000000000000000000000000000000000000000000000000000000000000000000000000000000000000000000000000000000000000000000000000000000000000000000000000000000000000000000000000000000000000000000000000000000000000000000000000000000000000000000000000000000000000000000000000000000000000000000000000000000000000000000000000000000000000000000000000000000000000000000000000000000000000000000000000000000000000000000000000000000000000000000000000000000000000000000000000000000000000000000000000000000000000000000000000000000000000000000000000000000000000000000000000000000000000000000000000000000000000000000000000000000000000000000000000000000000000000000000000000000000000000000000000000000000000000000000000000000000000005300000000000000000000000000000000000000000000000000000000000000000000000000000000000000000000000000000000000000000000000000000000000000000000000000000000000000000000000000000000000000000000000000000000000000000000000000000000000000000000230000000000000000000000000000000000000000000000000000000000000000000000000000000000000000000000000000000000000000000000000000000000000000000000000000000000000000000000000000000000000000000000000000000000000000000000000000000000000000000000000000000000000000000000000000000000000000000000000000000000000000000000000000000000000000000000000000000000000000000000000000000000000000000000000000000000000000000000000000000000000000000000000000000000000000000000000000000000000000000000000000000000000000000000000000000000000000000000000000000000000000000000000000000000000000000000000000000000000000000000000000000000000000000000000000000000000000000000000000000000000000000000000000000000000000000000000000000000000000000000000000000000000000000000000000000000000000000000000000000000000000000000000000000000000000000000000000000000000000000000000000000000000000000000000000000000000000000000000000000000000000000000000000000000000000000000000000000000000000000000
#0913b0:0000000000000013
#091390:000000000000000000000000000000000000000000000000000000000000000000000000000000000000000000000000000000000000000000000000000000000000000000000000000000000000000000000000000000000000000000000000000000000000000000000000000000000000000000000000000000000000000000000000000000000000000000000000000000000000000000000000000000000000000000000000000000000000000000000000000000000000000000000000000000000000000000000000000000000000000000000000000000000000000000000000000000000000000000000000000000000000000000000000000000000000000000000000000000000000000000000000000000000000000000000000000000000000000000000000000000000000000000000000000000000000000000000000000000000000000000000000000000000000000000000000000000000000000000000000000000000000000000000000000000000000000000000000000000000000000000000000000000000000000000000000000000000000000000000000000000000000000000000000000000000000000000000000000000000000000000000000000000000000000000000000000000000000000000000000000000000000000000000000000000000000000000000000000000000000000000000000000000000000000000000000000000000000000000000000000000000000000000000000000000000000000000000000000000000000000000000000000000000000000000000000000000000000000000000000000000000000000000000000000000000000000000000000000000000000000000000000000000000000000000000000000000000000000000000000000000000000000000000000000000000000000000000000000000000000000000000000000000000000000000000000000000000000000000000000000000000000000000000000000000000000000000000000000000000000000000000000000000000000000000000000000000000000000000000000000000000000000000000000000000000000000000000000000000000000000000000000000000000000000000000000000000000000000000000000005300000000000000000000000000000000000000000000000000000000000000000000000000000000000000000000000000000000000000000000000000000000000000000000000000000000000000000000000000000000000000000000000000000000000000000000000000000000000000000000
#092370:23
#091361:0000000000000013
#091341:000000000000000000000000000000000000000000000000000000000000000000000000000000000000000000000000000000000000000000000000000000000000000000000000000000000000000000000000000000000000000000000000000000000000000000000000000000000000000000000000000000000000000000000000000000000000000000000000000000000000000000000000000000000000000000000000000000000000000000000000000000000000000000000000000000000000000000000000000000000000000000000000000000000000000000000000000000000000000000000000000000000000000000000000000000000000000000000000000000000000000000000000000000000000000000000000000000000000000000000000000000000000000000000000000000000000000000000000000000000000000000000000000000000000000000000000000000000000000000000000000000000000000000000000000000000000000000000000000000000000000000000000000000000000000000000000000000000000000000000000000000000000000000000000000000000000000000000000000000000000000000000000000000000000000000000000000000000000000000000000000000000000000000000000000000000000000000000000000000000000000000000000000000000000000000000000000000000000000000000000000000000000000000000000000000000000000000000000000000000000000000000000000000000000000000000000000000000000000000000000000000000000000000000000000000000000000000000000000000000000000000000000000000000000000000000000000000000000000000000000000000000000000000000000000000000000000000000000000000000000000000000000000000000000000000000000000000000000000000000000000000000000000000000000000000000000000000000000000000000000000000000000000000000000000000000000000000000000000000000000000000000000000000000000000000000000000000000000000000000000000000000000000000000000000000000000000000000000000000000000005300000000000000000000000000000000000000000000000000000000000000000000000000000000000000000000000000000000000000000000000000000000000000000000000000000000000000000000000000000000000000000000000000000000000000000000000000000000000000000000
#092321:23
#0923b1:0013000000000000
#092391:000000000000000000000000000000000000000000000000000000000000000000000000000000000000000000000000000000000000000000000000000000000000000000000000000000000000000000000000000000000000000000000000000000000000000000000000000000000000000000000000005300000000000000000000000000000000000000000000000000000000000000000000000000000000000000000000000000000000000000000000000000000000000000000000000000000000000000000000000000000000000000000000000000000000000000000000000000000000000000000000000000000000000000000000000000000000000000000000000000000000000000000000000000000000000000000000000000000000000000000000000000000000000000000000000000000000000000000000000000000000000000000000000000000000000000000000000000000000000000000000000000000000000000000000000000000000000000000000000000000000000000000000000000000000000000000000000000000000000000000000000000000000000000000000000000000000000000000000000000000000000000000000000000000000000000000000000000000000000000000000000000000000000000000000000000000000000000000000000000000000000000000000000000000000000000000000000000000000000000000000000000000000000000000000000000000000000000000000000000000000000000000000000000000000000000000000000000000000000000000000000000000000000000000000000000000000000000000000000000000000000000000000000000000000000000000000000000000000000000000000000000000000000000000000000000000000000000000000000000000000000000000000000000000000000000000000000000000000000000000000000000000000000000000000000000000000000000000000000000000000000000000000000000000000000000000000000000000000000000000000000000000000000000000000000000000000000000000000000000000000000000000000000000000000000000000000000000000000000000000000000000000000000000000000000000000000000000000000000000000000000000000000000000000000000000000000000000000000000000000000000000000000000000000000000000000000000000000000000000000000000000000000000000000000000000000000000000000000000000000000
#092371:00230000
#092360:0013000000000000
#092340:000000000000000000000000000000000000000000000000000000000000000000000000000000000000000000000000000000000000000000000000000000000000000000000000000000000000000000000000000000000000000000000000000000000000000000000000000000000000000000000000005300000000000000000000000000000000000000000000000000000000000000000000000000000000000000000000000000000000000000000000000000000000000000000000000000000000000000000000000000000000000000000000000000000000000000000000000000000000000000000000000000000000000000000000000000000000000000000000000000000000000000000000000000000000000000000000000000000000000000000000000000000000000000000000000000000000000000000000000000000000000000000000000000000000000000000000000000000000000000000000000000000000000000000000000000000000000000000000000000000000000000000000000000000000000000000000000000000000000000000000000000000000000000000000000000000000000000000000000000000000000000000000000000000000000000000000000000000000000000000000000000000000000000000000000000000000000000000000000000000000000000000000000000000000000000000000000000000000000000000000000000000000000000000000000000000000000000000000000000000000000000000000000000000000000000000000000000000000000000000000000000000000000000000000000000000000000000000000000000000000000000000000000000000000000000000000000000000000000000000000000000000000000000000000000000000000000000000000000000000000000000000000000000000000000000000000000000000000000000000000000000000000000000000000000000000000000000000000000000000000000000000000000000000000000000000000000000000000000000000000000000000000000000000000000000000000000000000000000000000000000000000000000000000000000000000000000000000000000000000000000000000000000000000000000000000000000000000000000000000000000000000000000000000000000000000000000000000000000000000000000000000000000000000000000000000000000000000000000000000000000000000000000000000000000000000000000000000000000000000000
#092320:00230000
#0923b0:0000001300000000
#092390:000000000000000000000000000000000000000000000000000000000000000000000000000000000000000000000000000000000000000000000000000000000000000000000000000000000000000000000000000000000000000000000000000000000000000000000000000000000000000000000000000000000000000000000000000000000000000000000000000000000000000000000000000000000000000000000000000000000000000000000000000000000000000000000000000000000000000000000000000000000000000000000000000000000000000000000000000000000000000000000000000000000000000000000000000000000000000000000000000000000000000000000000000000000000000000000000000000000000000000000000000000000000000000000000000000000000000000000000000000000000000000000000000000000000000000000000000000000000000000000000005300000000000000000000000000000000000000000000000000000000000000000000000000000000000000000000000000000000000000000000000000000000000000000000000000000000000000000000000000000000000000000000000000000000000000000000000000000000000000000000000000000000000000000000000000000000000000000000000000000000000000000000000000000000000000000000000000000000000000000000000000000000000000000000000000000000000000000000000000000000000000000000000000000000000000000000000000000000000000000000000000000000000000000000000000000000000000000000000000000000000000000000000000000000000000000000000000000000000000000000000000000000000000000000000000000000000000000000000000000000000000000000000000000000000000000000000000000000000000000000000000000000000000000000000000000000000000000000000000000000000000000000000000000000000000000000000000000000000000000000000000000000000000000000000000000000000000000000000000000000000000000000000000000000000000000000000000000000000000000000000000000000000000000000000000000000000000000000000000000000000000000000000000000000000000000000000000000000000000000000000000000000000000000000000000000000000000000000000000000000000000000000000000000000000000000000000000000000000000000000
#092370:0023
#092361:0000001300000000
#092341:000000000000000000000000000000000000000000000000000000000000000000000000000000000000000000000000000000000000000000000000000000000000000000000000000000000000000000000000000000000000000000000000000000000000000000000000000000000000000000000000000000000000000000000000000000000000000000000000000000000000000000000000000000000000000000000000000000000000000000000000000000000000000000000000000000000000000000000000000000000000000000000000000000000000000000000000000000000000000000000000000000000000000000000000000000000000000000000000000000000000000000000000000000000000000000000000000000000000000000000000000000000000000000000000000000000000000000000000000000000000000000000000000000000000000000000000000000000000000000000000005300000000000000000000000000000000000000000000000000000000000000000000000000000000000000000000000000000000000000000000000000000000000000000000000000000000000000000000000000000000000000000000000000000000000000000000000000000000000000000000000000000000000000000000000000000000000000000000000000000000000000000000000000000000000000000000000000000000000000000000000000000000000000000000000000000000000000000000000000000000000000000000000000000000000000000000000000000000000000000000000000000000000000000000000000000000000000000000000000000000000000000000000000000000000000000000000000000000000000000000000000000000000000000000000000000000000000000000000000000000000000000000000000000000000000000000000000000000000000000000000000000000000000000000000000000000000000000000000000000000000000000000000000000000000000000000000000000000000000000000000000000000000000000000000000000000000000000000000000000000000000000000000000000000000000000000000000000000000000000000000000000000000000000000000000000000000000000000000000000000000000000000000000000000000000000000000000000000000000000000000000000000000000000000000000000000000000000000000000000000000000000000000000000000000000000000000000000000000000000000
#092321:0023
#092321:0000000000000014
#092341:000000000000000000000000000000000000000000000000000000000000000000000000000000000000000000000000000000000000000000000000000000000000000000000000000000000000000000000000000000000000000000000000000000000000000000000000000000000000000000000000000000000000000000000000000000000000000000000000000000000000000000000000000000000000000000000000000000000000000000000000000000000000000000000000000000000000000000000000000000000000000000000000000000000000000000000000000000000000000000000000000000000000000000000000000000000000000000000000000000000000000000000000000000000000000000000000000000000000000000000000000000000000000000000000000000000000000000000000000000000000000000000000000000000000000000000000000000000000000000000000000000000000000000000000000000000000000000000000000000000000000000000000000000000000000000000000000000000000000000000000000000000000000000000000000000000000000000000000000000000000000000000000000000000000000000000000000000000000000000000000000000000000000000000000000000000000000000000000000000000000000000000000000000000000000000000000000000000000000000000000000000000000000000000000000000000000000000000000000000000000000000000000000000000000000000000000000000000000000000000000000000000000000000000000000000000000000000000000000000000000000000000000000000000000000000000000000000000000000000000000000000000000000000000000000000000000000000000000000000000000000000000000000000000000000000000000000000000000000000000000000000000000000000000000000000000000000000000000000000000000000000000000000000000000000000000000000000000000000000000000000000000000000000000000000000000000000000000000000000000000000000000000000000000000000000000000000000000000000000000000005400000000000000000000000000000000000000000000000000000000000000000000000000000000000000000000000000000000000000000000000000000000000000000000000000000000000000000000000000000000000000000000000000000000000000000000000000000000000000000000
#093361:24
#092360:0000000000000014
#092380:000000000000000000000000000000000000000000000000000000000000000000000000000000000000000000000000000000000000000000000000000000000000000000000000000000000000000000000000000000000000000000000000000000000000000000000000000000000000000000000000000000000000000000000000000000000000000000000000000000000000000000000000000000000000000000000000000000000000000000000000000000000000000000000000000000000000000000000000000000000000000000000000000000000000000000000000000000000000000000000000000000000000000000000000000000000000000000000000000000000000000000000000000000000000000000000000000000000000000000000000000000000000000000000000000000000000000000000000000000000000000000000000000000000000000000000000000000000000000000000000000000000000000000000000000000000000000000000000000000000000000000000000000000000000000000000000000000000000000000000000000000000000000000000000000000000000000000000000000000000000000000000000000000000000000000000000000000000000000000000000000000000000000000000000000000000000000000000000000000000000000000000000000000000000000000000000000000000000000000000000000000000000000000000000000000000000000000000000000000000000000000000000000000000000000000000000000000000000000000000000000000000000000000000000000000000000000000000000000000000000000000000000000000000000000000000000000000000000000000000000000000000000000000000000000000000000000000000000000000000000000000000000000000000000000000000000000000000000000000000000000000000000000000000000000000000000000000000000000000000000000000000000000000000000000000000000000000000000000000000000000000000000000000000000000000000000000000000000000000000000000000000000000000000000000000000000000000000000000000000000005400000000000000000000000000000000000000000000000000000000000000000000000000000000000000000000000000000000000000000000000000000000000000000000000000000000000000000000000000000000000000000000000000000000000000000000000000000000000000000000
#0933a0:24
#093320:0014000000000000
#093340:000000000000000000000000000000000000000000000000000000000000000000000000000000000000000000000000000000000000000000000000000000000000000000000000000000000000000000000000000000000000000000000000000000000000000000000000000000000000000000000000005400000000000000000000000000000000000000000000000000000000000000000000000000000000000000000000000000000000000000000000000000000000000000000000000000000000000000000000000000000000000000000000000000000000000000000000000000000000000000000000000000000000000000000000000000000000000000000000000000000000000000000000000000000000000000000000000000000000000000000000000000000000000000000000000000000000000000000000000000000000000000000000000000000000000000000000000000000000000000000000000000000000000000000000000000000000000000000000000000000000000000000000000000000000000000000000000000000000000000000000000000000000000000000000000000000000000000000000000000000000000000000000000000000000000000000000000000000000000000000000000000000000000000000000000000000000000000000000000000000000000000000000000000000000000000000000000000000000000000000000000000000000000000000000000000000000000000000000000000000000000000000000000000000000000000000000000000000000000000000000000000000000000000000000000000000000000000000000000000000000000000000000000000000000000000000000000000000000000000000000000000000000000000000000000000000000000000000000000000000000000000000000000000000000000000000000000000000000000000000000000000000000000000000000000000000000000000000000000000000000000000000000000000000000000000000000000000000000000000000000000000000000000000000000000000000000000000000000000000000000000000000000000000000000000000000000000000000000000000000000000000000000000000000000000000000000000000000000000000000000000000000000000000000000000000000000000000000000000000000000000000000000000000000000000000000000000000000000000000000000000000000000000000000000000000000000000000000000000000000000
#093360:00240000
#093361:0014000000000000
#093381:000000000000000000000000000000000000000000000000000000000000000000000000000000000000000000000000000000000000000000000000000000000000000000000000000000000000000000000000000000000000000000000000000000000000000000000000000000000000000000000000005400000000000000000000000000000000000000000000000000000000000000000000000000000000000000000000000000000000000000000000000000000000000000000000000000000000000000000000000000000000000000000000000000000000000000000000000000000000000000000000000000000000000000000000000000000000000000000000000000000000000000000000000000000000000000000000000000000000000000000000000000000000000000000000000000000000000000000000000000000000000000000000000000000000000000000000000000000000000000000000000000000000000000000000000000000000000000000000000000000000000000000000000000000000000000000000000000000000000000000000000000000000000000000000000000000000000000000000000000000000000000000000000000000000000000000000000000000000000000000000000000000000000000000000000000000000000000000000000000000000000000000000000000000000000000000000000000000000000000000000000000000000000000000000000000000000000000000000000000000000000000000000000000000000000000000000000000000000000000000000000000000000000000000000000000000000000000000000000000000000000000000000000000000000000000000000000000000000000000000000000000000000000000000000000000000000000000000000000000000000000000000000000000000000000000000000000000000000000000000000000000000000000000000000000000000000000000000000000000000000000000000000000000000000000000000000000000000000000000000000000000000000000000000000000000000000000000000000000000000000000000000000000000000000000000000000000000000000000000000000000000000000000000000000000000000000000000000000000000000000000000000000000000000000000000000000000000000000000000000000000000000000000000000000000000000000000000000000000000000000000000000000000000000000000000000000000000000000000000000000
#0933a1:00240000
#093321:0000001400000000
#093341:000000000000000000000000000000000000000000000000000000000000000000000000000000000000000000000000000000000000000000000000000000000000000000000000000000000000000000000000000000000000000000000000000000000000000000000000000000000000000000000000000000000000000000000000000000000000000000000000000000000000000000000000000000000000000000000000000000000000000000000000000000000000000000000000000000000000000000000000000000000000000000000000000000000000000000000000000000000000000000000000000000000000000000000000000000000000000000000000000000000000000000000000000000000000000000000000000000000000000000000000000000000000000000000000000000000000000000000000000000000000000000000000000000000000000000000000000000000000000000000000005400000000000000000000000000000000000000000000000000000000000000000000000000000000000000000000000000000000000000000000000000000000000000000000000000000000000000000000000000000000000000000000000000000000000000000000000000000000000000000000000000000000000000000000000000000000000000000000000000000000000000000000000000000000000000000000000000000000000000000000000000000000000000000000000000000000000000000000000000000000000000000000000000000000000000000000000000000000000000000000000000000000000000000000000000000000000000000000000000000000000000000000000000000000000000000000000000000000000000000000000000000000000000000000000000000000000000000000000000000000000000000000000000000000000000000000000000000000000000000000000000000000000000000000000000000000000000000000000000000000000000000000000000000000000000000000000000000000000000000000000000000000000000000000000000000000000000000000000000000000000000000000000000000000000000000000000000000000000000000000000000000000000000000000000000000000000000000000000000000000000000000000000000000000000000000000000000000000000000000000000000000000000000000000000000000000000000000000000000000000000000000000000000000000000000000000000000000000000000000000
#093361:0024
#093360:0000001400000000
#093380:000000000000000000000000000000000000000000000000000000000000000000000000000000000000000000000000000000000000000000000000000000000000000000000000000000000000000000000000000000000000000000000000000000000000000000000000000000000000000000000000000000000000000000000000000000000000000000000000000000000000000000000000000000000000000000000000000000000000000000000000000000000000000000000000000000000000000000000000000000000000000000000000000000000000000000000000000000000000000000000000000000000000000000000000000000000000000000000000000000000000000000000000000000000000000000000000000000000000000000000000000000000000000000000000000000000000000000000000000000000000000000000000000000000000000000000000000000000000000000000000005400000000000000000000000000000000000000000000000000000000000000000000000000000000000000000000000000000000000000000000000000000000000000000000000000000000000000000000000000000000000000000000000000000000000000000000000000000000000000000000000000000000000000000000000000000000000000000000000000000000000000000000000000000000000000000000000000000000000000000000000000000000000000000000000000000000000000000000000000000000000000000000000000000000000000000000000000000000000000000000000000000000000000000000000000000000000000000000000000000000000000000000000000000000000000000000000000000000000000000000000000000000000000000000000000000000000000000000000000000000000000000000000000000000000000000000000000000000000000000000000000000000000000000000000000000000000000000000000000000000000000000000000000000000000000000000000000000000000000000000000000000000000000000000000000000000000000000000000000000000000000000000000000000000000000000000000000000000000000000000000000000000000000000000000000000000000000000000000000000000000000000000000000000000000000000000000000000000000000000000000000000000000000000000000000000000000000000000000000000000000000000000000000000000000000000000000000000000000000000000
#0933a0:0024
#093360:0000000000000013
#0943b0:23
#094320:0013000000000000
#094370:00230000
#094360:0000001300000000
#0943b0:0023
#094320:0000000000130000
#094370:00000023
#094360:0000000000000013
#0953b0:23
#095320:0014000000000000
#095370:00240000
#095350:0000001400000000
#0953a0:0024
#095320:0000000000150000
#095370:00000025
#095340:0000000000000015
#096390:25
