This file was generated by Ched 2.7.0.0.
#TITLE ""
#ARTIST ""
#DESIGNER ""
#DIFFICULTY 0
#PLAYLEVEL
#SONGID ""
#WAVE ""
#WAVEOFFSET 0
#JACKET ""
#REQUEST "ticks_per_beat 480"
#00002: 4
#BPM01: 186
#00008: 01
#TIL00: ""
#HISPEED 00
#MEASUREHS 00
#00114:1414
#00118:00140014
#00212:1414
#0021a:00140000
#0031a:14
#00314:00140000
#00318:0014
#00312:00000014
#00418:14
#00414:00140000
#00512:14
#00518:00140000
#00514:0014
#0051a:00000014
#00614:14
#00618:00140000
#00718:14
#00714:00140000
#0071a:0014
#00712:00000014
#0081a:14
#00814:00140000
#00914:14
#00918:00140000
#00912:0014
#0091a:00000014
#01012:14
#01018:00140000
#0111a:14
#01114:0014
#01110:41
#01218:14140000
#01214:0014
#0131a:14140000
#01314:00001414
#01512:14
#01518:0014
#01614:14140000
#01618:0014
#01712:14140000
#01718:00001414
#0191a:14
#01912:0014
#01914:14
#01918:0014
#0201a:14
#02018:00140000
#02014:0014
#02012:00000014
#0211a:14140000
#02114:00001414
#02312:14
#0231a:0014
#02318:14
#02314:0014
#02412:14
#02414:00140000
#02418:0014
#0241a:00000014
#02512:14140000
#02518:00001414
#03312:14
#0331a:0014
#03712:14
#03718:00140000
#03714:0014
#0381a:14
#03818:00140000
#03816:0014
#03814:00000014
#0411a:14
#04114:00140000
#04118:0014
#04212:14
#04218:00140000
#04214:0014
#0421a:00000014
#0441a:14
#04414:14
#04412:0014
#04418:0014
#0451a:1414
#04514:00140000
#04612:14
#04616:00140014
#0461a:0014
#04812:14
#04818:14
#0481a:0014
#04814:0014
#04810:41
#04912:1414
#04918:00140000
#0501a:14
#05016:00140014
#05012:0014
#0531a:14
#05312:0014
#05418:1414
#05414:00140014
#0551a:14
#05512:0014
#05618:1414
#05614:00140014
#05718:14
#05812:14
#05818:00140000
#05813:0014
#05819:00000014
#05914:14
#0591a:00140000
#05912:00001414
#0621a:14
#06214:00140000
#06219:0014
#06213:00000014
#06210:41
#06318:14
#06312:00140000
#0631a:00001414
#07014:14
#07018:0014
#07218:1414
#07214:00140014
#0731a:1414
#07312:00140014
#0751a:14
#07612:14
#0781a:14
#07814:00140000
#07818:0014
#07810:41
#08212:14
#08218:00140000
#08214:0014
#0831a:14
#08314:00140000
#08318:0014
#08312:00000014
#08512:14
#08518:14
#0851a:0014
#08514:0014
#08612:1414
#08618:00140000
#0871a:14
#08716:00140014
#08712:0014
#0891a:14
#08914:14
#08912:0014
#08918:0014
#0901a:1414
#09014:00140000
#09112:14
#09116:00140014
#0911a:0014
#07912:14
#07914:00140000
#07916:0014
#07918:00000014
#0961a:00140000
#09614:0014
#0681f:11
#06818:26
#06812:0026
#03414:2424
#03418:00240000
#03518:2626
#03512:00260000
#03614:24
#03618:0024
#03610:41
#04018:24
#04014:0024
#06918:2626
#06912:00260000
#07418:26
#07412:0026
#07718:24
#07714:0024
#0771f:21
#08114:24
#08118:0024
#02710:41
#00252:0014
#03654:14
#03658:0014
#04058:14
#04054:0014
#06958:0016
#0755a:54
#07558:0014
#07652:64
#07654:00000014
#07758:14
#07754:0014
#08154:14
#08158:0014
#0043a0:00001424
#006320:00001424
#008380:00001424
#010340:00001424
#014380:14
#0143a0:00342400
#018340:14
#018320:00342400
#022380:14
#0223a0:00342400
#026340:14
#026320:00342400
#0273a0:14
#027380:0034
#0283a0:34
#028380:0024
#029320:14
#029340:0034
#030320:34
#030340:0024
#031380:14
#0313a0:0034
#032380:34
#0323a0:0024
#039320:1434343400002400
#043320:14
#043340:00342400
#047320:1424
#047330:00340000
#0513a0:1424
#051390:00340000
#052320:1424
#052330:00340000
#0603a0:14
#060380:00240000
#060320:0014
#060340:00000024
#0613a0:14
#061380:00240000
#061320:0014
#061340:00000024
#064320:14
#064340:00240000
#0643a0:0014
#064380:00000024
#065320:14
#065340:00240000
#0653a0:0014
#065380:00000024
#066350:1300333333330023
#071320:1434343400002400
#0713a1:1434343400002400
#0753a1:14
#075381:0024
#076321:14
#076341:00003424
#0803a1:1434343400002400
#0843a1:14
#084381:00342400
#0883a1:1424
#088391:00340000
#092321:1424
#092331:00340000
#0933a1:1424
#093391:00340000
#094321:1434
#094331:00340034
#095321:3434
#095331:00340034
#096321:24
