This file was generated by Ched 2.7.0.0.
#TITLE ""
#ARTIST ""
#DESIGNER ""
#DIFFICULTY 0
#PLAYLEVEL
#SONGID ""
#WAVE ""
#WAVEOFFSET 0
#JACKET ""
#REQUEST "ticks_per_beat 480"
#00002: 4
#BPM01: 122
#00008: 01
#TIL00: ""
#HISPEED 00
#MEASUREHS 00
#00019:14
#00013:00000014
#00119:0014
#00213:00140000
#0091a:00140000
#00910:00410000
#01014:00140000
#01118:00140000
#01212:00140000
#0161a:00140000
#01714:00140000
#01818:00140000
#01912:00140000
#02918:00000014
#02910:41
#03712:0000000000000014
#03818:0000000000140000
#03914:0000001400000000
#0401a:0014000000000000
#04118:0000000000160000
#04112:0026000000000000
#0411f:0021000000000000
#04212:0016000000000000
#04218:0000000000160000
#04210:0041000000000000
#04512:0016000000000000
#04518:0000000000160000
#04612:0016000000000000
#04618:0000000000160000
#04712:0016000000000000
#04718:0000000000160000
#04912:0000000000160000
#04918:0026000000000000
#05018:0016000000000000
#05012:0000000000160000
#05318:0016000000000000
#05312:0000000000160000
#05418:0016000000000000
#05412:0000000000160000
#05518:0016000000000000
#05512:0000000000160000
#05712:0026000000160000
#05718:0000001600000000
#05710:0041000000000000
#05818:0016000000160000
#05812:0000001600000000
#06112:0016000000160000
#06118:0000001600000000
#06218:0016000000160000
#06212:0000001600000000
#06618:0014000000000000
#0331f:11
#06812:0000003400000000
#06712:0000000000340000
#02010:41
#06510:0041000000000000
#0033a0:14000024
#004340:0014
#005340:00240000
#006380:14000024
#007320:0014
#008320:00240000
#013380:14000024
#014340:0014
#015340:00240000
#020380:14000024
#021340:0014
#022340:00240000
#023390:0015
#024370:0025000000000000
#024340:0000000000000015
#025320:0025
#026390:00150000
#026370:0000000000000025
#027320:0000000000150000
#028320:00350000
#029320:25
#030340:00000000000000001434343400003434
#031340:34340000343434240000000000000000
#0333a0:1400000000240000
#033341:1400000000240000
#034321:0000001400000000
#035321:24
#034380:0000001400000000
#035380:24
#0353a0:00000014
#0363a0:0000003400000000
#0373a0:0024000000000000
#035341:00000014
#036341:0000003400000000
#037341:0024000000000000
#043321:0016000000260000
#044381:0016000000260000
#048321:0016000000260000
#051381:0016000000260000
#052321:0016000000260000
#056381:0016000000260000
#059321:0016003600260000
#060381:0016003600260000
#063321:0016002600000000
#063381:0000000000160026
#064321:0016003600360036
#065321:0026000000000000
#066341:0000000000000014
#067321:0000000000340000
#068321:0000003400000000
#069321:0024000000000000
#070381:0014000000000000
#070391:0000000000000034
#0713a1:00000000000000000000343434340000
#0723a1:34343434000034343424000000000000
#072341:00000000000000000000000014343434
#073341:34343434343434240000000000000000
