This file was generated by Ched 2.7.0.0.
#TITLE ""
#ARTIST ""
#DESIGNER ""
#DIFFICULTY 0
#PLAYLEVEL
#SONGID ""
#WAVE ""
#WAVEOFFSET 0
#JACKET ""
#REQUEST "ticks_per_beat 480"
#00002: 4
#BPM01: 122
#00008: 01
#TIL00: ""
#HISPEED 00
#MEASUREHS 00
#00312:00001300000000000013000000000000
#00318:13000013000000130000000000001300
#0031b:00130000001300000000001300000000
#00315:00000000130013000000000013130013
#00317:00000000000000000013000000000000
#0041b:13000000001300000000130000000000
#00412:00130000000000000013000000130000
#00415:00001300000000001300001300000013
#00418:00000013000000000000000013001300
#00416:00000000001300000000000000000000
#00612:13000000130000000013000000000000
#00618:00130000000013000000000000001300
#00615:00001300001300000000000013130013
#0061b:00000013000000130000001300000000
#00617:00000000000000000013000000000000
#0071b:13000013000000001300000013000000
#00718:00130000000000000000130000130000
#00715:00001300000000000013000000001300
#00712:00000000001300000000001300000013
#00717:00000000001300000000000000000000
#00812:00000013000000001300001300000013
#0081b:00130000000000000000000000130000
#00818:00000000131300130000130000000000
#00815:00000000000013000013000000000000
#00816:00130000000000000000000000130000
#00817:00000000000000000000000000000013
#00915:00130000000000000012120012120000
#0091a:00001212001200000000000000000000
#00916:00000000120000000000000000000013
#00912:00000000000000120000000000000000
#00918:00000000000000120000001200000000
#0091c:00000000000000000000000000000012
#00910:00410000
#01017:00130000120000000000000000000013
#01012:00120000000000000000000000000000
#01015:00000012000000000000000000000000
#01019:00000000001200000000000000000000
#01014:00000000000000120012000000000000
#01018:0012
#0101a:0000000000121200
#01016:00000000000000000000001200000000
#01116:00130000000000000012000000001200
#0111c:00120000000000000000000000000000
#01113:00000012000000000000000000000000
#01117:00120012
#01114:00000000001200000000000000000000
#01118:0000001200000000
#01115:00000000000000120000000000000000
#01119:00000000000000001200000000000012
#0111b:00000000000000000000001200000000
#0111a:00000000000000000000000000120000
#01217:00000000000000000000000000130000
#01216:00000000000000120000000000000013
#01218:00120000120000000000000000000000
#01215:12
#01212:00000012000000000000000000000000
#01214:00000000001200000012000000000000
#0121a:0000001200120000
#0121c:00000000000000001200000000000012
#01516:00000013130000000000000000000013
#01512:00130000000033001300000000130000
#01517:00130000000013130000000000130000
#0151b:00000013000000000000001300000013
#01518:00000000000000000013000000000000
#01515:0000000000130000
#01612:00130000000000140000000000000000
#0161a:00001200000000000000001200000000
#01618:00000012000000121200000012000000
#01616:00000000120000000012000000120014
#0161c:00000000001200000000000000000012
#01614:0000000000120000
#02318:00000016001300000000000000000000
#02312:00150000001600000000000000000000
#02317:00130000000000000000000013000000
#02315:00000013000000000000000000000000
#02316:00000000000000000000000000000013
#0231b:00000000000033330000130000000000
#0241b:13000013
#02414:00130000001300000000000000000000
#02419:0013001300000000
#02412:00000013000000000000000000000000
#02417:00130000
#02416:00000000000000130000000000130000
#0261b:0000001313001300
#02616:00000000000000130000000000130000
#02612:00001300000000000013001300000000
#02617:00000013000000000000130000000000
#02715:00000000000000000033001300131300
#02718:0000000000000000000000000000000000000000000000001300001300001300
#0271b:00000000000000330000130000000000
#02812:1300130000130000
#02815:00130000001300131300001300001300
#02818:0000000013000000000000001300001300001300000000001300000000001300
#0281b:00000013000000000000000000130000
#0291b:13
#02912:13000013
#02917:0000001300000000
#02910:41
#03012:00000000000000000000001300001300
#03018:00000000000000000013000000000000
#03015:00000000000000000000130000000013
#0301b:00000000000000001300001300000000
#03016:0013000000000000
#03118:13000000001300000000001300000000
#0311b:00130000130000130000000000000000
#03115:00000000000013000000000000000023
#03112:00130000000000130023000000000000
#03117:00000000000000000013000000000000
#03119:00000000000000000000000000130000
#0311a:00000000000000000000000000000013
#03113:00000000000000000000002300000000
#03114:00000000000000000000000000230000
#0321b:00130000000000000000000000000000
#03212:00000013000000000000000000000000
#03214:0000000000000000000014000014000000000000000000000000000000000000
#03218:0000000000000000000024000024000000000000000000000000000000001300
#03216:00230000000000000000000000000000
#03217:00000023000000000000000000000000
#03315:00000000130000130000003300000013
#03318:00000000001300001300000000000000
#03312:00330000000013000000000000001300
#0331b:00000033000000000013000000330000
#0331f:11
#03418:00000000130000000000130000130000
#03415:00000033001300000000001300001300
#0341b:00330000000000330000000013000000
#03412:00000000000000000033000000000013
#03718:00330013130000000013000013000013
#03715:0000000000000013000013000000000013000000000013000000000000000013
#0371b:00000000000013000000000000130000
#03712:00001300000000130000130000001300
#04012:0000000013000000000023000000000013000000000023000000000000333333
#04015:00000013000000000013000000000000
#04018:1400130000130000
#0401b:00130000002300000000002300001300
#0411b:00002300001300000000130000001300
#04116:00000000001300000000130000001300
#04112:0013000000001300
#04117:00000013
#0411f:0021000000000000
#04118:0033333300000000000000000000000000000000000000000000000000000000
#04218:1313000000000000
#04217:00000000001300000000130000000000
#0421b:00000000000000001300000000130000
#04212:0000130000130000
#04215:00130000000000000000000000000000
#04216:00000000000000130000000000000000
#04210:0041000000000000
#04316:0013000013130000
#04312:13000000001300000000000000000000
#04317:00000000001300000000000000001300
#0431b:0013000000130000
#04419:13
#0441b:00001300000000000000000013130000
#04412:00000000001300000000130000000000
#04416:00001333
#04417:00000000001300000000130000000000
#04517:13000000001300000000130000001300
#04512:13002300001300000000130000001300
#0451b:0013000000001300
#04516:00000013
#04716:0013000013003300
#04712:00000000131300000000130000000000
#0471b:13001300000000001300000013130000
#04717:0000330000130000
#0481b:00001300000000000013000000000000
#04815:00130000
#04818:00000000001300000000000000000000
#04812:1300000000000000000000000000130000000000000000000013000000000000
#04816:00001300000000000013000000000000
#04817:1300000000000000000000000000130000000000000000000013000000000000
#04916:00000000001300000000130000001300
#04912:0013000000001300
#0491b:00000000132300000000000000000000
#04917:00002300000000132300000000000000
#05016:13001300000000000000000000000023
#0501b:00130000000000132300130000000000
#05017:00000000132300000000000000130000
#05012:00000000001300000000000023000000
#0511b:13000000001300000000130000001300
#05117:00001313
#05116:00000000131300000000130000000000
#05112:00002300000000131300000013000000
#05115:00000000000000000000000000000013
#05218:1300000000000013
#05217:0013000013000000
#0521b:00000000001300000000000013000000
#05215:00000000000000000000000000130000
#05212:00130000000000230000000000000013
#05216:0000230000230000
#06312:0000130000130000
#06314:00000000001300000000000000000000
#0631b:00001300000000131300000013000000
#06316:003333000000000000000000130000000000330000000000
#06319:00000000000000000000000000130000
#06317:0000330000130000
#06315:00000000000000000000000000000013
#06415:13
#0641b:0000000013000000000000000000000000000000000000000013000000000000
#06412:00002300131300000013000000000000
#06417:00000000001300000013000000000000
#06418:00130000000000000000000000000000
#06416:0000000000000000000000000000000000000000000000000013000000000000
#07116:14000000000000001400001414000000
#07112:000034003400000014000000000000000000000000000000000000000000140000000000000000240000000000000000
#07119:000000000014000000000000000000000000000000000000
#07113:00140000
#07118:000000000000001400000000000000000000000000000000
#07114:001400
#0711a:000000000000240000000000000000000000140034003400000034003400000000000000000000240000000000000000
#06912:000013000000000000230000130000000000130000000000
#06915:00000000000000000013000000130000
#06918:0000000000130013
#0691b:00000000130000000000001300000013
#06914:13
#06917:001300133333003333000000000000000000000000000000
#07012:140000001400000000000000000000240000000000143434
#07016:00140000000000001400000000000000
#07019:000000000014000000000000000000000000140000000000
#07013:000000000000140000000000000000000014000000000000
#07018:000000000000001400000000000000000000000014000000
#07014:000000000000000014000000000000000000001400000000
#0701a:000000240000000000143434003434001400000000000000
#00018:13
#0001b:0000001300000000
#00015:13000013
#00012:00131300
#00112:0013000000001300
#0011b:1300130000000013
#00118:0013
#00212:1300000000130000
#00215:00130000
#0021b:00001313
#0051b:00130000000000000013000000000013
#00512:00000013000000001300000000130000
#00518:00000000131300130000130000000000
#00515:00000000000013000000001300000000
#00517:00000000000000000000000000130000
#00516:00130000000000000000000000000000
#01312:00001313001300000000001300000000
#0131b:13000000000000000013000000003300
#01315:0000001300000000
#01318:00000000130000130000000000000000
#01316:00000000000000000013000000001313
#01317:00003300000000000000001313000000
#01415:00130000000000000000000013000013
#01418:0013000000000013
#01412:00000013000000001300000000000000
#0141b:13000000001300000000131300130000
#01416:00000000001300000000330000000000
#01716:00140000000000000000000000000000
#01712:00120000000000000000000000000000
#01714:00000012000000120000000000000000
#01717:0000121200000000
#0171a:00000000001200000000001212001200
#01718:00000000000000001200000000000012
#01816:12000000000000000012000000000000
#01814:00120000000000000000000000000000
#01912:00000000000000000000000000000016
#01918:00120000000000000000000000000000
#02216:00130000000013130014000000000013
#0221a:00000000000000001400001400000000
#02212:00000013000000000000140000140000
#02217:00000013130000000000000000130000
#02219:00000000000000000000000000000015
#0221b:00130000000033000000000000000000
#0201b:00001313000000000000001300000000
#02012:13000000140000140013000000003300
#0201a:00000000001400000000000000000000
#02016:00003300000014000000001313000000
#02017:00000000000000000013000000001313
#02010:41
#02116:00140014000000000000000000001400
#0211a:00001400000000000000000014000014
#02112:14000000001400000000131300140000
#02117:00000000001300000000330000000000
#0211b:0013
#05716:003333001300000000000000130000000000000013000000
#05719:000000000013000000130000001300000013000000000000
#05714:000000130013001300130000
#05717:000000000000001300000000000000230000000000003333
#05712:001313
#0571b:000000230000000000000013000000000000001300000000
#05710:0041000000000000
#05916:003333001300000000000000000000000000000000000000
#0591b:000000230013000000003333000000000000001300000000
#05912:000000131300000013000000
#05917:000000000000001300000000000000000000000000000000
#05918:000000000000000000000000000000230013000000003333
#05915:000000000000000000000000003333000000130013000000
#06115:130013000013000013000000
#06118:000000230013000000130013000000230013000000000000
#06112:000000130000000000000000130000001300000000000000130000001300000000000000130000001300000000000000
#0611b:000000000000001300000000001300000000001300000000
#06212:001300130013
#06219:000000000013000000130000001300000013000000000000
#06214:000000130013001300130000
#0621b:000000000000001300000000000000230000000000000000
#06216:001313
#06217:000000230000000000000013000000000000001300003333
#05318:13
#05315:00130000000000000000000000000000
#05317:00000000001300000000130000001300
#0531b:0013000000001300
#05316:00000000000000132300000000000000
#05312:00000000132300000000000000000000
#05618:0000130000130000
#05615:00000000001300000000001300000000
#05612:00001300000000000013000000130000
#0561b:130000000000000000000000000000000000000000130000000000000000000000000000130000000000000033003300
#05616:13000000000000130000000000000000
#05617:0013000000000000
#02516:0013000000130000
#02512:1300001300000000
#02519:00000000000000130000001300000000
#02514:00001313
#0251b:00000000000000000013000000000000
#02517:00000000001300000000000000130000
#0351b:00130000
#03518:00330000001300000033001300000000
#03515:0000000000130000
#03512:00000033000000330000000000000000
#03612:13001300000000000000000000000033
#03617:00130000000000000000000000000000
#0361b:00000013001300000000000000000000
#03616:00130000
#03818:13000000001300001300001212001400
#03814:00000000000000000000000000140000
#03812:00000013000013000000140000000014
#03816:0000000000000000000000000000000000000000000000120000000000000000
#03815:00130000130000130000000000000000
#0381b:00001300000000000013000000000000
#03916:1400000000000000000000000000001200000000000000001400000000000000
#0391a:00140000000000000000000000140000
#03912:00001600000014000000001400001600
#03915:00000015000000000000000000000015
#03918:00000000140000121200140000000000
#0391b:00000000001300000000000000000000
#03914:00000000000000000014000000000000
#04615:1313000000000000
#04616:00000000001300000000130000000000
#04612:00000000000000001300000000130000
#0461b:0000130000130000
#04618:00130000000000000000000000000000
#04617:00000000000000130000000000000000
#05417:13001300000000000000000000000023
#05412:00130000000000132300130000000000
#05416:00000000132300000000000000130000
#0541b:00000000001300000000000023000000
#05512:13000000131300000000130000000000
#0551b:00001300000000001300000013130000
#05516:00001333
#05517:0000330000130000
#06018:000000000000001300000000001300130000000000130000
#0601b:00000000000000000000001300000013
#06015:000013000013000000130000
#06012:000033003300000000000000000000000000000000000000000000000000000000000000000000130000000000000000
#06019:000000000013000000000013000000000000000000000000
#06014:00131300
#06013:000000001300001300000000
#0601a:0023001300000000
#06518:0013000000000000
#06510:0041000000000000
#07216:00141400000000141400000014000024
#07212:14000024000014000024000000140000
#0721a:14000024000014000024000000001400
#07317:14
#07318:0014000000000000
#07319:00140000
#0731a:0000001400000000
#07315:00240000000000000000000000000000
#07314:00000024000000000000000000000000
#07313:00000000002400000000000000000000
#07312:00000000000000240000000000000000
#05816:003333001300000000000000130000000000000013000000
#05819:000000000013000000130000001300000013000000000000
#05814:000000130013001300130000
#05817:000000000000001300000000000000230000000000003333
#05812:001313
#0581b:000000230000000000000013000000000000001300000000
#06616:000000000000000000000013
#06619:000000000000000000000000000000000000000000000013
#0661b:0000000000000023
#06714:130000000000000000000013000000000000000000000000
#06717:001300133333003333001300000000000000000000000000
#06712:000013000000000000230000000000000000130000000000
#0671b:000000000000130000000000000013000000000000230000
#06719:000000000000000000000000130000000000000000000013
#06716:000000000000000000000000001300133333003333001300
#06814:130000000000000000000013000000000000000000000000
#06817:001300133333003333001300000000000000000000000000
#06812:000013000000000000230000000000000000130000000000
#0681b:000000000000130000000000000013000000000000230000
#06819:000000000000000000000000130000000000000000000013
#06816:000000000000000000000000001300133333003333001300
#00458:00000013000000000000000000000000
#0045b:00000000001300000000000000000000
#0075b:00000013000000000000000000000000
#00752:00000000001300000000000000000000
#00852:00000000000000000000001300000013
#0085b:00000000000000000000000000130000
#00955:00130000000000000000000000000000
#01652:00130000000000000000000000000000
#02358:00000016006300000000000000000000
#02352:00150000001600000000000000000000
#0295b:53
#02957:0000002300000000
#02952:00000063
#0415b:00001300006300000000000000000000
#04156:00000000006300000000000000000000
#04152:0063000000000000
#04258:0013000000000000
#04257:00000000001300000000000000000000
#0425b:00000000000000001300000000630000
#04252:0000000000630000
#04356:0000000000130000
#04352:13
#0435b:0063000000130000
#04357:00000000006300000000000000000000
#0445b:0053000000000000
#04457:00000000005300000000000000000000
#04452:0000000000530000
#04456:00000000000000000000000000130000
#04856:00000000000000000053000000000000
#04852:0000000000000000000000000000000000000000000000000023000000000000
#0485b:00000000000000000053000000000000
#04857:0000000000000000000000000000000000000000000000000023000000000000
#04956:00000000005300000000130000001300
#04952:0053000000001300
#04957:0013000000000000
#0505b:0000000000530000
#05057:00000000000000000000000000530000
#05052:00000000006300000000000000000000
#05056:0063000000000000
#0515b:53000000001300000000000000000000
#05157:0013
#05257:0023000023000000
#0525b:00000000002300000000000000000000
#0645b:0000000053000000000000000000000000000000000000000023000000000000
#06452:00000000002300000053000000000000
#06457:00000000002300000053000000000000
#06456:0000000000000000000000000000000000000000000000000023000000000000
#00058:53
#0005b:0000002300000000
#00055:00000063
#00152:0023000000000000
#00158:0053
#0015b:0000000000000023
#00255:00630000
#00252:0000000000230000
#00555:00000000000000000000001300000000
#00552:00000000000000000000000000130000
#0055b:00000000000000000000000000000013
#0135b:53
#01357:00000053
#01452:00000013000000006300000000000000
#0145b:00000000001300000000000000000000
#01556:00630000
#0155b:00000000000000000000001300000013
#01552:00000000000000000000000000130000
#02052:63
#02056:00000063
#02156:00000014000000000000000000000000
#02152:00000000001400000000000000000000
#0215b:0053
#0225a:00000000000000000000001400000000
#02252:00000000000000000000000000140000
#02259:00000000000000000000000000000015
#02257:00530000
#03056:0023000000000000
#04552:00001300005300000000000000000000
#04557:00000000005300000000000000000000
#0455b:0053000000000000
#04655:0013000000000000
#04656:00000000001300000000000000000000
#04652:00000000000000001300000000530000
#0465b:0000000000530000
#0475b:1353000000000000
#04752:0000000000630000
#04757:00000000001300000000000000000000
#04756:00000000000000000000000000130000
#05357:00000000006300000000130000001300
#0535b:0063000000001300
#05452:0000000000630000
#05456:00000000000000000000000000630000
#0545b:00000000005300000000000000000000
#05457:0053000000000000
#05552:63000000001300000000230000000000
#0555b:00002300000000000000000000130000
#06058:0000000000530053
#0605b:00000000000000000000002300000023
#06055:00000053
#06052:00000000000000000000000000230000
#06155:53
#06152:00230000000000000000000000000000
#0635b:0053000000000000
#06352:0000000000630000
#06357:00000000001300000000000000000000
#06356:00000000000000000000000000130000
#06757:0053000000000000
#0675b:00230000
#06756:0000000000630000
#06752:00000023
#06857:0053000000000000
#0685b:00230000
#06856:0000000000630000
#06852:00000023
#06957:0053000000000000
#0695b:00230000
#07056:0024
#0705a:0000005400000000
#07052:0000000000000064
#07156:2424
#0715a:0000005400000000
#07256:00000000000000000000000000000034
#07355:00340000000000000000000000000000
#07354:00000034000000000000000000000000
#07353:00000000003400000000000000000000
#07352:00000000000000340000000000000000
#000380:13000023
#0003b0:0000005300000000
#000351:00000013
#001321:0053000000000000
#001351:0023
#001380:0013
#0013b0:0000000000000053
#002380:00230000
#002351:00130000
#002321:0000000000530000
#003351:23
#010321:0000000000000000000000000000000000000000000000000000125252522200
#010331:00000000000000000000000000000000000000000000000000000000000000000000000000000000000000000000000000000000005200520052005200000000
#012321:00000000000000000000001200220000
#0133b1:13
#013371:00003323000000000000000000000000
#013371:00000013
#0133b1:00000000000000000000000000003323
#014321:0013
#014361:00000000000000000000332300000000
#015361:00130000
#015321:00000000000033230000000000000000
#017341:00000000000000000012002200000000
#018321:00000012220000000000000000000000
#018380:00000000122200000000000000000000
#018341:00000000001222000000000000000000
#0183a0:00000000000012220000000000000000
#018361:00000000000000122200000000000000
#0183c0:00000000000000001222000000000000
#0183c0:00000000000000000000001222000000
#018361:00000000000000000000000012220000
#0183a0:00000000000000000000000000122200
#018341:00000000000000000000000000001222
#018380:00000000000000000000000000000012
#019380:22
#019321:12220000000000000000000000000000
#019361:00000012220000000000000000000000
#019380:00000000122200000000000000000000
#019351:00000000001323000000000000000000
#019380:00000000000013230000000000000000
#019341:00000000000000142400000000000000
#019380:00000000000000001424000000000000
#019331:00000000000000000015250000000000
#019380:00000000000000000000152500000000
#019321:00000000000000000000001626000000
#019380:00000000000000000000000016260000
#019321:00000000000000000000000000162600
#019380:00000000000000000000000000001626
#020320:13
#020360:00003323000000000000000000000000
#020360:00000013
#020320:00000000000000000000000000003323
#0213b0:0013
#021370:00000000000000000000332300000000
#022370:00130000
#0223b0:00000000000033230000000000000000
#023380:00000000001300000000000000000000
#0233b0:00000000000033332300000000000000
#023321:00001323
#023341:00000000000000000033003300000000
#023361:0000000000330000
#023371:00000000000000000000000000130000
#023391:0000000000000033
#0233b1:00000000000000000000000000000023
#0243b1:0013
#024391:00000000000000000033000000000000
#024371:0000000000230000
#024320:0000000000130000
#024340:00000000000000000000003300000000
#024360:00000023
#0243b0:0000000000000013
#024390:00000000000000000000000000000033
#025370:33
#025390:00330000000000000000000000000000
#0253b0:0023000000000000
#025360:00000013000000000000000000000000
#025340:00330000
#025320:00000000002300000000000000000000
#025320:0000000000000013
#025340:00000000000000000000000000000033
#026360:23
#0263b1:13
#026391:00330000000000000000000000000000
#026371:0023000000000000
#026321:00130000
#026341:00000000003300000000000000000000
#026361:0000002300000000
#0263b1:00000000000000000000000000001323
#026350:00000000000000000000000000000013
#027350:23
#027381:13230000000000000000000000000000
#027320:00132300000000000000000000000000
#0273b1:00001323000000000000000000000000
#027350:00000013230000000000000000000000
#027381:00000000132300000000000000000000
#027320:00000000001323000000000000000000
#0273b1:00000000000013330000000000000000
#027381:0023
#027350:00000000000000001333000000000000
#027320:0000000000230000
#0293b0:13000023
#029370:0000005300000000
#029321:0000000000000000135353532300000000000000000000000000000000000000
#029331:00000000000000000000000000000000005300530053005300000000000000000000000000000000000000000000000000000000000000000000000000000000
#029321:00000013
#030361:0053000000000000
#030321:0023
#0303b0:13332300000000000000000000000000
#0303a0:0033003300000000000000000000000000000000000000000000000000000000
#032321:0000000000000000000000000000000000001434343434343434343424000000
#032331:00000000000000000000000000000000000000000000000000000000000000000000000000550054005500540055005400550054005500540000000000000000
#0323a0:0000000000000000000000000000000000001434343434343434343424000000
#032390:00000000000000000000000000000000000000000000000000000000000000000000000000540000005400000054000000540000005400000000000000000000
#032380:00000000000000000000000000000000000000000000000000000000000000000000000000000055000000550000005500000055000000550000000000000000
#033350:13
#033320:00332300000000000000000000000000
#0333b1:00001333000000000000000000000000
#033381:00230000
#033321:0000000000130000
#033351:00000000000000000000003323000000
#033380:00000013
#0333b0:00000000000000000000000000332300
#0343b0:13330000000000000000000000000000
#034380:0023000000000000
#034351:00001333000000000000000000000000
#034321:00230000
#034381:0000001300000000
#0343b1:00000000000000332300000000000000
#034320:00000000000000001333000000000000
#034350:0000000000230000
#0353b0:13
#035380:00332300000000000000000000000000
#035351:0013000000000000
#035321:00000033230000000000000000000000
#035321:00000000000013330000000000000000
#035351:0023
#035380:00000000000000001333000000000000
#0353b0:0000000000230000
#035320:00000013
#035340:00000000000000000000000000330000
#035360:0000000000000023
#0353b1:0000000000000013
#035391:00000000000000000000000000000033
#036371:23
#036321:00000000000013230000000000000000
#036380:00000000000000132300000000000000
#036351:00000000000000001323000000000000
#0363b0:00000000000000000013230000000000
#036321:00000000000000000000132300000000
#036380:00000000000000000000001323000000
#036351:00000000000000000000000013230000
#0363b0:00000000000000000000000000132300
#036321:00000000000000000000000000001333
#037351:23
#037380:13330000000000000000000000000000
#0373b0:0023000000000000
#040320:0000000000000000000000000000000000000000000000000000000013333333
#041350:23
#041381:1333333300000000000000000000000000000000000000000000000000000000
#0413b1:0023000000000000
#041320:0013000023000000
#041360:00000000003300000000000000000000
#0413b1:00000000001300000000000000000000
#041371:0023
#042321:0000000000130000
#042361:00000000000000000000000000230000
#0423b0:00000000000000000000000000130000
#043370:23
#0433b0:0013000023000000
#043370:00000000003300000000000000000000
#043320:0000000000000013
#044340:33
#044360:0023000000000000
#0443b1:0013000023000000
#044371:00000000003300000000000000000000
#044321:0000000000130000
#044361:00000000000000000000000033230000
#0453b1:0013000023000000
#045371:00000000003300000000000000000000
#045320:00000000001300000000000000000000
#045360:0023
#0463b0:0000000000130000
#046370:00000000000000000000000000230000
#046321:00000000000000000000000000130000
#047361:23
#0473b1:0013000000000000
#047371:00000000332300000000000000000000
#047321:0000000000130000
#047361:00000000000000000000000033230000
#048361:00000000000000000013000000000000
#048321:0000000000000000000000000000000000000000000000000053000000000000
#049361:23
#0483b0:00000000000000000013000000000000
#048370:0000000000000000000000000000000000000000000000000053000000000000
#0493b0:23
#049320:00001300000000332300000000000000
#049360:00000000333300000000000000000000
#0493b0:0000000000130023
#049370:00000033
#050360:00001300000000332300000000000000
#050320:00000000333300000000000000000000
#0503b0:0000000000130000
#050370:00000023
#050370:00000000000000000000000000130000
#0503b0:00000000000000000000000000000023
#0513b0:13
#051370:0023000000000000
#052370:0013000000000000
#0523b0:00230000
#0523b0:00000000001300000000000000000000
#052370:00000000000000230000000000000000
#052370:0013
#0523b0:0000000000230000
#0533b0:00001300000000332300000000000000
#053370:00000000333300000000000000000000
#053320:0000000000130023
#053360:00000033
#054370:00001300000000332300000000000000
#0543b0:00000000333300000000000000000000
#054320:0000000000130000
#054360:00000023
#054360:00000000000000000000000000130000
#054320:00000000000000000000000000000023
#055320:13
#055360:0023000000000000
#0553b1:0013000000000000
#055371:00000000332300000000000000000000
#055321:0000000000130000
#055361:00000000000000000000000033230000
#056371:0000000000000013
#0563b1:000000000000000000000000000000000000000000003333
#0573b1:23
#057320:13
#057360:003333230000000000000000000000000000000000000000
#0573b0:0000000000000013
#057370:000000000000000000000000000000000000000000003333
#058370:23
#058321:13
#058361:003333230000000000000000000000000000000000000000
#0583b1:0000000000000013
#058371:000000000000000000000000000000000000000000003333
#059371:23
#059320:13
#059360:003333230000000000000000000000000000000000000000
#0593b0:000000000000000000133333000000000000000000000000
#059380:0023
#059351:000000000000000000000000133333000000000000000000
#059321:0000000000230000
#059381:000000000000000000000000000000000000000000133333
#0603b1:23
#060320:133333000000000000000000000000000000000000000000
#060350:0023000000000000
#060380:0000000000132300
#0603b0:00000000000000000000005300000000
#060351:0000000000001323
#060321:00000000000000000000000000530000
#060380:0000000000000013
#0603b0:00000000000000000000000000000053
#061380:23
#061351:1323000000000000
#061321:00530000000000000000000000000000
#0613b1:0000000000000013
#061381:000000000000000000000000000000000000000000003333
#0623b1:23
#062320:1323000000000000
#062350:003333000000000000000000000000000000000000000000
#062370:000000000000000000000000000000000000000000133333
#0633b0:23
#063361:133333000000000000000000000000000000000000000000
#063321:0023000000000000
#0633b0:0013000000000000
#063370:00000000332300000000000000000000
#063320:0000000000130000
#063360:00000000000000000000000033230000
#0643b0:00001300000000230000000000000000
#064370:00000000333300000000000000000000
#064321:00000000001300000000000000000000
#064361:00000000000000230000000000000000
#064371:00000000000000000013000000000000
#0643b1:0000000000000000000000000000000000000000000000000053000000000000
#065371:23
#064320:00000000000000000013000000000000
#064360:0000000000000000000000000000000000000000000000000053000000000000
#065320:23
#065350:0013000000000000
#066350:0033000000000000
#066320:000000005300000000000000000000230000000000000000
#066381:0013000000000000
#0663b1:000000005300000000000000000000230000000000000000
#067371:000000133333003333230000000000000000000000000000
#0673b1:00330000
#067361:000000000000000000000000000000133333003333230000
#067321:00000033
#068371:000000133333003333230000000000000000000000000000
#0683b1:00330000
#068361:000000000000000000000000000000133333003333230000
#068321:00000033
#069371:000000133333003333230000000000000000000000000000
#0693b1:00330000
#0703a1:000000000000000000143434003434240000000000000000
#070361:0034
#070321:000000000000000000000000000000000000000000143434
#071361:34
#071321:003434240000000000000000000000000000000000000000
#0713a1:000000000000000000143434003434240000000000000000
#071361:0034
