This file was generated by Ched 2.7.0.0.
#TITLE ""
#ARTIST ""
#DESIGNER ""
#DIFFICULTY 0
#PLAYLEVEL
#SONGID ""
#WAVE ""
#WAVEOFFSET 0
#JACKET ""
#REQUEST "ticks_per_beat 480"
#00002: 4
#BPM01: 122
#00008: 01
#TIL00: ""
#HISPEED 00
#MEASUREHS 00
#0411b:00000000001300000000000000001300
#04115:0000000000130000
#04114:3434343424000000000000000000000000000000000000000000000000000000
#0411f:0021000000000000
#04218:13000000001300000000000000130000
#04215:0013000000000000
#04212:0013
#0421b:0000000000130000
#04210:0041000000000000
#04318:0000000000000013
#04315:0013000000000000
#04312:00000000001300000000000000000000
#04415:1313
#0441b:0013000000003300
#04418:0000000000130000
#05015:1323000000000000
#05018:00130000002300000000000000130000
#0501b:0000000000130000
#05012:0023
#0511b:0000000000130013
#05115:00000000001300000000130000000000
#05112:0013000000000000
#05218:13000000000000000000130000130000
#05215:0013000000001300
#05212:00000000001300000000000000000000
#06418:13
#06415:00130000000000000013000000000000
#06412:0000000000000000000000000000000000000000000000000013000000000000
#0691b:00001313
#06915:00000000000000000013000000130000
#06918:0000000000130013
#06912:00000000000000000000001300000013
#07018:14
#07014:00140000000000000000000000000000
#00015:1313
#00012:00130000
#00018:00000013
#0011b:13
#00118:00130000
#00112:00000013
#00115:0013
#00215:13
#0021b:0013
#00218:00130013
#0471b:0013000000003300
#04718:0000330000130000
#04715:0013
#04815:1300000000000000000000000000000000000000000000000013000000000000
#04812:00000000000000000013000000000000
#05518:0013000000003300
#05515:0013
#0551b:0000330000130000
#05615:13
#05612:00000000000000000013000000000000
#06312:0000000013130000
#0631b:0013000000000000
#06318:00330000
#06315:00000033
#07318:1414000000000000
#07319:00140000
#0731a:0000001400000000
#07314:00240024000000000000000000000000
#07313:00000000002400000000000000000000
#07312:00000000000000240000000000000000
#00312:13333313
#00316:0000001300000000
#0041b:00001333
#00417:0000000000000013
#00412:33
#0051b:33133300
#00612:13333313
#00616:0000001300000000
#0071b:00001333
#00717:0000000000000013
#00712:33
#0081b:33133333
#00817:0000000000130000
#00912:00130000
#00918:00131313
#00915:0000000000130000
#00910:00410000
#0101b:13
#01012:00130000
#01018:00001313
#01015:1300000000130013
#0111b:13000013
#01112:00131300
#01117:0000001300000000
#01116:0000000000000013
#0121b:13000013
#01212:00130000
#01217:00130000
#01219:0013
#01214:0013
#01216:00000013
#01312:13333300
#01316:0000001300000000
#0131b:00000013
#01417:0013000000000000
#01412:00001333
#01416:0000000000000013
#0141b:33330000
#0151b:00133333
#01517:0000000000130000
#01512:33
#01612:00130000
#01618:0000000013000013
#01615:00000013
#0161b:00130000
#01712:13130000
#0171b:00130000
#01715:0000000013000013
#01718:13000013
#0181b:1300001300001300
#01812:0000130000000013
#01815:1313
#01918:13
#0191b:00130000
#01916:00130000
#01914:0013
#01919:0013
#01917:00000013
#01912:00000013
#0201b:13333300
#02017:0000001300000000
#02012:00000013
#02010:41
#02116:0013000000000000
#0211b:00001333
#02117:0000000000000013
#02112:33330000
#0231b:0013
#02315:0000000000130000
#02318:00000013
#02312:0000000000000013
#02418:1300000000130000
#02415:0013000013000000
#0241b:00130013
#02412:0000001300000013
#02518:1300000013000013
#02515:0013001300000000
#0251b:00130013
#02512:0000000000130000
#02615:1300001300130000
#02612:0013000000000013
#0261b:00131313
#02718:13131300
#02712:0013001300133333
#02816:00000000001300000000000000000000
#02812:3333333333333333
#0291b:00130000
#02910:41
#03012:13
#0331b:13000013
#03318:0013000013000000
#03315:0000130000130000
#03312:0000001300000013
#0331f:11
#03415:1300000013000013
#03418:0013000000130000
#0341b:00130013
#03412:0000001300000000
#03518:1300001300000000
#03512:0013000000130000
#0351b:00130013
#03515:0013
#03516:0000000000000013
#03619:13000013
#03614:0013000000130000
#03617:00131300
#03612:0000001300000000
#03616:0000000000000013
#0371b:13
#03712:0013333333333333
#03716:00000000000000000000000000130000
#0381b:0000000000133333
#03812:3333333300000000
#03917:00000000001300000000000000000000
#0391b:3333333333333333
#04014:0000000014000000140000000000000014000000140000000000000000343434
#04018:00000014002400000014002400000000
#04012:0000000000000014
#04515:13
#04512:00000000001300000000000000001300
#04518:0023000000130000
#04615:13000000001300000000000000130000
#04618:0013000000000000
#0461b:0013
#04612:0000000000130000
#04912:0000000000130000
#04918:0000000023000013
#0491b:0023000000000000
#04915:00000000002300000000000000000000
#05418:1323000000000000
#05415:00130000002300000000000000130000
#05412:0000000000130000
#0541b:0023
#0531b:0000000000130000
#05315:0000000023000013
#05318:00000000002300000000000000000000
#05312:0023000000000000
#0571b:0013000000000000
#05718:00000000001300000000000000000000
#05715:0000000000000013
#05710:0041000000000000
#05818:1300000000130000
#05812:0013000000000000
#05815:00000000001300000000000000000000
#0581b:00000000000000000000000000130000
#05912:0013000000000000
#05918:0013
#05915:0000000000130000
#0591b:0000000000000013
#05916:0000000000000013
#06019:13
#06014:13
#06017:0013000000000000
#06012:0013000000000000
#0601b:00000000001300000000130000000000
#06016:00000000001300000000130000000000
#06018:00000013
#06015:00000000000000000000000000130000
#06118:1300000000000013
#06112:0013000000000000
#06115:00000000001300000000000000000000
#06215:1300000000130000
#0621b:0013000000000000
#06218:00000000001300000000000000000000
#06212:00000000000000000000000000130000
#06618:0014000000000000
#06614:0014000000000000
#07218:0000000000001414
#07214:00000000000000000000000000140024
#03117:00000000000000000023000000000000
#03112:00000000000000000000002300000000
#03119:00000000000000000000000000230000
#03114:00000000000000000000000000000023
#0321b:00230000000000000000000000000000
#03216:00000023000000000000000000000000
#0321a:0000000000000000000024000024000000000000000000000000000000000000
#0221b:33
#02212:00000000000000000033330000000000
#06510:0041000000000000
#0415b:00000000006300000000000000000000
#04154:0014000000000000
#0425b:0000000000530000
#04258:00000000000000000000000000630000
#04355:0063000000130000
#04352:00000000006300000000000000000000
#0435b:13
#0475b:00005300000000000000000000130000
#04758:00000000001300000000630000000000
#04752:13
#06352:0000000000630000
#0635b:0053000000000000
#06358:00000000001300000000000000000000
#06355:13000000000000000000000000130000
#00352:63000063
#00356:0000002300000000
#0045b:0053
#00457:0000000000000023
#0055b:00530000
#00652:63000063
#00656:0000002300000000
#0075b:0053
#00757:0000000000000023
#0085b:00530000
#00857:0000000000230000
#01352:53
#01356:0000002300000000
#0135b:00000063
#01457:0023000000000000
#01452:0053
#01456:0000000000000023
#0155b:00630000
#01557:0000000000230000
#0205b:63
#02057:0000002300000000
#02052:00000053
#02156:0023000000000000
#0215b:0063
#02157:0000000000000023
#02752:0000000000530000
#02856:00000000002300000000000000000000
#0295b:00530000
#03052:53
#03752:0053000000000000
#03756:00000000000000000000000000230000
#0385b:0000000000630000
#03957:00000000002300000000000000000000
#04052:0000000000000054
#0445b:00005300000000000000000000130000
#04458:0000000000530000
#04552:00000000005300000000000000000000
#04558:0013000000000000
#04652:0000000000630000
#04655:00000000000000000000000000530000
#04855:0000000000000000000000000000000000000000000000000023000000000000
#04852:00000000000000000063000000000000
#04952:0000000000530000
#0495b:0013000000000000
#0505b:0000000000530000
#05058:00000000000000000000000000530000
#05152:0063000000000000
#05155:00000000006300000000000000000000
#0515b:13
#05255:0053000000000000
#05252:00000000005300000000000000000000
#0535b:0000000000630000
#05452:0000000000630000
#05455:00000000000000000000000000630000
#05652:00000000000000000063000000000000
#0575b:0063000000000000
#05758:00000000006300000000000000000000
#05852:0063000000000000
#05855:00000000006300000000000000000000
#05858:0000000000630000
#0585b:00000000000000000000000000630000
#05952:0053000000000000
#05958:13
#06057:0053000000000000
#06052:0053000000000000
#0605b:00000000005300000000000000000000
#06056:00000000005300000000000000000000
#06152:0053000000000000
#06155:00000000005300000000000000000000
#0625b:0053000000000000
#06258:00000000005300000000000000000000
#06255:0000000000530000
#06252:00000000000000000000000000530000
#06452:0000000000000000000000000000000000000000000000000023000000000000
#06455:00000000000000000053000000000000
#06658:0054000000000000
#06654:0054000000000000
#07352:00000000000000140000000000000000
#0555b:00000000001300000000530000000000
#05552:13
#05558:00005300000000000000000000130000
#003320:13333333
#003360:0000005300000000
#004320:33
#004360:00230000
#0043b0:00001333
#004370:0000000000000053
#0053b0:33333300
#005370:00000023
#006320:13333333
#006360:0000005300000000
#007320:33
#007360:00230000
#0073b0:00001333
#007370:0000000000000053
#0083b0:33333333
#008370:0000000000530000
#0093b0:23
#013320:13333323
#013360:0000005300000000
#0133b1:00000013
#0143b1:33332300
#014371:0053000000000000
#014320:00001333
#014360:0000000000000053
#015320:33230000
#0153b1:00133333
#015371:0000000000530000
#0163b1:23
#0203b1:13333323
#020371:0000005300000000
#020320:00000013
#021320:33332300
#021360:0053000000000000
#0213b1:00001333
#021371:0000000000000053
#0223b1:33230000
#022321:00000000000000001333330000000000
#022351:00000000000000000000003300330033
#023351:00330033002300000000000000000000
#027321:0000000000133333
#028321:3333333333333333
#028361:00000000005300000000000000000000
#029321:23
#0293b1:00130000
#029371:00000023
#030321:13
#030361:00000000000000003333332300000000
#0303b1:00000000000000000000000000001333
#0313b1:33230000000000000000000000000000
#031321:00000000133333230000000000000000
#032341:0000000000000000000000000000000000001535353535353535353525000000
#032331:00000000000000000000000000000000000000000000000000000000000000000000000000580000005800000058000000580000005800000000000000000000
#032321:00000000000000000000000000000000000000000000000000000000000000000000000000000058000000580000005800000058000000580000000000000000
#037321:0013333333333333
#037361:00000000000000000000000000530000
#038321:3333333323000000
#0383b1:0000000000133333
#0393b1:3333333333333333
#039371:00000000005300000000000000000000
#0403b1:23
#040321:0000000000000014
#040341:0000000000000000000000000000000000000000000000000000000000343434
#041341:3434343424000000000000000000000000000000000000000000000000000000
#0413b1:00000000001300000000000000000000
#041381:0023
#0423b1:0000000000130000
#042381:00000000000000000000000000330000
#0433b1:23
#043351:0013000033230000
#043321:00000000003300000000000000000000
#0443b1:0013000000000000
#044381:00000000002300000000000000000000
#044381:0000000000130000
#0443b1:00000000000000000000000033230000
#045321:00000000001300000000000000000000
#045351:0023
#046321:0000000000130000
#046351:00000000000000000000000000330000
#047321:23
#0473b1:0013000000000000
#047381:00000000332300000000000000000000
#047381:0000000000130000
#0473b1:00000000000000000000000033230000
#0483b1:0013000000000000
#048381:00000000333300230000000000000000
#048321:00000000000000000013000000000000
#048351:0000000000000000000000000000000000000000000000000053000000000000
#049321:23
#049321:0000000000130000
#049351:00000023
#0503b1:0000000000130000
#050381:00000000000000000000000000330000
#0513b1:23
#051321:0013000023000000
#051351:00000000003300000000000000000000
#052351:0013000023000000
#052321:00000000003300000000000000000000
#0533b1:0000000000130000
#053381:00000023
#054321:0000000000130000
#054351:00000000000000000000000000330000
#055321:23
#055381:0013000000000000
#0553b1:00000000332300000000000000000000
#0553b1:0000000000130000
#055381:00000000000000000000000033230000
#056381:0013000000000000
#0563b1:00000000333300230000000000000000
#056321:00000000000000000013000000000000
#057361:23
#0573b1:0013000033230000
#057381:00000000003300000000000000000000
#058321:0013000023000000
#058351:00000000003300000000000000000000
#058381:0000000000130000
#0583b1:00000000000000000000000000330000
#059381:23
#059321:0013000000000000
#059351:00000000002300000000000000000000
#060321:0013000023000000
#060361:00000000003300000000000000000000
#060370:0013000023000000
#0603b0:00000000003300000000000000000000
#061320:0013000033230000
#061350:00000000003300000000000000000000
#0623b0:0013000023000000
#062380:00000000003300000000000000000000
#062350:0000000000130000
#062320:00000000000000000000000000330000
#063350:23
#0633b0:0013000000000000
#063380:00000000332300000000000000000000
#063320:0000000000130000
#063350:00000000000000000000000033230000
#064380:0013000000000000
#0643b0:00000000333300230000000000000000
#064350:00000000000000000013000000000000
#064320:0000000000000000000000000000000000000000000000000053000000000000
#065350:23
#065380:0014000000000000
#066380:0034000000000000
#0663a0:0000540000240000
#066341:0014000000000000
#066321:0000540000240000
#0663b1:0000000000000013
#067371:0033000000330000
#0673b1:0000003300000033
#068371:0033000000000000
#0683b1:0000002300000000
#068320:0000001300000033
#068360:0000000000330000
#069360:0033000000000000
#069320:0000002300000000
#0703a0:0014000000340000
#070360:0000003400000034
#0713a0:00003400000000000000343434240000
#071360:0000003400000000
#072360:14343424000000000000000000000000
#072320:00000000000014343424000000000000
