This file was generated by Ched 2.7.0.0.
#TITLE ""
#ARTIST ""
#DESIGNER ""
#DIFFICULTY 0
#PLAYLEVEL
#SONGID ""
#WAVE ""
#WAVEOFFSET 0
#JACKET ""
#REQUEST "ticks_per_beat 480"
#00002: 4
#BPM01: 122
#00008: 01
#TIL00: ""
#HISPEED 00
#MEASUREHS 00
#00312:00001613000000130000000016000000
#00318:00130000001600130000001600000013
#00315:00000000130000000013000000000000
#00316:00000000000000000000000000130000
#00317:0000000000000013
#0031b:13000000000013000013000000000000
#00419:13
#00412:001b0000001600001300000000161300
#00416:00001414000000000000000000000000
#0041a:00000014000000000000000000000000
#00418:00000000001600000000160013000000
#0041b:00000000000000000000001300000013
#00415:00000000000000001613000000000013
#00612:19000000140000140000001c00000013
#00618:00130000000000140000000013130000
#00615:00001319000000000000000000001300
#00614:00000000001400000014000000000000
#00616:0000001400000000
#0061a:00000000000000000014000000000000
#0071b:13
#00718:00130000001600000000130000140000
#00715:00001300000000001913000000000000
#00716:00000014000000000000000000001400
#00712:00000014001600000000001900000000
#0071a:00000000000000000000000014000014
#00714:00000000000000000000000000000014
#00918:00001200000000120000000012000000
#00919:00000012000000000000000000000000
#00916:00140000120000000000000000000016
#0091b:00000000001200000000000000000000
#00912:00140000000000120000000000120000
#00915:00000000000000001212121212120000
#0091c:00000000000000000000000000000012
#0091a:00120000
#00910:00410000
#01014:00160000000000000000000000000000
#01016:00000000000000000000000000000014
#01012:00120012000000000000000000000000
#01017:00000000121200001200120000000000
#0101c:00000000001200000000000000000000
#01019:00000000000000120000001200000000
#01015:00000000000000000012000012000000
#0101b:00000012
#01116:00140000001212000000000000000012
#0111a:12000000000000001212000012000000
#0111c:00120000000000000000001200000000
#01112:00000012000000000000000000000000
#01114:00120000
#01118:00000000000000120000000000121200
#0121c:00000000000000000000000000120012
#01212:00000012000000000000000000000016
#01214:12120000121200000000000000000000
#01216:00000000000012120000000000000000
#01218:00000000000000001212000000000000
#0121a:00000000000000000000121200000000
#01516:00000000000000000000000000000012
#01512:00160013000000001300001600130000
#0151b:00130000000000000000001300000000
#01517:00000013130013130000000000000000
#01515:00000000001300000013000000000000
#01518:00000000000000000000130000160016
#03115:00000000000000000013000000000023
#03116:13000000131300130000001300000000
#03117:00130000000013000000000000130000
#03118:00000000000000000000000000000013
#03112:00130000000013000023000000000000
#0311b:13000000131300130000000000000000
#03113:00000000000000000000002300000000
#03114:00000000000000000000000000230000
#03219:00130000000000000000000000000000
#0321a:00000013000000000000000000000000
#03212:0000000000000000000016000016000000000000000000000000000000000000
#03218:0000000000000000000026000026000000000000000000000000000000001200
#03216:00230000000000000000000000000000
#03217:00000023000000000000000000000000
#04015:00001300000000001300000000000013
#04017:00000013000000000013000000000000
#04012:00001313132300001313132300001300
#04019:0000130000130000
#04018:0000000000000000000000000000000000000000000000000000000000130000
#0401b:0000000000000000000023000000000000000000000023000000000000000013
#0411b:0000001300000000000000000000000000000000130000000000000000000000
#0411a:0000000000000014
#04117:0000000000131300
#04112:13002c001c00001c0000000000000000
#04118:0013000000000000000000000000000013000000000000000000000000001400
#04115:00130000001300000000000000000000
#0411f:0021000000000000
#04216:14000000001400180000130000000000
#04212:0014180000130000
#0421a:0014
#04214:00140000000000000000000000000000
#0421b:00000000000000000000000013130000
#04217:00000000000000000000000000130000
#04210:0041000000000000
#04516:1800000000131300
#04512:13002c001c00001c0000130000001400
#04518:00000000001300000000000000000000
#04515:0013
#04514:00000000000000000000000000000014
#04716:00000000131300131800000013130000
#04712:00001400000000000000140000000013
#0471b:0013000000130000
#04818:0016000000000000
#04816:00160000
#04815:00000000001300000000000000000000
#04813:00000000000000130000000000000000
#04812:180000000000000000000000000000001c000000000000000013000000000000
#04817:00000013000000000000000000000000
#04814:0000001600000000
#0481b:00000000000000000023000000000000
#04917:00002700001300000000130000001300
#04912:00001300000000142400000013000000
#0491b:00000000132300000000000000000000
#05012:131c0000001300132300000023130000
#05017:00001300132300000000000000000000
#05015:00000000000000000000000000130000
#0501b:0023000000130000
#05016:00000000000000000000130000000023
#0511b:13000000001300000000130000000000
#05115:00000013000000001300000000000016
#05118:00000000130000130000000000000000
#05112:0023001313000000
#05117:0000000000130000
#05116:13
#05215:0013000013000000
#0521b:00000000001300000000000013000000
#05218:00000000000000000000000000131300
#05212:00131300000000231300000000000019
#05216:00000000231300000000230000000000
#06318:000013000000000000000000000000000000000000000000000000130000000000000000000000000000000000000000
#06315:00000000000000001300000000000013
#06312:00001400000000130000000000000000
#0631b:001300000000000000000000
#06316:00000000131300000000000000000000
#06317:00000000000000000000000013130000
#0631a:0000000000140000
#06415:13000000000000000000000000140014
#0641b:0013000000000000
#06412:00002300131300000000140000000000
#06416:0000000000000000000013000000000000001400001400000000000014000000
#06418:0000130000000000000000000000000000000000000000000014000000000000
#06413:00000000000000000000001400000000
#06417:0000000000000000000000000000000000000000000000140000000000000000
#06414:00000014
#06419:0000000000000000000000000000000000000000000000000000001400000014
#0641a:0000000000000000000000000000000014000000000000000000000000140000
#06912:002c002c12000000
#06914:00000000000000000012000000000000
#06916:001200000000001200000000000000120000000000000000
#06918:120000000000000000001200000000001200000000000000000000000000000000120000000000000000000000000000
#0691a:001200120000000000120000
#0691c:000000000000000012000000000000000000000000000000000000000000000000000000000000120000000000000000
#06913:0000000000000012
#06915:00000000000000000000000000000012
#07017:120000000012000000000012000000000012000000000012
#07019:00120000000000001200000000000000
#07012:0000002c12000000002c00000000002c12000000002c0000
#07015:00120012
#0701a:000000000000001200000000000000000000001200000000
#07018:000012000012
#0701c:000000000012000000000012
#07014:000000000000000000000000001200000000000000000000
#07016:000000000000001200000000
#01312:00001300000000160013000000000000
#0131b:00000013000000130000001300000000
#01315:00130000001300000000000000000000
#01318:13000000130013000016000000130000
#01316:00000000000000000000001313001313
#01418:00130016000000000013000000130016
#01415:0013000013001313
#01412:00000013001600000000001300000013
#0141b:13000000001300000000130000000000
#01618:00121200001200001200000000000000
#01616:00000012120000140000000000120012
#01615:00000000000000000012000000000000
#01612:00160000000000000000120000000000
#0161c:00000000000000000000001200000012
#01619:00000012
#0161b:00000000000000120000000000000000
#01716:00140000001200120012000000000000
#01712:00120000000000000000000000000000
#0171a:00000012000000000000000000000000
#01718:00121212
#01714:12000000000012000000001212000000
#0171b:0000000000000012
#01717:00000000000000000000000000000012
#01818:00000000000000000012000000000000
#01813:12120000000000000000000000000000
#01817:00120000000000000000000000000000
#01912:0000000000000000000000000000161c
#01916:00120000000012000000000000000000
#01917:00110000
#01915:0013
#01914:0000000000140000
#01913:00000015
#0201b:00000012000000000013000000000000
#02015:00120000001300000000000000000000
#02016:00000000000013000000001400120000
#02017:00000000000000170000000000000000
#02012:12000000000000000017000000000000
#02013:00000012
#02014:00130000
#02018:0012000000000000
#0201c:00000000000000000000000000000012
#02019:0000000000000012
#02010:41
#02114:00140014000000000000000000000000
#02116:00001400001400000000120000000000
#02118:00000014000000000000000000130000
#02112:14000000000000000000000000000017
#0211a:00000000001400000000000000000000
#02113:00000000000000000000001200000000
#02117:0000000000000013
#02119:00000000000000000012000013000000
#0211c:0012
#05717:000013000013000013000000
#05714:000000000013000000000013000000000013000000000000
#05719:00131313
#05716:000000000000001300000000001300000000001300000000
#0571b:000000000000000013000000000013000000000013003333
#05712:16162300000013000000230000001c00
#05718:0016001600000000000000000000000000000000000000000000000000000000
#05710:0041000000000000
#05916:000013000013000013000000
#05919:000000000013000000000013000000000013000000000000
#05914:00131313
#05917:000000000000001300000000001300000000001300000000
#05912:3333330000000000130000000000130000000000131c3333
#0591b:0023001300230000
#06115:000013000013000000000000001300000000001300000013
#06118:130000000000001300000013000000000013000000000000
#0611b:0000001300000000
#06112:001c002c00000000000000000000132c0000000000130000
#05315:13130000000000000000000000000000
#05316:00000000001300000000130000001300
#0531b:0013000000001300
#05312:00002700132300000000000000000000
#0531a:00000000000000142400000000000000
#05618:0000000000000000000013000000000016000000000013000016001600160016
#05612:0000160000000000001c000016161616
#05616:18000013000016000000000000000000
#05614:00160000
#0561a:00000000000000130000000000000000
#05615:0000000000130000
#07212:00000023000000000000000014000000
#07216:00000000000000000000000000140024
#0721a:0000000000000014
#07218:00130000000000001300000000000000
#07215:00001300000000130000000000000000
#0721b:00000000000000000023000000000000
#07316:1414141400000000
#07315:00260000000000000000000000000000
#07314:00000028000000000000000000000000
#07313:00000000002a00000000000000000000
#07312:000000000000002c0000000000000000
#0581b:333333001300000000001300000000001300000000000000
#05814:000000000013000000000013000000000013000000000000
#05819:00131313
#05812:0000000000000013000000000013000000000013001c3333
#05817:000000001300001300001300
#05816:0023001300230000
#06012:3333330013000000000013000000001c131c001c001c001c
#06019:000000000013000000000013000000000000000000000000
#06014:00131300
#0601b:000000000000001300000000001300000000000000001300
#06016:000000001300001300000000
#06017:0023001300000000
#06015:00000013
#06018:000000000013
#00012:13000000001313000013000000000000
#00015:00001313000000130000000000000000
#00016:14000014
#0001b:0000001300001300
#00018:00000000000000000000000000001313
#00116:0014
#00112:00001300000000001300000000131300
#0011b:00131300001300000000000000001300
#00118:00000013000000000000000000000000
#00115:00000000000000000000131300000013
#00212:00130000000000000000130000000000
#00216:00140000
#0021b:00000000130000000013130000130000
#00218:00000000000013130000001300000000
#00518:00130000160000000000000000000000
#00512:00130016000000000000001400000014
#00517:00000000001300000000000000000000
#00516:00000000000013000000141400140014
#00515:00000000000000130000000000000000
#00514:0013
#00513:0000000000000000001b000000000000
#0051a:00000000000000000000000000140000
#00818:00140000000013000000130000000000
#00812:0014001c000000001300000000140000
#00815:00000000131300000013000000000000
#0081b:00000000000000130000000000000000
#00816:00000000000000000000001400140014
#0081a:00000000000000000000001400000014
#02217:00170000000000000000000000000000
#02212:00130000000000120000000000140000
#02216:00000014000000000000140000140000
#0221b:00120000
#02218:00000000001200000014001400000014
#02214:00000000000000000000001400000014
#0221a:0014
#02215:0000001200000000
#0231a:00140000000000000000000000000000
#02316:00140000000000120000000000000000
#02312:00000017001200000000000000000000
#02317:00000000001700000000000000000000
#02314:0000001200140000
#02318:00000000000000001200000000140000
#0231c:00000012000000000000000000000000
#02414:14000000001400000000000012000000
#02418:000000000000000000140000000000000000000000000000140000000000000000000000000012000000000000000000
#0241a:0000000000000012
#02416:000000000012
#02614:0012000000000000
#02616:000000000000000012000000000000140000000000000000000000000000000000000000000000000000120000000000
#02618:000000000012000000000000000000000000120000000000
#0261a:0012000000120000
#0261c:0012
#02516:14000014001400001400140000140014
#02718:0000000014000000000000001200000000000000120000000000001200001200
#02714:0000001412001200
#02716:00001200000000000012000000121200
#0271a:00000000000000120000000000000000
#02712:00000000000000000000001200000000
#02812:1200000000120000
#02814:00120000000012000000000000000000
#02816:00001200000000121200000000000000
#02818:0000000000001200000000000000001200001200000000001200000000001200
#02815:00000000000000000000001200001200
#0281b:00000000000000000000000000120000
#0281a:00120000
#0281c:00000000001200000000000000000000
#0301b:12120000000000001313001300000000
#03016:0012001200000000120000000000000013001300000013000000000000000000
#03018:00001212000000120000000000000000
#03013:0000000000120000000000000000000000000000000000000000000000000000
#0301a:00000000001200000000000000000000
#03014:0000001200000000
#03017:00000000000000000000130000001313
#03012:00000000000000000000130000001313
#02915:0000000000000012
#02918:00000000000000000000000000000012
#0291b:13000013
#02917:00130000
#02912:0013
#02910:41
#03316:12000012000000000000000000000000
#03314:00000000001400001200001400000000
#03318:00001400000012000012000000000000
#03317:00000000000000000000000000140000
#0331a:00000000000000001200000000000014
#0331c:00000000000000120000000000000000
#03312:00000000000000000012000000000000
#0331f:11
#0341a:0000120000000012
#03416:000000000000000000000000000012000000000000000000000000000000000000000000120000000000000000120000
#03414:00001212000012001400000000001200
#03418:000000120000000000000000000000001200000000000000000000120000000000140000000000000000000000000000
#0341c:12000012000000000000000000000012
#03412:00000000000000000000000000120000
#03514:0000000000120000
#03518:000000140000000000000000000000000000000000000000000000000000000012000000000000000000000000000000
#03516:000000000000000000000000000000000000000000120000000000000000000000001200000000140000000000000000
#03515:00000014000000000000000000000000
#03512:00000000001412000012000000000000
#0351a:00000000000000001212000012000000
#03612:12
#03614:00001200000000000000140000000012
#03616:0000120000000012
#03618:0000001200120014
#0371a:1200120000000012
#03718:00120000001212000000000000000012
#03716:0000000012000000000000120000000000000000000012000000000000000012
#0371c:00000012000000000000000000000000
#03714:00000000000000120000000000000000
#03719:00000000000000000012000000000000
#03713:00000000000000000000000000120000
#03818:12000000000000120000000000000000
#03813:00000000001200000000000000000000
#03819:00000012000000000000001212000000
#03814:00120000000000000000000000000000
#03812:00000000000000000012120000000000
#03816:0000000000000000000000000000000000000000000000120000000000000000
#0381c:0000000000120000
#03912:0000001200000000
#03919:00000000000000121200000000000000
#03916:0000000000000000000000000000001200000000000000000000000000000000
#0391c:0000001200000000
#04318:00000013
#04315:00000000000000000000001900000000
#0431b:00001300000000000000000000130000
#04312:00000000131300000000130000001319
#04316:00000000001300000000000000000000
#04317:0013000000000000
#04415:13000000001300000000000000000000
#04418:00130000001300000000000000000000
#0441b:0013000000000000
#04412:00001300000000000000131300000000
#04416:00000000000000000000180013130000
#0441a:00000000000000000000000000001313
#04616:14000000181400000000000000130000
#0461a:0014000000000000
#04612:00000000000000181400000013130000
#04618:00140000000000000000000000000000
#0461b:0000000000130000
#04617:0000000000130000
#0541b:13000000001300132300000023130000
#05412:001c2300000000000000130000000000
#05416:00001300132300000000000000000000
#05418:00000000000000000000000000130000
#05417:00000000000000000000130000000023
#05517:13000000131300130000000013130000
#05512:1313000018130000
#0551b:00000000000000000000000000000013
#0551a:0014000000140000
#06218:001300000000001300000013000000000013000000000000
#0621b:000013000000000000130000000000000000000000000000
#06215:000000000013000000000000001300000000001300000013
#06212:0000002c00000000000000000000132c0000000000130000
#06514:14
#06518:0014000000000000000000000000000000000000000000000000000000000000
#06513:00140000000000000000000000000000
#06517:0000001400000000000000000000000000000000000000000000000000000000
#06510:0041000000000000
#0661a:0014000000000000
#06612:001400000000002c
#06616:000000000000000000000012
#06614:000000000000000000000000000000000000000000000012
#06718:120000000012000012001200001200000000001200000000
#06716:001200000000001200000000120000000012000012001200
#0671a:000012000000120000000012000000000000000000000000
#0671c:001200000000
#06714:000000000000000000000000000012000000120000000012
#06712:0000002c00000000002c00000000002c12000000002c0000
#06818:120000000012000012001200001200000000001200000000
#06816:001200000000001200000000120000000012000012001200
#0681a:000012000000120000000012000000000000000000000000
#0681c:001200000000
#06814:000000000000000000000000000012000000120000000012
#06812:0000002c00000000002c00000000002c12000000002c0000
#07119:1212
#07114:001200000000000000000000001200000000000000000000
#07116:001200000000001200000000
#07112:0000002c12000000002c0000000000000000000000000000
#07117:000000000012000000000012000000000000000000000000
#07115:00000000120000000000001300000000
#0711a:000000000000001200000000000000000000000000000000
#07118:000000001200000000130000
#0711c:000000000012000000000000
#0711b:00000000000000000000000000230000
#00355:00000000000000000013000000000000
#00352:00000000000000130000000000000000
#0045a:00000044000000000000000000000000
#00452:00000000004600000000000000000000
#00458:00000000004600000000000000000000
#0045b:00000000000000000000000000000013
#00456:00000044000000000000000000000000
#0115a:00000000000000000012000000000000
#04252:0034000000530000
#04256:00000000003400000000000000000000
#0425a:0034
#0425b:00000000000000000000000000530000
#04257:00000000000000000000000000530000
#04756:00000000003300004800000000330000
#04752:0054000000540000
#0475b:33
#04757:33
#0475a:00000000003400000000000000340000
#04957:00004700005300000000130000001300
#04952:0053000000001300
#0515b:53000000001300000000230000000000
#05155:0013
#05157:0000000000530000
#05255:0023000023000000
#0525b:00000000002300000000000000000000
#0645b:0053000000000000
#06452:00000000005300000000000000000000
#06456:00000000005300000000000000000000
#0065a:00000000000000000014000000000000
#00652:00000000000000140000000000000000
#01358:00000000000000000046000000000000
#01352:00000000000000360000000000000000
#01452:00000033000000000000000000000000
#0145b:00000000004300000000000000000000
#01458:00000000000000000000000000000046
#01656:00000000000000000000000000120000
#0165c:00000000000000000000000000000012
#01652:00360000000000000000000000000000
#01752:00120000000000000000000000000000
#02057:00000000000000470000000000000000
#02052:00000000000000000037000000000000
#02158:00000044000000000000000000000000
#0215a:00000000004400000000000000000000
#02152:00000000000000000000000000000037
#04852:4800000000000000000000000000000000000000000000000023000000000000
#0485b:00000000000000000053000000000000
#05052:00000000006300000000000000000000
#05057:0063000000000000
#05055:00000000000000000000000000530000
#0505b:0000000000530000
#00056:54000054
#0005b:0000002300000000
#00156:0054
#00152:0023000000000000
#0015b:0000000000000023
#00256:00540000
#00252:0000000000230000
#00558:00130000000000000000000000000000
#00552:00000000000000000000003400000034
#00556:00000000000000000000003400440034
#0055a:00000000000000000000000000440000
#00756:00000034000000000000000000000000
#00752:00000034003600000000000000000000
#00758:00000000003600000000000000000000
#0075a:00000000000000000000000000000014
#00852:00140000000000000000000000340000
#00856:00000000000000000000004400340044
#0085a:00000000000000000000004400000044
#00956:00340000000000000000000000000000
#00952:00340000000000000000000000000000
#01254:00120000000000000000000000000000
#01552:00360000000000000000000000330000
#0155b:00000000000000000000004300000000
#01558:00000000000000000000000000000046
#02257:00470000000000000000000000000000
#02254:00000000000000000000003400000000
#02252:00000000000000000000000000340000
#02258:00000000000000000000000000000044
#0235a:00440000000000000000000000000000
#02352:00000037000000000000000000000000
#02357:00000000004700000000000000000000
#02758:0000000000520000
#0305b:00000000000000000000001300000000
#03056:00000000000000000000001300000000
#03152:00130000000000000000000000000000
#03157:00130000000000000000000000000000
#0315b:00000000000000130000000000000000
#03156:00000000000000130000000000000000
#02957:00530000
#02952:0023
#03756:0062000000000000
#04358:00000013
#0435b:0063000033000000
#04352:43000000006300000000130000001300
#04356:43000000006300000000000000000000
#04357:0033
#04455:13000000005300000000000000000000
#0445b:0053000000000000
#04452:0063000000000000
#04458:00000000006300000000000000000000
#0465a:0044000000000000
#04656:00000000004400000000000000630000
#04652:00000000000000004400000000630000
#0465b:0000000000630000
#05356:00000000006300000000130000001300
#0535b:0063000000001300
#05352:0037000000000000
#0545b:00000000005300000000000000000000
#05456:0053000000000000
#05458:00000000000000000000000000630000
#05452:0000000000630000
#05552:00000000004400003800000000440000
#05557:00000000004300000000000000430000
#0555a:0064000000640000
#05656:38
#05752:000000000000005c
#05852:000000000000006c
#05952:000000000000006c
#06352:00005400000000000000000000440000
#0635a:00000000003400000000640000000000
#0665a:0054000000440000
#06652:0054000000340000
#07256:00000000000000000000000000000034
#07355:00360000000000000000000000000000
#07354:00000038000000000000000000000000
#07353:00000000003a00000000000000000000
#07352:000000000000003c0000000000000000
#04152:001c000000000000
#04552:001c000000000000
#000360:14000034
#0003b0:0000005300000000
#001320:0053000000000000
#001360:0034
#0013b0:0000000000000053
#002360:00340000
#002320:0000000000530000
#003360:24
#010320:0000000000000000000000000000000000000000000000000000125252522200
#010330:00000000000000000000000000000000000000000000000000000000000000000000000000000000000000000000000000000000005200520052005200000000
#012380:00000000000000000000001200220000
#0173a0:00000000000000000012002200000000
#018320:00000012220000000000000000000000
#018361:00000000182800000000000000000000
#018340:00000000001222000000000000000000
#018381:00000000000016260000000000000000
#018360:00000000000000122200000000000000
#0183a1:00000000000000001424000000000000
#0183c1:00000000000000000000001222000000
#018320:00000000000000000000000018280000
#0183a1:00000000000000000000000000122200
#018320:00000000000000000000000000001626
#018381:00000000000000000000000000000012
#019381:22
#019320:14240000000000000000000000000000
#019380:00000011210000000000000000000000
#019380:00000000001222000000000000000000
#019380:00000000000000132300000000000000
#019380:00000000000000000014240000000000
#019380:00000000000000000000001525000000
#019380:00000000000000000000000000162600
#023320:00000000000000000012220000000000
#023360:00000000000000000000001222000000
#0233c1:00000000000000000000000012220000
#023381:00000000000000000000000000001222
#023320:00000000000000000000000000000012
#024320:22
#024360:00122200000000000000000000000000
#0243c1:00001222000000000000000000000000
#024321:00000000122200000000000000000000
#024361:00000000000012220000000000000000
#0243c0:00000000000000122200000000000000
#024380:00000000000000000012220000000000
#024361:00000000000000000000122200000000
#024380:00000000000000000000001222000000
#024320:00000000000000000000000000000012
#025320:22
#025370:00122200000000000000000000000000
#0253c1:00001222000000000000000000000000
#025321:00000000122200000000000000000000
#025371:00000000000012220000000000000000
#0253c0:00000000000000122200000000000000
#025320:00000000000000000012220000000000
#025370:00000000000000000000001222000000
#0253c1:00000000000000000000000012220000
#025321:00000000000000000000000000001222
#026371:12220000000000000000000000000000
#0263a1:00000000122200000000000000000000
#026381:00000000000012220000000000000000
#026360:00000000000000122200000000000000
#026380:00000000000000000012220000000000
#026360:00000000000000000000001222000000
#026340:00000000000000000000000000122200
#026320:00000000000000000000000000000012
#027320:22
#027381:12220000000000000000000000000000
#0273c1:00000012220000000000000000000000
#027360:00000000122200000000000000000000
#027380:0000000000120000
#0273c0:00000022
#029320:1353
#029370:00330023
#0293b1:0000000000000000135353532300000000000000000000000000000000000000
#0293a1:00000000000000000000000000000000005300530053005300000000000000000000000000000000000000000000000000000000000000000000000000000000
#032320:0000000000000000000000000000000000001131313131313131313121000000
#032330:00000000000000000000000000000000000000000000000000000000000000000000000000560054005500570054005500560053005500570000000000000000
#0323d1:0000000000000000000000000000000000001131313131313131313121000000
#032391:00000000000000000000000000000000000000000000000000000000000000000000000000540000000000000000000000540000000000000000000000000000
#032371:00000000000000000000000000000000000000000000000000000000000000000000000000000056000000000056000000000000000000000000000000000000
#032381:00000000000000000000000000000000000000000000000000000000000000000000000000000000005500000000005500000000005500000000000000000000
#0323a1:00000000000000000000000000000000000000000000000000000000000000000000000000000000000000530000000000000000000000530000000000000000
#032361:00000000000000000000000000000000000000000000000000000000000000000000000000000000000000000000000000000057000000000000000000000000
#0333c1:00122200000000000000000000000000
#033381:00000012220000000000000000000000
#033320:00000000122200000000000000000000
#033360:00000000000012220000000000000000
#033320:00000000000000000000122200000000
#033350:00000000000000000000000012220000
#033380:00000000000000000000000000001222
#034320:00000000000000122200000000000000
#034360:00000000000000000012220000000000
#0343c1:00000000000000000000122200000000
#034381:00000000000000000000000012220000
#0353c1:12220000000000000000000000000000
#035391:00001222000000000000000000000000
#035361:00000000122200000000000000000000
#035341:00000000000000000000000012220000
#035361:00000000000000000000000000001222
#035380:00000000000000000000000000000012
#036380:22
#036360:00122200000000000000000000000000
#036380:00000012220000000000000000000000
#0363a0:00000000001222000000000000000000
#0363c0:00000000000000122200000000000000
#036361:00000000000000001222000000000000
#036321:00000000000000000000001222000000
#036380:00000000000000000000000012220000
#037360:0012000000000000
#037320:00220000
#0373c0:00000000000000001222000000000000
#037390:00000000000000000000122200000000
#037360:00000000000000000000000012220000
#0383c0:00001222000000000000000000000000
#038360:00000000122200000000000000000000
#0383b0:00000000000012220000000000000000
#038350:00000000000000001222000000000000
#0383c0:00000000000000000000000000122200
#038381:00000000000000000000000000001222
#0383a0:00000000000000000000000000000012
#0393a0:22
#039361:12220000000000000000000000000000
#039380:00122200000000000000000000000000
#039341:00001222000000000000000000000000
#039360:00000012220000000000000000000000
#039321:00000000122200000000000000000000
#0393c1:00000000000000000012220000000000
#039380:00000000000000000000122200000000
#0393a1:00000000000000000000001222000000
#039360:00000000000000000000000012220000
#039381:00000000000000000000000000122200
#039340:00000000000000000000000000001222
#039361:00000000000000000000000000000012
#040361:22
#040320:12220000000000000000000000000000
#041320:00000013
#041370:0000000000000023
#042320:00000000000000000000130000005333
#042370:00000000000000000000005333330000
#043320:23
#0423b1:00000000000000000000000000130000
#042361:00000000000000000000000000005333
#043361:23
#0433b1:00001300000053332300000000000000
#043361:00000053333300000000000000000000
#043320:00000000001300000000000000000000
#043370:00000000000053332300000000000000
#0443b0:0013000000000000
#044350:00000053333300000000000000000000
#044320:00000000000053332300000000000000
#044321:0013000000000000
#044381:00000053333300000000000000000000
#0443b1:00000000000053332300000000000000
#0453b1:00000013
#045361:0000000000000023
#0463b1:00000000000000000000130000005333
#046361:00000000000000000000005333330000
#0473b1:23
#046320:00000000000000000000000000130000
#046370:00000000000000000000000000005333
#047370:23
#047320:0014000000000000
#0473a0:00000000342400000000000000000000
#047320:0000000000140000
#0473a0:00000000000000000000000034240000
#048360:00000000000000000014000000000000
#049360:24
#0483b1:00000000000000000013000000000000
#048321:0000000000000000000000000000000000000000000000000053000000000000
#0493b1:23
#049321:0013000000000000
#049371:00000000333300000000000000000000
#0493b1:00000000000000332300000000000000
#0493b1:0000000000130033
#049361:00000033
#050361:23
#050371:00001300000053332300000000000000
#050321:00000053333300000000000000000000
#0503b1:0000000000130000
#050351:00000023
#050351:00000000000000000000000000130000
#0503b1:00000000000000000000000000000023
#0513b1:13
#051351:0023000000000000
#0513b1:0000000000130000
#051361:00000023
#051370:0000000000130000
#051320:00000023
#0513b0:00000000000000000000000000001323
#052350:13230000000000000000000000000000
#052350:0013000000000000
#0523b0:00230000
#0523b0:00000000001300000000000000000000
#052350:00000000000000230000000000000000
#052350:0013
#0523b0:0000000000230000
#0533b0:0013000000000000
#053360:00000000333300000000000000000000
#053320:00000000000000332300000000000000
#053320:0000000000130033
#053370:00000033
#054370:23
#054360:00001300000053332300000000000000
#0543b0:00000053333300000000000000000000
#054320:0000000000130000
#054380:00000023
#054380:00000000000000000000000000130000
#054320:00000000000000000000000000000023
#0553a0:0014000000000000
#055320:00000000342400000000000000000000
#0553a0:0000000000140000
#055320:00000000000000000000000034240000
#057320:000000000000001c
#0573b0:000000000000000000000000000000000000000000003333
#0583b0:333333230000000000000000000000000000000000000000
#058320:0000000000000000000000000000000000000000001c3333
#059320:333333230000000000000000000000000000000000000000
#059320:0000000000000000000000000000000000000000001c3333
#060320:333333230000000000000000000000000000000000000000
#061320:000000001323000000000000000000000000000000000000
#061350:000000000000132300000000000000000000000000000000
#061380:000000000000000013230000000000000000000000000000
#061350:000000000000000000001323000000000000000000000000
#061320:000000000000000000000000132300000000000000000000
#0613b0:000000000000000000000000000000001323000000000000
#061380:000000000000000000000000000000000000132300000000
#061350:000000000000000000000000000000000000000013230000
#061380:000000000000000000000000000000000000000000001323
#0623b0:132300000000000000000000000000000000000000000000
#062320:000000001323000000000000000000000000000000000000
#062350:000000000000132300000000000000000000000000000000
#062380:000000000000000013230000000000000000000000000000
#062350:000000000000000000001323000000000000000000000000
#062320:000000000000000000000000132300000000000000000000
#0623b0:000000000000000000000000000000001323000000000000
#062380:000000000000000000000000000000000000132300000000
#062350:000000000000000000000000000000000000000013230000
#062380:000000000000000000000000000000000000000000001323
#0633b0:132300000000000000000000000000000000000000000000
#063320:0014000000000000
#0633a0:00000000342400000000000000000000
#0633a0:0000000000140000
#063320:00000000000000000000000034240000
#0643b0:00001300000053230000000000000000
#064360:00000053333300000000000000000000
#064321:00000000001300000000000000000000
#064371:00000000000053230000000000000000
#065321:0014000000000000
#066321:0034000000000000
#0663a1:00000054000000000000240000000000
#0663a0:0014000000000000
#066320:00000054000000000000240000000000
#071320:00000000000000000000133333230000
#0723b0:13333323000000000000000000000000
#072320:00000000000013333323000000000000
