This file was generated by Ched 2.7.0.0.
#TITLE ""
#ARTIST ""
#DESIGNER ""
#DIFFICULTY 0
#PLAYLEVEL
#SONGID ""
#WAVE ""
#WAVEOFFSET 0
#JACKET ""
#REQUEST "ticks_per_beat 480"
#00002: 4
#BPM01: 122
#00008: 01
#TIL00: ""
#HISPEED 00
#MEASUREHS 00
#0001a:14141400
#00014:00000014
#00114:14140000
#00118:00001414
#00218:14
#00212:00141414
#0031a:14
#00318:00000014
#0041a:0014
#00612:14
#00614:00000014
#00712:0014
#0091a:00140000
#00914:0014
#00918:00000014
#00910:00410000
#01012:1414
#01018:00140000
#0101a:00000014
#01114:14
#01312:14
#01314:00000014
#01412:0014
#01618:00140000
#01612:0014
#0161a:00000014
#01714:1414
#0171a:00140000
#01718:00000014
#01812:14
#02014:14
#02012:00000014
#02010:41
#02114:0014
#02714:0000000000140000
#02918:00140000
#02914:0014
#0291a:00000014
#02910:41
#03014:14
#03018:00140000
#03714:0014000000000000
#03818:0000000000140000
#04014:0000000000000014
#04118:0000001400000014
#04114:0000000000140000
#04112:0024000000000000
#0411f:0021000000000000
#04214:1400001400000000
#0421a:0014000000000000
#04218:0000000000140000
#04212:0000000000000014
#04210:0041000000000000
#0451a:0014000000000000
#04514:0000001400000000
#04518:0000000000140000
#04512:0000000000000014
#04618:0014000000140000
#04612:0000001400000000
#04614:0000000000000014
#04818:0014000000000000
#0481a:0000003400340034
#04914:0000001400000014
#04918:0000000000140000
#0491a:0024000000000000
#05018:1400001400000000
#05012:0014000000000000
#05014:0000000000140000
#0501a:0000000000000014
#05312:0014000000000000
#05318:0000001400000000
#05314:0000000000140000
#0531a:0000000000000014
#05414:0014000000140000
#0541a:0000001400000000
#05418:0000000000000014
#05614:0014000000000000
#05612:0000003400340034
#05718:0000001400000000
#05714:0000000000140000
#0571a:0000000000000014
#05712:0024000000000000
#05710:0041000000000000
#05814:1400001400000000
#05818:0014000000140000
#05812:0000000000000014
#05918:0014
#0591a:0014003400340000
#06014:0014
#06012:0014003400340000
#06114:0000001400000000
#06118:0000000000140000
#06112:0000000000000014
#0611a:0014000000000000
#06218:1400001400000000
#06214:0014000000140000
#0621a:0000000000000014
#06412:0014000000000000
#06418:0014000000000000
#0641a:0000000000140000
#06414:0000000000140000
#0661a:0014000000000000
#06614:0014000000000000
#06612:0000000000000014
#06718:0014000000000000
#06714:0000001400000014
#0671a:0000000000140000
#06818:0014000000140000
#06812:0000001400000000
#06814:0000000000000014
#0691a:0014000000000000
#06918:0000001400000000
#06916:0000000000140000
#06914:0000000000000014
#07012:0014000000000000
#07018:0000001400000000
#07014:0000000000140000
#0701a:0000000000000014
#07114:0014000000000000
#07118:0000001400000000
#0331f:11
#0431a:0000003400340000
#04412:0000003400340000
#05112:0000003400340000
#0521a:0000003400340000
#07318:34343434343434000000000000000000
#07218:00000000000000000000000000000034
#06510:0041000000000000
#0035a:64
#00358:00000024
#0045a:0064
#00652:54
#00654:00000024
#00752:0054
#01352:54
#01354:00000024
#01452:0054
#02054:64
#02052:00000024
#02154:0064
#02754:0000000000540000
#03754:0054000000000000
#03858:0000000000640000
#04054:0000000000000054
#04858:0054000000000000
#05654:0064000000000000
#05958:0024
#0595a:0054000000000000
#06054:0024
#06052:0064000000000000
#06452:0054000000000000
#06458:0054000000000000
#0645a:0000000000240000
#06454:0000000000240000
#04152:0014000000000000
#0495a:0014000000000000
#05752:0014000000000000
#0033a0:14
#003380:00000034
#0043a0:0034
#005380:00240000
#006320:14
#006340:00000034
#007320:0034
#008340:00240000
#0113a0:00140000
#011380:00000034
#0123a0:00343424
#013320:14
#013340:00000034
#014320:0034
#015340:00240000
#018380:00140000
#0183a0:00000034
#019380:00343424
#020340:14
#020320:00000034
#021340:0034
#022320:00000000340000000000003400340034
#023320:00340034002400000000000000000000
#0233a0:0000000014343434
#0243a0:34
#024380:0034343434342400
#024340:0000000000000014
#025340:3434343400000000
#025320:0000000034343434
#026320:3424000000000000
#026380:0000143434343400
#0263a0:0000000000000034
#0273a0:3434343424000000
#027340:0000000000140000
#029320:24
#030320:00000000000000001434342400000000
#030380:00000000000000000000000000001434
#031380:34240000000000000000000000000000
#031340:00000000143434340034003400340034
#032340:0000340000003400000034000034000000003400000000000000000024000000
#033380:1434343434000000
#0333a0:0000000000343434
#0343a0:3434240000000000
#034320:0000001434343434
#035340:3434343434240000
#0353a0:0000000000001434
#0363a0:3434340000000000
#036380:0000003434343434
#037380:24
#037340:0014000000000000
#038320:0024
#038380:0000000000140000
#0403a0:24
#040340:00001434342400000000000000000000
#040380:00000000000000001434342400000000
#040340:0000000000000014
#041320:0024000000000000
#043380:0014000000000000
#0433a0:0000003400340024
#044340:0014000000000000
#044320:0000003400340024
#0473a0:0014000000000000
#047380:0000002400000000
#047320:0000000000140000
#047340:0000000000000024
#048380:0014000000000000
#0483a0:0000003400340034
#0493a0:0024000000000000
#051340:0014000000000000
#051320:0000003400340024
#052380:0014000000000000
#0523a0:0000003400340024
#055320:0014000000000000
#055340:0000002400000000
#0553a0:0000000000140000
#055380:0000000000000024
#056340:0014000000000000
#056320:0000003400340034
#057320:0024000000000000
#0593a0:0014003400340024
#059380:0054
#060320:0014003400340024
#060340:0054
#063320:0014000000000000
#063340:0000002400000000
#063381:0014000000000000
#0633a1:0000002400000000
#0633a1:0000000000140000
#063381:0000000000000024
#063340:0000000000140000
#063320:0000000000000024
#064320:0014000000000000
#064340:0000000000540000
#065320:0024000000000000
#064381:0014000000000000
#0643a1:0000000000540000
#065381:0024000000000000
#071341:00000000000000000000143434240000
#072381:14343424000000000000000000000000
#072341:00000000000014343424000000000000
#072381:00000000000000000000000014343434
#073381:34343434343434000000000000000000
#0733a1:00000000000000240000000000000000
