This file was generated by Ched 2.6.4.0.
#TITLE ""
#ARTIST ""
#DESIGNER ""
#DIFFICULTY 0
#PLAYLEVEL
#SONGID ""
#WAVE ""
#WAVEOFFSET 0
#JACKET ""
#REQUEST "ticks_per_beat 480"
#00002: 4
#BPM01: 260
#00008: 01
#TIL00: ""
#HISPEED 00
#MEASUREHS 00
#05218:2616
#05210:41
#05312:1616
#05418:16
#05412:0016
#05612:1616
#05718:1616
#05812:16
#05818:0016
#06018:1616
#06112:16
#06118:0016
#06212:1616
#06318:16
#06312:0016
#06418:1616
#06512:1616
#07514:0014
#07518:14
#07814:14
#07918:14
#10012:2616
#1001f:21
#10118:1616
#10212:16
#10218:0016
#10210:41
#10418:1616
#10512:1616
#10618:16
#10612:0016
#10812:16
#10818:0016
#10912:16
#10918:0016
#11012:16
#11018:0016
#11218:16
#11212:0016
#11318:16
#11312:0016
#11418:16
#11412:0016
#11612:1616
#11712:1616
#11818:1616
#11918:1616
#12012:1616
#12118:1616
#00012:14
#0011a:14
#00418:14
#00410:41
#00518:14
#00614:14
#00714:14
#0081a:14
#0091a:14
#01012:14
#01112:14
#01218:14
#01314:14
#01418:14
#01514:14
#0161a:14
#01712:14
#0181a:14
#01912:14
#02018:14
#02010:41
#02118:14
#02214:14
#02314:14
#0321a:14
#03312:14
#0241a:14
#0251a:14
#02612:14
#02712:14
#03614:14
#03610:41
#03714:14
#03818:14
#03918:14
#04012:14
#04112:14
#0421a:14
#0431a:14
#04812:14
#0491a:14
#1261a:14
#12712:14
#12818:14
#12914:14
#1301a:14
#13112:14
#13218:1616
#13312:1616
#13418:1616
#13512:1616
#0841f:11
#07018:24
#07214:24
#07618:24
#08218:24
#12210:41
#002320:14
#003320:24
#028380:14
#029380:24
#030340:14
#031340:24
#0343a0:14
#0353a0:24
#044340:14
#045340:24
#046380:14
#047380:24
#050320:14
#051320:24
#055380:1626
#059320:1626
#066380:16
#067380:26
#068320:14
#069320:24
#070380:14
#071380:24
#072340:14
#074340:24
#076380:14
#077380:24
#080320:14
#081320:24
#082380:14
#083380:24
#084320:14
#085340:24
#0863a0:14
#087380:24
#088320:14
#089340:24
#0903a0:14
#091380:24
#092340:14
#093320:24
#094380:14
#0953a0:24
#096340:14
#097320:24
#098380:14
#0993a0:24
#103320:1626
#107380:1626
#111320:1626
#115380:1626
#122320:16
#124320:26
#136380:16
#140380:00260000
