This file was generated by Ched 2.6.4.0.
#TITLE ""
#ARTIST ""
#DESIGNER ""
#DIFFICULTY 0
#PLAYLEVEL
#SONGID ""
#WAVE ""
#WAVEOFFSET 0
#JACKET ""
#REQUEST "ticks_per_beat 480"
#00002: 4
#BPM01: 260
#00008: 01
#TIL00: ""
#HISPEED 00
#MEASUREHS 00
#0841f:11
#08416:00000022
#0841c:22
#12417:0000000000120000000000000000000000000000000000000000000000000000
#12314:0000000000001200000000000000000000120000000000000000000012000000
#12316:0000001200000000
#12312:12000000000000000000001200000000
#12214:1a120012
#12216:0012
#12212:12
#12210:41
#12012:0014140000161600
#1201a:1400001414000000
#12018:0000000000000016
#12114:000000000000001a
#12112:00181800001a1a00
#12116:0000001818000000
#12118:16
#11418:0000000000140000
#11414:00000014
#11412:1414
#1141a:0000140000000014
#11416:0014001400000000
#1161a:14
#11617:00000017
#11619:00150000
#11612:0014001500160017
#11618:0016
#11517:0014
#11512:14
#11912:18191c1c
#11916:0018001800000000
#11812:14151617
#11817:0000000000000017
#11818:0000000000160000
#11819:0000001500000000
#1181a:0014000000000000
#11715:00190000
#11712:001800181c001c00
#11716:18
#1131b:1300000000130013
#11318:0013000000000000
#11312:13
#11315:00130000
#11316:00000013
#11212:1300001300001300
#11215:00130000
#11218:0013000000000000
#1121b:13
#11217:0000000000000013
#03316:0000140000000014
#0331b:13
#03312:000000001c1c0000
#03314:0000001800001800
#06412:1800000000000014
#0641a:00000014
#06413:0018000000000000
#06415:0000001800000000
#06416:0018
#06414:00180000
#06516:18
#06515:0018000000000000
#06513:0000001800000000
#06512:00001814
#06514:00180000
#0651a:0000000000000014
#03612:0014001500160017
#0361a:14
#03617:00000017
#03618:0016
#03619:00150000
#03610:41
#03712:0018001700160015
#03719:00000015
#03718:0016
#03717:00170000
#03716:18
#0591a:24142414
#05912:13
#05916:0000001300000000
#10712:24142414
#1071b:13
#10717:0000001300000000
#13516:0000180000180000
#13515:00000019
#13517:0017
#13412:0000170016171800
#13318:0000160000160000
#13317:00000017
#13319:0015
#13212:1600150014151600
#08016:00130000
#08012:13
#08015:0026
#07912:13
#07816:00001313
#07817:00130000
#0781b:13
#06917:0013
#0691b:13
#06816:0000001300000000
#06812:13
#0681b:00000013
#10516:0000141400001414
#10512:0014000000140000
#1051a:1414
#05712:0000000000000014
#05713:0000000000140000
#05714:0000001400000000
#05715:0014000000000000
#05717:00000014
#05718:0014
#05719:00140000
#0571a:14
#13015:00131300
#13018:1300000000130000
#1301b:0013
#13012:24000013
#1301a:00240000
#12618:00131300
#12615:1300000000130000
#12612:00241300
#1261b:00000013
#1261a:24
#13112:0013
#1311b:00000013
#13117:0000001300000000
#12915:0000130000130013
#12912:1313
#12918:0013001300001300
#1291b:1313
#1271b:0013
#12712:00000013
#12716:0000001300000000
#12817:0014000000000000
#1281a:14240000
#12818:0000000000130013
#12815:00000013
#12812:2413
#1281b:0013
#11015:0000130000130013
#11018:0013001300001300
#11012:1313
#1101b:1313
#11112:13
#11115:00000013000000000000000000000000
#1111b:13
#11118:00000013000000000000000000000000
#10818:0013000000001300
#10812:0000000013000013
#10815:0000130000130000
#1081b:1300001300000000
#1041b:2313
#10412:1323
#10415:0000230000130013
#10418:0013001300002300
#10316:00000013000000000000000000000000
#10312:13
#10215:16001313
#10218:0000001300000013
#1021b:0013000000130000
#10212:00130000
#10210:41
#10112:1300000000000013
#10115:0000130000160000
#1011b:13000013
#10118:0000001300000000
#05315:0000131300001300
#05318:0000000000160013
#0531b:13
#05312:13
#05515:13
#05415:00131300
#0541b:0000001300000000
#05418:0013000000130013
#05412:16000013
#10012:1300000023130000
#10012:13
#10018:0000230000000013
#10015:0000001300002300
#1001b:2313000013000000
#1001f:21
#06612:14
#06617:0014
#0611b:13131300
#0611b:13
#06112:00000013
#06116:0013001300000000
#06012:1300130013000013
#06012:13
#0601b:00000013
#06017:0013001300000000
#04912:1316
#0491b:00001313
#04918:16130000
#04915:0013001300000000
#03816:0000001400140000
#0381a:1400000000000014
#03812:00140000
#03414:0000001400000000001400000000001400000000001400000000000000000000
#03416:14000014000014000014000000000000
#03412:1400001400000000
#03418:0000001400000000001400000000001400000000001400000000000000000000
#0341a:00000014000000000014000000000000
#02312:00130000
#0231b:1313
#0211b:00130000
#02112:1313
#01716:0013
#01717:00000013
#0171b:0000001300000000
#01317:0013
#01316:00000013
#01312:0000001300000000
#06318:00130000
#06315:0013000000000000
#06312:13
#0621b:13
#06212:0000001300000000
#06215:00132300
#06218:0013000000000000
#05016:0000000000000014
#05018:0013000000130000
#05012:0000001300000000
#0501b:13000013
#05015:00131300
#03218:0000000000000013
#03212:0000000000130000
#0321b:0000001300000000
#03215:0013000000000000
#0221b:1313
#02212:0013000000000013
#02218:00130013
#02215:0000001300130000
#02216:13
#02012:1313
#0201b:0013000000000013
#02015:00130013
#02018:0000001300130000
#02017:13
#02010:41
#04115:00000013
#04218:0013000000000013
#04212:13
#04215:00130000
#0421b:0013
#02915:1300000000130013
#02918:00000013
#0291b:0013
#02912:0000001300000000
#02818:0000000000130013
#02815:00000013
#02812:0013
#0281b:0000001300000000
#03015:0000001300000013
#03018:00130013
#03012:0000000000130000
#0301b:1313
#0311a:00000014
#03119:0015
#03118:00160000
#03117:17
#03112:25262728
#02715:00000013
#02714:0023
#02713:00230000
#02719:0023
#0271a:00230000
#02712:23
#0271b:23
#04412:0000001300000000
#0441b:0013
#04415:0000000000130013
#04418:00000013
#04518:1300000000130013
#0451b:0000001300000000
#04512:0013
#04515:00000013
#04615:00130013
#04612:1313
#04618:0000001300000013
#0461b:0000000000130000
#04712:17161514
#04716:00000028
#04717:0027
#04718:00260000
#04719:25
#04312:0000001300000000
#04315:0013000000000000
#06715:00000013
#06718:0013
#0671b:00130000
#1061b:0000000000000013
#10618:0000240000130000
#10615:0000001300000000
#10612:0013000000000000
#10614:00000024
#10616:0024
#1061a:24
#04019:0000001300000013
#04014:0000000000130000
#04015:0013000000000000
#01812:1413
#01815:0000000000130013
#01818:00000013
#0181b:0013
#01816:00240000
#0181a:24
#01618:00000013
#01612:2413
#01615:0000000000130000
#0161a:00240000
#01515:0000000000000013
#0151b:00001313
#01518:0000001300000000
#01512:13130000
#0141a:14
#01418:0000000000130013
#01415:00000013
#01412:2413
#0141b:0013
#01416:00240000
#05112:0000001400000000
#05118:00140000
#05114:0014000000000000
#0511a:14
#05116:0014
#09915:0000000000000013
#09918:00000013
#09912:28
#05615:0000230000130013
#05618:0013001300002300
#05612:0023
#0561b:23
#05212:1323
#05212:13
#05215:0000230000130013
#05218:0013001300002300
#0521b:2313
#05210:41
#01918:00000012
#01914:0000000000120000
#01912:0000000000000012
#0191a:12121200
#01916:0012001200000000
#00112:00130013
#0011b:1313
#00015:0013000000000013
#00018:13000013
#0081b:1313000000131300
#00815:00131300
#00818:0000001300000000
#00812:24000024
#00718:0000121200001212
#00716:1212000012120000
#01018:0013001300130000
#01015:00131300
#0101b:13000013
#01012:24000024
#0091b:1300001300001300
#00915:00131300
#00918:0013000000130000
#00912:24000024
#00615:0013001300130000
#00618:00131300
#00612:13000013
#0061a:24000024
#00512:1300001300001300
#00518:00131300
#00515:0013000000130000
#0051a:24000024
#10915:0000000000130013
#10918:00000013
#0481b:1313
#04812:1316
#04818:0013001300130013
#04815:00130013
#03918:00160000
#03912:16
#02519:0000001300000013
#02514:00130013
#0251b:0000000000130000
#02516:0013
#02517:0013000000000000
#02512:13
#02415:0000001300000013
#02418:00001313
#0241b:0000000000130000
#02412:13130000
#02616:0000000000130013
#0261b:00001313
#02617:0013001300000000
#02612:13130000
#00418:00131300
#00412:0013000000131300
#00415:0000001300000000
#0041a:24000024
#00410:41
#01215:00000013
#0121b:0013
#01218:0000000000130000
#01212:00240000
#0121a:24
#05812:0013000024000013
#0581b:0000001300130000
#05816:00240024
#0581a:24
#08215:26
#07615:26
#07215:26
#07015:26
#09618:0000000000000022
#09614:22
#09816:00000022
#09818:0022
#0981a:00220000
#0981c:22
#09712:22
#09518:0000002200000022
#09516:00000022
#0951a:2200000000220000
#09514:0022000022000000
#09416:0000000000000022
#0941c:22000022
#09414:0022
#09316:22000022
#0921a:00000022
#09216:0000000000220000
#09218:22
#09114:00000022
#09112:0022000000000000
#0911a:0000002200220000
#09116:0022
#09118:22
#09016:2200220000000022
#09018:0000002200002200
#09014:0022
#0891c:00000022
#08916:0000002200000000
#08918:00220000
#08914:0022000000000000
#0891a:22
#08814:00000022
#08818:2200002200000000
#08812:0022000000000000
#08714:0000220000000022
#0871a:0022000000002200
#08716:2200000000220000
#08718:0000002200000000
#0861a:0022
#08614:22
#0851a:22000022
#13617:22
#03512:26
#08312:22
#01115:22
#01119:00000022
#01117:0000002200000000
#1095b:0000001300000000
#10952:0000001300000000
#08252:00000013
#11152:53000013
#1115b:63000013
#11155:00000023000000000000000000000000
#11158:00000023000000000000000000000000
#06352:00000013
#0635b:00000013
#02858:13
#04455:13
#04358:00000013
#04352:0000001300000000
#04355:0013000000000000
#04158:0013
#04155:0013
#05152:00000000000000000000001c00000000
#05156:0024
#1305a:00440000
#13052:34
#12852:34
#1285a:64440000
#12857:0024000000000000
#12652:00340000
#1265a:44
#01856:00140000
#0185a:14
#01852:54
#0165a:00140000
#01652:14
#01252:00140000
#0125a:14
#03152:15161718
#0315a:00000014
#03159:0015
#03158:00160000
#03157:17
#04756:00000018
#04757:0017
#04758:00160000
#04759:15
#04752:17161514
#01456:00140000
#01452:14
#0145a:64
#00952:14000014
#00852:14000014
#01052:14000014
#0055a:14000014
#0045a:14000014
#0065a:14000014
#12457:0000000000220000000000000000000000000000000000000000000000000000
#12354:0000000000005200000000000000000000520000000000000000000052000000
#12356:0000002200000000
#12352:22000000000000000000002200000000
#12254:1a520052
#12256:0022
#12252:22
#12152:0018001a
#12156:0018
#12158:16
#12052:00140016
#1205a:1414
#1165a:14
#11657:00000017
#11659:00150000
#11658:0016
#11557:0024
#11552:54
#11952:18191c00
#11852:14151617
#11755:00190000
#11752:001c
#11756:18
#06552:0018
#05952:53
#05956:0000002300000000
#08056:00230000
#08052:53
#07952:23
#07856:00000063
#07857:00230000
#0785b:63
#06957:0023
#0695b:63
#06856:0000002300000000
#06852:53
#10556:0000141400001414
#10552:0014000000140000
#1055a:1414
#05752:0000000000000014
#05753:0000000000140000
#05754:0000001400000000
#05755:0014000000000000
#05757:00000014
#05758:0014
#05759:00140000
#0575a:14
#13152:0053
#1315b:00000013
#12955:0000000000230000
#12952:0053
#12958:0023000000000000
#1295b:63
#1275b:0063
#12752:00000013
#10356:00000023000000000000000000000000
#10352:53
#10152:13
#1015b:63
#10158:0000005300000000
#05355:0000006300000000
#0535b:63
#05352:13
#05555:63
#10052:13
#1005b:0013
#1075b:63
#10757:0000002300000000
#06652:54
#06657:0024
#0615b:0023
#06052:0023
#04952:0066
#0495b:0013
#04958:16
#03856:0000005400640000
#0385a:64
#03454:0000005400000000005400000000005400000000005400000000000000000000
#03456:24000024000024000024000000000000
#03452:2400002400000000
#03458:0000005400000000005400000000005400000000005400000000000000000000
#0345a:00000024000000000024000000000000
#02352:00530000
#0235b:63
#0215b:00630000
#02152:53
#01756:0063
#01757:00000013
#01357:0053
#01356:00000013
#04255:00130000
#0425b:0013
#04258:0000000000000013
#0305b:13
#02755:00000013
#02955:13
#04558:13
#04652:13
#05252:13
#0525b:0013
#00152:00130000
#0015b:13
#04852:1316
#06456:0018
#000380:00132300
#000351:00000000000000001333333323000000
#000341:0000000000000000000000000000000000330033003300330000000000000000
#001351:0000000000000016
#002351:000000000000000000000000000000000000000000000000000000000000000000000000000000000000000000000000000000000000000000000000000000000000000000000000000000000000000000000000000000000000000000000000000000000000000000000000000000000000000000000000000000000000000000000000000000000000000000000000000000000000000000000000000000000000000000000000000000000000000000000000000000000000000000000000000000000000000000000000000000000000000000000000000000000000000000000000000000000000000000000000000000000000000000000000000000000000000000000000000000000000000000000000000000000000000000000000000000000000000000000000000000000000000000000000000000000000000000000000000000000000000000000000000000000000000000000000000000000000000000000000000000000000000000000000000000000000000000000000000000000000000000000000000000000000000000000000000000000000000000000000000000000000000000000000000000000000000000000000000000000000000000000000000000000000000000000000000000000000000000000000000000000000000000000000000000000000000000000000000000000000000000000000000000000000000000000000000000000000000000000000000000000000000000000000000000000000000000000000000000000000000000000000000000000000000000000000000000000000000000000000000000000000000000000000000000000000000000000000000000000000000000000000000000000000000000000000000000000000000000000000000000000000000000000000000000000000000000000000000000000000000000000000000000000000000000000000000000000000000000000000000000000000000000000000000000000000000000000000000000000000000000000000000000000000000000000000000000000000000000000000000000000000000000000000000000000000000000000000000000000000000000000000000000000000000000000000000000000000000000000000000000000000000000000000000000000000000000000000000000000000000000000000000000000000000000000000000000000000000000000000000000000000000000000000000000000000000000000000000000000000000000000000000000000000000000000000000000000000000000000000000000000000000000000000000000000000000000000000000000000000000000000000000000000000000000000000000000000000000000000000000000000000000000000000000000000000000000000000000000000000000000000000000000000000000000000000000000000000000000000000000000000000000000000000000000000000000000000000000000000000000000000000000000000000000000000000000000000000000000000000000000000000000000000000000000000000000000000000000000000000000000000000000000000000000000000000000000000000000000000000000000000000000000000000000000000000000000000000000000000000000000000000000000000000000000000000000000000000000000000000000000000000000000000000000000000000000000000000000000000000000000000000000000000000000000000000000000000000000000000000000000000000000000000000000000000000000000000000000000000000000000000000000000000000000000000000000000000000000000000000000000000000000000000000000000000000000000000000000000000000000000000000000000000000000000000000000000000000000000000000000000000000000000000000000000000000000000000000000000000000000000000000000000000000000000000000000000000000000000000000000000000000000000000000000000000000000000000000000000000000000000000000000000000000000000000000000000000000000000000000000000000000000000000000000000000000000000000000000000000000000000000000000000000000000000000000000000000000000000000000000000000000000000000000000000000000000000000000000000000000000000000000000000000000000000000000000000000000000000000000000000000000000000000000000000000000000000000000000000000000000000000000000000000000000000000000000000000000000000000000000000000000000000000000000000000000000000000000000000000000000000000000000000000000000000000000000000000000000000000000000000000000000000000000000000000000000000000000000000000000000000000000000000000000000000000000000000000000000000000000000000000000000000000000000000000000000000000000000000000000000000000000000000000000000000000000000000000000000000000056
#003371:32000022
#003320:0000000000000000000000000000000000000000000000001353535353535353
#003330:00000000000000000000000000000000000000000000000000000000000000000000000000000000000000000000000000530053005300530053005300530053
#004320:23
#011320:0000000000000000000000000000000000000000000000001353535353535353
#011330:00000000000000000000000000000000000000000000000000000000000000000000000000000000000000000000000000530053005300530053005300530053
#012320:23
#012320:0000000000000013
#013360:0023000000000000
#0133b1:0013000000000000
#013371:0000002300000000
#013371:0013
#0133b1:00000023
#0143a1:14
#014361:00240000
#0153b1:13230000
#015321:00001323
#0163b1:0000000000000013
#017371:0023000000000000
#017320:0013000000000000
#017360:0000002300000000
#017360:0013
#017320:00000023
#018320:14
#018360:00240000
#021320:13
#021360:00230000
#0213b1:00130000
#021371:0023
#0233b1:13
#023371:00230000
#023320:00130000
#023360:0023
#0243b0:13
#024370:00230000
#027380:00000013
#028380:23
#028321:13
#028361:0000002300000000
#0293b1:13
#029371:0000002300000000
#030321:13230000
#0323b1:13230000
#032350:00132300
#032381:00001323
#032320:00000013
#033320:23
#034320:1400005400002400
#034340:0000005400000000005400000000005400000000005400000000000000000000
#034360:00000054000000000054000000000000
#034361:1400005400002400
#034381:0000005400000000005400000000005400000000005400000000000000000000
#0343a1:00000054000000000054000000000000
#035381:165656565656565656565656565656565656260000000000
#035391:005400540054005400540054005400540054005400540054005400540054005400540054000000000000000000000000
#035320:165656565656565656565656565656565656260000000000
#035330:005400540054005400540054005400540054005400540054005400540054005400540054000000000000000000000000
#0383a0:14
#038360:00240000
#038360:0000001400000000
#0383a0:0000000000240000
#038361:0000000000140000
#038321:0000000000000024
#039321:0016
#040321:26
#0403b0:13
#040370:00230000
#040321:00130000
#040361:0023
#0403b0:0013
#040370:00000023
#040321:00000013
#041361:23
#0413b0:13
#041380:0053000023000000
#041321:00130000
#041351:0000005323000000
#0413b1:00000013
#0423b1:23
#042321:0000000000130023
#043381:00001323
#043350:00000013
#044350:23
#0443b1:13
#044371:0000002300000000
#045321:13
#045361:0000002300000000
#0463b1:13230000
#049321:00001623
#051361:0014
#051321:00000000000000000000002c00000000
#0533b1:13
#053381:00230000
#053351:0000001300000000
#053321:0000000000230000
#055351:13
#055321:00000000000033535353535323000000
#055331:0000000000000000000000000053005300530053005300530000000000000000
#0553b0:00000000000013535353535323000000
#0553a0:0000000000000000000000000053005300530053005300530000000000000000
#059320:13000023
#059360:0000005300000000
#060320:0013
#060360:00000023
#0613b0:0013
#061370:00000023
#062380:00001323
#062351:00001323
#063321:0000001300002300
#0633b0:0000001300002300
#066320:14
#066370:0054
#067320:24
#068320:13000023
#068360:0000005300000000
#0693b0:13
#069370:0053
#0703b0:53
#0713b0:33
#071390:00530000530000000000000053000053
#0713a0:0053000000000053
#071380:00000053000053000000530000530000
#071370:00000000005300005300005300000000
#071360:00000000000000530053000000000000
#0723b0:53
#0743b0:33535353535353535353535353535353
#074390:0055000000000000000000000000000000000000000000000000000000000055
#074380:0000005600000000000000000000000000000000000000000000000000560000
#074370:0000000000570000000000000000000000000000000000000000005700000000
#074360:0000000000000058000000000000000000000000000000000058000000000000
#074350:0000000000000000005900000000000000000000000000590000000000000000
#074340:00000000000000000000005a0000000000000000005a00000000000000000000
#074330:000000000000000000000000005b00000000005b000000000000000000000000
#074320:0000000000000000000000000000005c005c0000000000000000000000000000
#0753b0:23
#070351:16
#071351:26
#072351:16
#074351:26
#075360:00130000
#075320:0000005323000000
#075371:0013
#0753b1:0000000000532300
#075360:00000013
#075320:0000000000000053
#077320:00330000
#077360:0000005323000000
#076351:16
#077351:00260000
#0773b1:0013
#077371:0000000000532300
#077320:00000013
#077360:0000000000000053
#078360:23
#0783b1:1323
#078371:00530000
#078361:00000013
#079321:53
#079361:00230000
#0793b0:00132300
#079351:00001323
#079380:00000013
#080380:23
#080321:1353
#080361:00530000
#081321:33
#081341:00530000530000000000000053000053
#081331:0053000000000053
#081351:00000053000053000000530000530000
#081361:00000000005300005300005300000000
#081371:00000000000000530053000000000000
#082321:53000023
#080350:0016
#081350:26
#082350:16000026
#083320:120000000000000000000000000000000000000000000000000000000000000000000000000000000000000000000000000000000000000000000000000000000000000000000000000000000000000000000000000000000000000000000000000000000000000000000000000000000000000000000000000000000000000000000000000000000000000000000000000000000000000000000000000000000000000000000000000000000000000000000000000000000000000000000000000000000000000000000000000000000000000000000000000000000000000000000000000000000000000000000000000000000000000000000000000000000000000000000000000000000000000000000000000000000000000000000000000000000000000000000000000000000000000000000000000000000000000000000000000000000000000000000000000000000000000000000000000000000000000000000000000000000000000000000000000000000000000000000000000000000000000000000000000000000000000000000000000000000000000000000000000000000000000000000000000000000000000000000000000000000000000000000000000000000000000000000000000000000000000000000052330000000000000000000000000000000000000000000000000000000000000000000000000000000000000000000000000000000000000000000000000000000000000000000000000000000000000000000000000000000000000000000000000000000000000000000000000000000000000000000000000000000000000000000000000000000000000000000000000000000000000000000000000000000000000000000000000000000000000000000000000000000000000000000000000000000000000000000000000000000000000000000000000000000000000000000000000000000000000000000053340000000000000000000000000000000000000000000000000000000000000000000000000000000000000000000000000000000000000000000000000000000000000000000000000000000000000000000000000000000000000000000000000000000000000000000000000000000000000000000000000000000000000000000000000000000000000000000000000000000000000000000000000000000000000000000000000000000000000000000000000000000000000000000000000000000000000000000000000000000000000000000000000000000000000000000000000000000000000000000054350000000000000000000000000000000000000000000000000000000000000000000000000000000000000000000000000000000000000000000000000000000000000000000000000000000000000000000000000000000000000000000000000000000000000000000000000000000000000000000000000000000000000000000000000000000000000000000000000000000000000000000000000000000000000000000000000000000000000000000000000000000000000000000000000000000000000000000000000000000000000000000000000000000000000000000000000000000000000000000055360000000000000000000000000000000000000000000000000000000000000000000000000000000000000000000000000000000000000000000000000000000000000000000000000000000000000000000000000000000000000000000000000000000000000000000000000000000000000000000000000000000000000000000000000000000000000000000000000000000000000000000000000000000000000000000000000000000000000000000000000000000000000000000000000000000000000000000000000000000000000000000000000000000000000000000000000000000000000000000056370000000000000000000000000000000000000000000000000000000000000000000000000000000000000000000000000000000000000000000000000000000000000000000000000000000000000000000000000000000000000000000000000000000000000000000000000000000000000000000000000000000000000000000000000000000000000000000000000000000000000000000000000000000000000000000000000000000000000000000000000000000000000000000000000000000000000000000000000000000000000000000000000000000000000000000000000000000000000000000057380000000000000000000000000000000000000000000000000000000000000000000000000000000000000000000000000000000000000000000000000000000000000000000000000000000000000000000000000000000000000000000000000000000000000000000000000000000000000000000000000000000000000000000000000000000000000000000000000000000000000000000000000000000000000000000000000000000000000000000000000000000000000000000000000000000000000000000000000000000000000000000000000000000000000000000000000000000000000000000058
#084320:29
#0843c1:12000022
#084360:00000012
#085360:22
#0853a1:1222
#0853a1:00000012
#0863a1:22
#086340:1222
#0863a1:0012
#0873a1:22
#087360:1222000000000000
#0873a1:0012220000000000
#087340:0000122200000000
#087381:0000001200220000
#087360:0000000000122200
#0873a1:0000000000001222
#087340:0000000000000012
#088340:22
#088381:1222000000000000
#088320:0012002200000000
#088381:0000001200002200
#088340:00000012
#089340:22
#0893a1:1222000000000000
#089340:0012220000000000
#089381:0000122200000000
#089360:0000001200002200
#0893c1:00000012
#0903c1:22
#090361:0000122200000000
#090380:0000001222000000
#090341:00001222
#090380:0000000000001222
#090361:0000000000000012
#091361:22
#091380:1222000000000000
#091321:0012002200000000
#0913a0:0000001222000000
#091361:0000000012220000
#0913a0:0000000000122200
#091341:00000012
#092341:22
#092380:1200000000220000
#092361:0000000000122200
#0923a0:00000012
#0933a0:22
#093361:1222
#093361:00000012
#094361:22
#0943c0:1222
#094341:00001222
#0943c0:0000000000001222
#094361:0000000000000012
#095361:22
#0953a0:1222000000000000
#095341:0012002200000000
#095380:0000001222000000
#095341:0000000012220000
#0953a0:0000000000122200
#095361:0000000000001222
#095380:0000000000000012
#096380:22
#096341:1200000000000022
#096380:0000000000000012
#097380:22
#097321:12
#098321:22
#099321:185700000000000000000000000000000000000000000000000000000000000000000000000000000000000000000000000000000000000000000000000000000000000000000000000000000000000000000000000000000000000000000000000000000000000000000000000000000000000000000000000000000000000000000000000000000000000000000000000000000000000000000000000000000000000000000000000000000000000000000000000000000000000000000000000000000000000000000000000000000000000000000000000000000000000000000000000000000000000000000000375600000000000000000000000000000000000000000000000000000000000000000000000000000000000000000000000000000000000000000000000000000000000000000000000000000000000000000000000000000000000000000000000000000000000000000000000000000000000000000000000000000000000000000000000000000000000000000000000000000000000000000000000000000000000000000000000000000000000000000000000000000000000000000000000000000000000000000000000000000000000000000000000000000000000000000000000000000000000000000000365500000000000000000000000000000000000000000000000000000000000000000000000000000000000000000000000000000000000000000000000000000000000000000000000000000000000000000000000000000000000000000000000000000000000000000000000000000000000000000000000000000000000000000000000000000000000000000000000000000000000000000000000000000000000000000000000000000000000000000000000000000000000000000000000000000000000000000000000000000000000000000000000000000000000000000000000000000000000000000000355400000000000000000000000000000000000000000000000000000000000000000000000000000000000000000000000000000000000000000000000000000000000000000000000000000000000000000000000000000000000000000000000000000000000000000000000000000000000000000000000000000000000000000000000000000000000000000000000000000000000000000000000000000000000000000000000000000000000000000000000000000000000000000000000000000000000000000000000000000000000000000000000000000000000000000000000000000000000000000000345300000000000000000000000000000000000000000000000000000000000000000000000000000000000000000000000000000000000000000000000000000000000000000000000000000000000000000000000000000000000000000000000000000000000000000000000000000000000000000000000000000000000000000000000000000000000000000000000000000000000000000000000000000000000000000000000000000000000000000000000000000000000000000000000000000000000000000000000000000000000000000000000000000000000000000000000000000000000000000000335200000000000000000000000000000000000000000000000000000000000000000000000000000000000000000000000000000000000000000000000000000000000000000000000000000000000000000000000000000000000000000000000000000000000000000000000000000000000000000000000000000000000000000000000000000000000000000000000000000000000000000000000000000000000000000000000000000000000000000000000000000000000000000000000000000000000000000000000000000000000000000000000000000000000000000000000000000000000000000000220000000000000000000000000000000000000000000000000000000000000000000000000000000000000000000000000000000000000000000000000000000000000000000000000000000000000000000000000000000000000000000000000000000000000000000000000000000000000000000000000000000000000000000000000000000000000000000000000000000000000000000000000000000000000000000000000000000000000000000000000000000000000000000000000000000000000000000000000000000000000000000000000000000000000000000000000000000000000000000000000000000000000000000000000000000000000000000000000000000000000000000000000000000000000000000000000000000000000000000000000000000000000000000000000000000000000000000000000000000000000000000000000000000000000000000000000000000000000000000000000000000000000000000000000000000000000000000000000000000000000000000000000000000000000000000000000000000000000000000000000000000000000000000000000000000000000000000000000000000000000000000000000000000000000000000000000000000000000000000000
#1013b1:13
#101381:00230000
#101381:0000001300000000
#1013b1:0000000000230000
#103321:13000000000033535353535323000000
#103361:00000053000000000000000000000000
#103331:0000000000000000000000000053005300530053005300530000000000000000
#1033b0:00000000000013535353535323000000
#1033a0:0000000000000000000000000053005300530053005300530000000000000000
#1073b0:13000023
#107370:0000005300000000
#109380:1323000000000000
#109321:0013002300000000
#1093b0:0000132300000000
#111320:13000000000033535353535323000000
#111350:00000053000000000000000000000000
#111330:0000000000000000000000000054005400540054005400540000000000000000
#1113b1:13000000000033535353535323000000
#111381:00000053000000000000000000000000
#111391:0000000000000000000000000054005400540054005400540000000000000000
#1123b1:0013
#112371:00000023
#113321:0000001300000000
#113361:0000000000230000
#115321:14
#115371:0054
#116321:24
#122321:12
#122341:00520052
#122361:0052
#123321:52000000000000000000005200000000
#123341:0000000000005200000000000000000000520000000000000000000052000000
#123361:0000005200000000
#124371:0000000000520000000000000000000000000000000000000000000000000000
#125321:2c
#126361:0000000000000013
#127321:0023000000000000
#127370:0013000000000000
#1273b0:0000002300000000
#1273b0:0013
#127370:00000023
#1283a0:14240000
#128370:0054000000000000
#1293b0:13230000
#129380:0053000000000000
#129320:00001323
#129350:0000000000530000
#130370:0000000000000013
#1313b0:0023000000000000
#131361:0013000000000000
#131321:0000002300000000
#131321:0013
#131361:00000023
#132381:1636000000003600
#132371:000000000000000000000000000000000000000000000000000000000000000000000000000000000000000000000000000000000000000000000000000000000000000000000000000000000000000000000000000000000000000000000000000000000000000000000000000000000000000000000000000000000000000000000000000000000000000000000000000000000000000000000000000000000000000000000000000000000000000000000000000000000000000000000000000000000000000000000000000000000000000000000000000000000000000000000000000000000000000000000000005600000000000000000000000000000000000000000000000000000000000000000000000000000000000000000000000000000000000000000000000000000000000000000000000000000000000000000000000000000000000000000000000000000000000000000000000000000000000000000000000000000000000000000000000000000000000000000000000000000000000000000000000000000000000000000000000000000000000000000000000000000000000000000000000000000000000000000000000000000000000000000000000000000000000000000000000000000000000000000000360000000000000000000000000000000000000000000000000000000000000000000000000000000000000000000000000000000000000000000000000000000000000000000000000000000000000000000000000000000000000000000000000000000000000000000000000000000000000000000000000000000000000000000000000000000000000000000000000000000000000000000000000000000000000000000000000000000000000000000000000000000000000000000000000000000000000000000000000000000000000000000000000000000000000000000000000000000000000000000000000000000000000000000000000000000000000000000000000000000000000000000000000000000000000000000000000000000000000000000000000000000000000000000000000000000000000000000000000000000000000000000000000000000000000000000000000000000000000000000000000000000000000000000000000000000000000000000000000000000000000000000000000000000000000000000000000000000000000000000000000000000000000000000000000000000000000000000000000000000000000000000000000000000000000000000000000000000000000000000000000000000000000000000000000000000000000000000000000000000000000000000000000000000000000000000000000000000000000000000000000000000000000000000000000000000000000000000000000000000000000000000000000000000000000000000000000000000000000000000000000000000000000000000000000000000000000000000000000000000000000000000000000000000000000000000000000000000000000000000000000000000000000000000000000000000000000000000000000000000000000000000000000000000000000000000000000000000000000000000000355600000000000000000000000000000000000000000000000000000000000000000000000000000000000000000000000000000000000000000000000000000000000000000000000000000000000000000000000000000000000000000000000000000000000000000000000000000000000000000000000000000000000000000000000000000000000000000000000000000000000000000000000000000000000000000000000000000000000000000000000000000000000000000000000000000000000000000000000000000000000000000000000000000000000000000000000000000000000000000056000000000000000000000000000000000000000000000000000000000000000000000000000000000000000000000000000000000000000000000000000000000000000000000000000000000000000000000000000000000000000000000000000000000000000000000000000000000000000000000000000000000000000000000000000000000000000000000000000000000000000000000000000000000000000000000000000000000000000000000000000000000000000000000000000000000000000000000000000000000000000000000000000000000000000000000000000000000000000000000000000000000000000000000000000000000000000000000000000000000000000000000000000000000000000000000000000000000000000000000000000000000000000000000000000000000000000000000000000000000000000000000000000000000000000000000000000000000000000000000000000000000000000000000000000000000000000000000000000000000000000000000000000000000000000000000000000000000000000000000000000000000000000000000000000000000000000000000000000000000000000000000000000000000000000000000000000000000000000000000000
#132361:000000000000000000000000000000000000000000000000000000000000000000000000000000000000000000000000000000000000000000000000000000000000000000000000000000000000000000000000000000000000000000000000000000000000000000000000000000000000000000000000000000000000000000000000000000000000000000000000000000000000000000000000000000000000000000000000000000000000000000000000000000000000000000000000000000000000000000000000000000000000000000000000000000000000000000000000000000000000000000000000000000000000000000000000000000000000000000000000000000000000000000000000000000000000000000000000000000000000000000000000000000000000000000000000000000000000000000000000000000000000000000000000000000000000000000000000000000000000000000000000000000000000000000000000000000000000000000000000000000000000000000000000000000000000000000000000000000000000000000000000000000000000000000000000000000000000000000000000000000000000000000000000000000000000000000000000000000000000000000000000005600000000000000000000000000000000000000000000000000000000000000000000000000000000000000000000000000000000000000000000000000000000000000000000000000000000000000000000000000000000000000000000000000000000000000000000000000000000000000000000000000000000000000000000000000000000000000000000000000000000000000000000000000000000000000000000000000000000000000000000000000000000000000000000000000000000000000000000000000000000000000000000000000000000000000000000000000000000000000000000360000000000000000000000000000000000000000000000000000000000000000000000000000000000000000000000000000000000000000000000000000000000000000000000000000000000000000000000000000000000000000000000000000000000000000000000000000000000000000000000000000000000000000000000000000000000000000000000000000000000000000000000000000000000000000000000000000000000000000000000000000000000000000000000000000000000000000000000000000000000000000000000000000000000000000000000000000000000000000000000355600000000000000000000000000000000000000000000000000000000000000000000000000000000000000000000000000000000000000000000000000000000000000000000000000000000000000000000000000000000000000000000000000000000000000000000000000000000000000000000000000000000000000000000000000000000000000000000000000000000000000000000000000000000000000000000000000000000000000000000000000000000000000000000000000000000000000000000000000000000000000000000000000000000000000000000000000000000000000000056000000000000000000000000000000000000000000000000000000000000000000000000000000000000000000000000000000000000000000000000000000000000000000000000000000000000000000000000000000000000000000000000000000000000000000000000000000000000000000000000000000000000000000000000000000000000000000000000000000000000000000000000000000000000000000000000000000000000000000000000000000000000000000000000000000000000000000000000000000000000000000000000000000000000000000000000000000000000000000000000000000000000000000000000000000000000000000000000000000000000000000000000000000000000000000000000000000000000000000000000000000000000000000000000000000000000000000000000000000000000000000000000000000000000000000000000000000000000000000000000000000000000000000000000000000000000000000000000000000000000000000000000000000000000000000000000000000000000000000000000000000000000000000000000000000000000000000000000000000000000000000000000000000000000000000000000000000000000000000000000000000000000000000000000000000000000000000000000000000000000000000000000000000000000000000000000000000000000000000000000000000000000000000000000000000000000000000000000000000000000000000000000000000000000000000000000000000000000000000000000000000000000000000000000000000000000000000000000000000000000000000000000000000000000000000000000000000000000000000000000000000000000000000000000000000000000000000000000000000000000000000000000000000000000000000000000000000000000000000000000
#132351:000000000000000000000000000000000000000000000000000000000000000000000000000000000000000000000000000000000000000000000000000000000000000000000000000000000000000000000000000000000000000000000000000000000000000000000000000000000000000000000000000000000000000000000000000000000000000000000000000000000000000000000000000000000000000000000000000000000000000000000000000000000000000000000000000000000000000000000000000000000000000000000000000000000000000000000000000000000000000000000000000000000000000000000000000000000000000000000000000000000000000000000000000000000000000000000000000000000000000000000000000000000000000000000000000000000000000000000000000000000000000000000000000000000000000000000000000000000000000000000000000000000000000000000000000000000000000000000000000000000000000000000000000000000000000000000000000000000000000000000000000000000000000000000000000000000000000000000000000000000000000000000000000000000000000000000000000000000000000000000000000000000000000000000000000000000000000000000000000000000000000000000000000000000000000000000000000000000000000000000000000000000000000000000000000000000000000000000000000000000000000000000000000000000000000000000000000000000000000000000000000000000000000000000000000000000000000000000000000000000000000000000000000000000000000000000000000000000000000000000000000000000000000000000000000000000000000000000000000000000000000000000000000000000000000000000000000000000000000000000000005600000000000000000000000000000000000000000000000000000000000000000000000000000000000000000000000000000000000000000000000000000000000000000000000000000000000000000000000000000000000000000000000000000000000000000000000000000000000000000000000000000000000000000000000000000000000000000000000000000000000000000000000000000000000000000000000000000000000000000000000000000000000000000000000000000000000000000000000000000000000000000000000000000000000000000000000000000000000000000056000000000000000000000000000000000000000000000000000000000000000000000000000000000000000000000000000000000000000000000000000000000000000000000000000000000000000000000000000000000000000000000000000000000000000000000000000000000000000000000000000000000000000000000000000000000000000000000000000000000000000000000000000000000000000000000000000000000000000000000000000000000000000000000000000000000000000000000000000000000000000000000000000000000000000000000000000000000000000000000000000000000000000000000000000000000000000000000000000000000000000000000000000000000000000000000000000000000000000000000000000000000000000000000000000000000000000000000000000000000000000000000000000000000000000000000000000000000000000000000000000000000000000000000000000000000000000000000000000000000000000000000000000000000000000000000000000000000000000000000000000000000000000000000000000000000000000000000000000000000000000000000000000000000000000000000000000000000000000000000000000000000000000000000000000000000000000000000000000000000000000000000000000000000000000000000000000000000000000000000000000000000000000000000000000000000000000000000000000000000000000000000000000000000000000000000000000000000000000000000000000000000000000000000000000000000000000000000000000000000000000000000000000000000000000000000000000000000000000000000000000000000000000000000000000000000000000000000000000000000000000000000000000000000000000000000000000000000000000000000000000000000000000000000000000000000000000000000000000000000000000000000000000000000000000000000000000000000000000000000000000000000000000000000000000000000000000000000000000000000000000000000000000000000000000000000000000000000000000000000000000000000000000000000000000000000000000000000000000000000000000000000000000000000000000000000000000000000000000000000000000000000000000000000000000000000000000000000000000000000000000000000000000000000000000000000000000000000000000000000000
#133381:26
#133320:1535000000003500
#133330:000000000000000000000000000000000000000000000000000000000000000000000000000000000000000000000000000000000000000000000000000000000000000000000000000000000000000000000000000000000000000000000000000000000000000000000000000000000000000000000000000000000000000000000000000000000000000000000000000000000000000000000000000000000000000000000000000000000000000000000000000000000000000000000000000000000000000000000000000000000000000000000000000000000000000000000000000000000000000000000000005500000000000000000000000000000000000000000000000000000000000000000000000000000000000000000000000000000000000000000000000000000000000000000000000000000000000000000000000000000000000000000000000000000000000000000000000000000000000000000000000000000000000000000000000000000000000000000000000000000000000000000000000000000000000000000000000000000000000000000000000000000000000000000000000000000000000000000000000000000000000000000000000000000000000000000000000000000000000000000000350000000000000000000000000000000000000000000000000000000000000000000000000000000000000000000000000000000000000000000000000000000000000000000000000000000000000000000000000000000000000000000000000000000000000000000000000000000000000000000000000000000000000000000000000000000000000000000000000000000000000000000000000000000000000000000000000000000000000000000000000000000000000000000000000000000000000000000000000000000000000000000000000000000000000000000000000000000000000000000000000000000000000000000000000000000000000000000000000000000000000000000000000000000000000000000000000000000000000000000000000000000000000000000000000000000000000000000000000000000000000000000000000000000000000000000000000000000000000000000000000000000000000000000000000000000000000000000000000000000000000000000000000000000000000000000000000000000000000000000000000000000000000000000000000000000000000000000000000000000000000000000000000000000000000000000000000000000000000000000000000000000000000000000000000000000000000000000000000000000000000000000000000000000000000000000000000000000000000000000000000000000000000000000000000000000000000000000000000000000000000000000000000000000000000000000000000000000000000000000000000000000000000000000000000000000000000000000000000000000000000000000000000000000000000000000000000000000000000000000000000000000000000000000000000000000000000000000000000000000000000000000000000000000000000000000000000000000000000000000000005500000000000000000000000000000000000000000000000000000000000000000000000000000000000000000000000000000000000000000000000000000000000000000000000000000000000000000000000000000000000000000000000000000000000000000000000000000000000000000000000000000000000000000000000000000000000000000000000000000000000000000000000000000000000000000000000000000000000000000000000000000000000000000000000000000000000000000000000000000000000000000000000000000000000000000000000000000000000000000055000000000000000000000000000000000000000000000000000000000000000000000000000000000000000000000000000000000000000000000000000000000000000000000000000000000000000000000000000000000000000000000000000000000000000000000000000000000000000000000000000000000000000000000000000000000000000000000000000000000000000000000000000000000000000000000000000000000000000000000000000000000000000000000000000000000000000000000000000000000000000000000000000000000000000000000000000000000000000000000000000000000000000000000000000000000000000000000000000000000000000000000000000000000000000000000000000000000000000000000000000000000000000000000000000000000000000000000000000000000000000000000000000000000000000000000000000000000000000000000000000000000000000000000000000000000000000000000000000000000000000000000000000000000000000000000000000000000000000000000000000000000000000000000000000000000000000000000000000000000000000000000000000000000000000000000000000000000000000000000000
#133340:000000000000000000000000000000000000000000000000000000000000000000000000000000000000000000000000000000000000000000000000000000000000000000000000000000000000000000000000000000000000000000000000000000000000000000000000000000000000000000000000000000000000000000000000000000000000000000000000000000000000000000000000000000000000000000000000000000000000000000000000000000000000000000000000000000000000000000000000000000000000000000000000000000000000000000000000000000000000000000000000000000000000000000000000000000000000000000000000000000000000000000000000000000000000000000000000000000000000000000000000000000000000000000000000000000000000000000000000000000000000000000000000000000000000000000000000000000000000000000000000000000000000000000000000000000000000000000000000000000000000000000000000000000000000000000000000000000000000000000000000000000000000000000000000000000000000000000000000000000000000000000000000000000000000000000000000000000000000000000000000005500000000000000000000000000000000000000000000000000000000000000000000000000000000000000000000000000000000000000000000000000000000000000000000000000000000000000000000000000000000000000000000000000000000000000000000000000000000000000000000000000000000000000000000000000000000000000000000000000000000000000000000000000000000000000000000000000000000000000000000000000000000000000000000000000000000000000000000000000000000000000000000000000000000000000000000000000000000000000000000350000000000000000000000000000000000000000000000000000000000000000000000000000000000000000000000000000000000000000000000000000000000000000000000000000000000000000000000000000000000000000000000000000000000000000000000000000000000000000000000000000000000000000000000000000000000000000000000000000000000000000000000000000000000000000000000000000000000000000000000000000000000000000000000000000000000000000000000000000000000000000000000000000000000000000000000000000000000000000000000005500000000000000000000000000000000000000000000000000000000000000000000000000000000000000000000000000000000000000000000000000000000000000000000000000000000000000000000000000000000000000000000000000000000000000000000000000000000000000000000000000000000000000000000000000000000000000000000000000000000000000000000000000000000000000000000000000000000000000000000000000000000000000000000000000000000000000000000000000000000000000000000000000000000000000000000000000000000000000000055340000000000000000000000000000000000000000000000000000000000000000000000000000000000000000000000000000000000000000000000000000000000000000000000000000000000000000000000000000000000000000000000000000000000000000000000000000000000000000000000000000000000000000000000000000000000000000000000000000000000000000000000000000000000000000000000000000000000000000000000000000000000000000000000000000000000000000000000000000000000000000000000000000000000000000000000000000000000000000000000000000000000000000000000000000000000000000000000000000000000000000000000000000000000000000000000000000000000000000000000000000000000000000000000000000000000000000000000000000000000000000000000000000000000000000000000000000000000000000000000000000000000000000000000000000000000000000000000000000000000000000000000000000000000000000000000000000000000000000000000000000000000000000000000000000000000000000000000000000000000000000000000000000000000000000000000000000000000000000000000000000000000000000000000000000000000000000000000000000000000000000000000000000000000000000000000000000000000000000000000000000000000000000000000000000000000000000000000000000000000000000000000000000000000000000000000000000000000000000000000000000000000000000000000000000000000000000000000000000000000000000000000000000000000000000000000000000000000000000000000000000000000000000000000000000000000000000000000000000000000000000000000000000000000000000000000000000000000000000000000
#133350:000000000000000000000000000000000000000000000000000000000000000000000000000000000000000000000000000000000000000000000000000000000000000000000000000000000000000000000000000000000000000000000000000000000000000000000000000000000000000000000000000000000000000000000000000000000000000000000000000000000000000000000000000000000000000000000000000000000000000000000000000000000000000000000000000000000000000000000000000000000000000000000000000000000000000000000000000000000000000000000000000000000000000000000000000000000000000000000000000000000000000000000000000000000000000000000000000000000000000000000000000000000000000000000000000000000000000000000000000000000000000000000000000000000000000000000000000000000000000000000000000000000000000000000000000000000000000000000000000000000000000000000000000000000000000000000000000000000000000000000000000000000000000000000000000000000000000000000000000000000000000000000000000000000000000000000000000000000000000000000000000000000000000000000000000000000000000000000000000000000000000000000000000000000000000000000000000000000000000000000000000000000000000000000000000000000000000000000000000000000000000000000000000000000000000000000000000000000000000000000000000000000000000000000000000000000000000000000000000000000000000000000000000000000000000000000000000000000000000000000000000000000000000000000000000000000000000000000000000000000000000000000000000000000000000000000000000000000000000000000000005500000000000000000000000000000000000000000000000000000000000000000000000000000000000000000000000000000000000000000000000000000000000000000000000000000000000000000000000000000000000000000000000000000000000000000000000000000000000000000000000000000000000000000000000000000000000000000000000000000000000000000000000000000000000000000000000000000000000000000000000000000000000000000000000000000000000000000000000000000000000000000000000000000000000000000000000000000000000000000055340000000000000000000000000000000000000000000000000000000000000000000000000000000000000000000000000000000000000000000000000000000000000000000000000000000000000000000000000000000000000000000000000000000000000000000000000000000000000000000000000000000000000000000000000000000000000000000000000000000000000000000000000000000000000000000000000000000000000000000000000000000000000000000000000000000000000000000000000000000000000000000000000000000000000000000000000000000000000000000000000000000000000000000000000000000000000000000000000000000000000000000000000000000000000000000000000000000000000000000000000000000000000000000000000000000000000000000000000000000000000000000000000000000000000000000000000000000000000000000000000000000000000000000000000000000000000000000000000000000000000000000000000000000000000000000000000000000000000000000000000000000000000000000000000000000000000000000000000000000000000000000000000000000000000000000000000000000000000000000000000000000000000000000000000000000000000000000000000000000000000000000000000000000000000000000000000000000000000000000000000000000000000000000000000000000000000000000000000000000000000000000000000000000000000000000000000000000000000000000000000000000000000000000000000000000000000000000000000000000000000000000000000000000000000000000000000000000000000000000000000000000000000000000000000000000000000000000000000000000000000000000000000000000000000000000000000000000000000000000000000000000000000000000000000000000000000000000000000000000000000000000000000000000000000000000000000000000000000000000000000000000000000000000000000000000000000000000000000000000000000000000000000000000000000000000000000000000000000000000000000000000000000000000000000000000000000000000000000000000000000000000000000000000000000000000000000000000000000000000000000000000000000000000000000000000000000000000000000000000000000000000000000000000000000000000000000000000000000000000000
#134320:25
#1343a1:1434000000003400
#134391:000000000000000000000000000000000000000000000000000000000000000000000000000000000000000000000000000000000000000000000000000000000000000000000000000000000000000000000000000000000000000000000000000000000000000000000000000000000000000000000000000000000000000000000000000000000000000000000000000000000000000000000000000000000000000000000000000000000000000000000000000000000000000000000000000000000000000000000000000000000000000000000000000000000000000000000000000000000000000000000000005400000000000000000000000000000000000000000000000000000000000000000000000000000000000000000000000000000000000000000000000000000000000000000000000000000000000000000000000000000000000000000000000000000000000000000000000000000000000000000000000000000000000000000000000000000000000000000000000000000000000000000000000000000000000000000000000000000000000000000000000000000000000000000000000000000000000000000000000000000000000000000000000000000000000000000000000000000000000000000000340000000000000000000000000000000000000000000000000000000000000000000000000000000000000000000000000000000000000000000000000000000000000000000000000000000000000000000000000000000000000000000000000000000000000000000000000000000000000000000000000000000000000000000000000000000000000000000000000000000000000000000000000000000000000000000000000000000000000000000000000000000000000000000000000000000000000000000000000000000000000000000000000000000000000000000000000000000000000000000000000000000000000000000000000000000000000000000000000000000000000000000000000000000000000000000000000000000000000000000000000000000000000000000000000000000000000000000000000000000000000000000000000000000000000000000000000000000000000000000000000000000000000000000000000000000000000000000000000000000000000000000000000000000000000000000000000000000000000000000000000000000000000000000000000000000000000000000000000000000000000000000000000000000000000000000000000000000000000000000000000000000000000000000000000000000000000000000000000000000000000000000000000000000000000000000000000000000000000000000000000000000000000000000000000000000000000000000000000000000000000000000000000000000000000000000000000000000000000000000000000000000000000000000000000000000000000000000000000000000000000000000000000000000000000000000000000000000000000000000000000000000000000000000000000000000000000000000000000000000000000000000000000000000000000000000000000000000000000000000000335400000000000000000000000000000000000000000000000000000000000000000000000000000000000000000000000000000000000000000000000000000000000000000000000000000000000000000000000000000000000000000000000000000000000000000000000000000000000000000000000000000000000000000000000000000000000000000000000000000000000000000000000000000000000000000000000000000000000000000000000000000000000000000000000000000000000000000000000000000000000000000000000000000000000000000000000000000000000000000054000000000000000000000000000000000000000000000000000000000000000000000000000000000000000000000000000000000000000000000000000000000000000000000000000000000000000000000000000000000000000000000000000000000000000000000000000000000000000000000000000000000000000000000000000000000000000000000000000000000000000000000000000000000000000000000000000000000000000000000000000000000000000000000000000000000000000000000000000000000000000000000000000000000000000000000000000000000000000000000000000000000000000000000000000000000000000000000000000000000000000000000000000000000000000000000000000000000000000000000000000000000000000000000000000000000000000000000000000000000000000000000000000000000000000000000000000000000000000000000000000000000000000000000000000000000000000000000000000000000000000000000000000000000000000000000000000000000000000000000000000000000000000000000000000000000000000000000000000000000000000000000000000000000000000000000000000000000000000000000000
#134381:000000000000000000000000000000000000000000000000000000000000000000000000000000000000000000000000000000000000000000000000000000000000000000000000000000000000000000000000000000000000000000000000000000000000000000000000000000000000000000000000000000000000000000000000000000000000000000000000000000000000000000000000000000000000000000000000000000000000000000000000000000000000000000000000000000000000000000000000000000000000000000000000000000000000000000000000000000000000000000000000000000000000000000000000000000000000000000000000000000000000000000000000000000000000000000000000000000000000000000000000000000000000000000000000000000000000000000000000000000000000000000000000000000000000000000000000000000000000000000000000000000000000000000000000000000000000000000000000000000000000000000000000000000000000000000000000000000000000000000000000000000000000000000000000000000000000000000000000000000000000000000000000000000000000000000000000000000000000000000000000005400000000000000000000000000000000000000000000000000000000000000000000000000000000000000000000000000000000000000000000000000000000000000000000000000000000000000000000000000000000000000000000000000000000000000000000000000000000000000000000000000000000000000000000000000000000000000000000000000000000000000000000000000000000000000000000000000000000000000000000000000000000000000000000000000000000000000000000000000000000000000000000000000000000000000000000000000000000000000000000340000000000000000000000000000000000000000000000000000000000000000000000000000000000000000000000000000000000000000000000000000000000000000000000000000000000000000000000000000000000000000000000000000000000000000000000000000000000000000000000000000000000000000000000000000000000000000000000000000000000000000000000000000000000000000000000000000000000000000000000000000000000000000000000000000000000000000000000000000000000000000000000000000000000000000000000000000000000000000000000335400000000000000000000000000000000000000000000000000000000000000000000000000000000000000000000000000000000000000000000000000000000000000000000000000000000000000000000000000000000000000000000000000000000000000000000000000000000000000000000000000000000000000000000000000000000000000000000000000000000000000000000000000000000000000000000000000000000000000000000000000000000000000000000000000000000000000000000000000000000000000000000000000000000000000000000000000000000000000000054000000000000000000000000000000000000000000000000000000000000000000000000000000000000000000000000000000000000000000000000000000000000000000000000000000000000000000000000000000000000000000000000000000000000000000000000000000000000000000000000000000000000000000000000000000000000000000000000000000000000000000000000000000000000000000000000000000000000000000000000000000000000000000000000000000000000000000000000000000000000000000000000000000000000000000000000000000000000000000000000000000000000000000000000000000000000000000000000000000000000000000000000000000000000000000000000000000000000000000000000000000000000000000000000000000000000000000000000000000000000000000000000000000000000000000000000000000000000000000000000000000000000000000000000000000000000000000000000000000000000000000000000000000000000000000000000000000000000000000000000000000000000000000000000000000000000000000000000000000000000000000000000000000000000000000000000000000000000000000000000000000000000000000000000000000000000000000000000000000000000000000000000000000000000000000000000000000000000000000000000000000000000000000000000000000000000000000000000000000000000000000000000000000000000000000000000000000000000000000000000000000000000000000000000000000000000000000000000000000000000000000000000000000000000000000000000000000000000000000000000000000000000000000000000000000000000000000000000000000000000000000000000000000000000000000000000000000000000000000000000
#134371:000000000000000000000000000000000000000000000000000000000000000000000000000000000000000000000000000000000000000000000000000000000000000000000000000000000000000000000000000000000000000000000000000000000000000000000000000000000000000000000000000000000000000000000000000000000000000000000000000000000000000000000000000000000000000000000000000000000000000000000000000000000000000000000000000000000000000000000000000000000000000000000000000000000000000000000000000000000000000000000000000000000000000000000000000000000000000000000000000000000000000000000000000000000000000000000000000000000000000000000000000000000000000000000000000000000000000000000000000000000000000000000000000000000000000000000000000000000000000000000000000000000000000000000000000000000000000000000000000000000000000000000000000000000000000000000000000000000000000000000000000000000000000000000000000000000000000000000000000000000000000000000000000000000000000000000000000000000000000000000000000000000000000000000000000000000000000000000000000000000000000000000000000000000000000000000000000000000000000000000000000000000000000000000000000000000000000000000000000000000000000000000000000000000000000000000000000000000000000000000000000000000000000000000000000000000000000000000000000000000000000000000000000000000000000000000000000000000000000000000000000000000000000000000000000000000000000000000000000000000000000000000000000000000000000000000000000000000000000000000000005400000000000000000000000000000000000000000000000000000000000000000000000000000000000000000000000000000000000000000000000000000000000000000000000000000000000000000000000000000000000000000000000000000000000000000000000000000000000000000000000000000000000000000000000000000000000000000000000000000000000000000000000000000000000000000000000000000000000000000000000000000000000000000000000000000000000000000000000000000000000000000000000000000000000000000000000000000000000000000054000000000000000000000000000000000000000000000000000000000000000000000000000000000000000000000000000000000000000000000000000000000000000000000000000000000000000000000000000000000000000000000000000000000000000000000000000000000000000000000000000000000000000000000000000000000000000000000000000000000000000000000000000000000000000000000000000000000000000000000000000000000000000000000000000000000000000000000000000000000000000000000000000000000000000000000000000000000000000000000000000000000000000000000000000000000000000000000000000000000000000000000000000000000000000000000000000000000000000000000000000000000000000000000000000000000000000000000000000000000000000000000000000000000000000000000000000000000000000000000000000000000000000000000000000000000000000000000000000000000000000000000000000000000000000000000000000000000000000000000000000000000000000000000000000000000000000000000000000000000000000000000000000000000000000000000000000000000000000000000000000000000000000000000000000000000000000000000000000000000000000000000000000000000000000000000000000000000000000000000000000000000000000000000000000000000000000000000000000000000000000000000000000000000000000000000000000000000000000000000000000000000000000000000000000000000000000000000000000000000000000000000000000000000000000000000000000000000000000000000000000000000000000000000000000000000000000000000000000000000000000000000000000000000000000000000000000000000000000000000000000000000000000000000000000000000000000000000000000000000000000000000000000000000000000000000000000000000000000000000000000000000000000000000000000000000000000000000000000000000000000000000000000000000000000000000000000000000000000000000000000000000000000000000000000000000000000000000000000000000000000000000000000000000000000000000000000000000000000000000000000000000000000000000000000000000000000000000000000000000000000000000000000000000000000000000000000000000000000000000000
#1353a1:24
#135320:1333000000003300
#135330:000000000000000000000000000000000000000000000000000000000000000000000000000000000000000000000000000000000000000000000000000000000000000000000000000000000000000000000000000000000000000000000000000000000000000000000000000000000000000000000000000000000000000000000000000000000000000000000000000000000000000000000000000000000000000000000000000000000000000000000000000000000000000000000000000000000000000000000000000000000000000000000000000000000000000000000000000000000000000000000000005300000000000000000000000000000000000000000000000000000000000000000000000000000000000000000000000000000000000000000000000000000000000000000000000000000000000000000000000000000000000000000000000000000000000000000000000000000000000000000000000000000000000000000000000000000000000000000000000000000000000000000000000000000000000000000000000000000000000000000000000000000000000000000000000000000000000000000000000000000000000000000000000000000000000000000000000000000000000000000000330000000000000000000000000000000000000000000000000000000000000000000000000000000000000000000000000000000000000000000000000000000000000000000000000000000000000000000000000000000000000000000000000000000000000000000000000000000000000000000000000000000000000000000000000000000000000000000000000000000000000000000000000000000000000000000000000000000000000000000000000000000000000000000000000000000000000000000000000000000000000000000000000000000000000000000000000000000000000000000000000000000000000000000000000000000000000000000000000000000000000000000000000000000000000000000000000000000000000000000000000000000000000000000000000000000000000000000000000000000000000000000000000000000000000000000000000000000000000000000000000000000000000000000000000000000000000000000000000000000000000000000000000000000000000000000000000000000000000000000000000000000000000000000000000000000000000000000000000000000000000000000000000000000000000000000000000000000000000000000000000000000000000000000000000000000000000000000000000000000000000000000000000000000000000000000000000000000000000000000000000000000000000000000000000000000000000000000000000000000000000000000000000000000000000000000000000000000000000000000000000000000000000000000000000000000000000000000000000000000000000000000000000000000000000000000000000000000000000000000000000000000000000000000000000000000000000000000000000000000000000000000000000000000000000000000000000000000000000000000000005300000000000000000000000000000000000000000000000000000000000000000000000000000000000000000000000000000000000000000000000000000000000000000000000000000000000000000000000000000000000000000000000000000000000000000000000000000000000000000000000000000000000000000000000000000000000000000000000000000000000000000000000000000000000000000000000000000000000000000000000000000000000000000000000000000000000000000000000000000000000000000000000000000000000000000000000000000000000000000053000000000000000000000000000000000000000000000000000000000000000000000000000000000000000000000000000000000000000000000000000000000000000000000000000000000000000000000000000000000000000000000000000000000000000000000000000000000000000000000000000000000000000000000000000000000000000000000000000000000000000000000000000000000000000000000000000000000000000000000000000000000000000000000000000000000000000000000000000000000000000000000000000000000000000000000000000000000000000000000000000000000000000000000000000000000000000000000000000000000000000000000000000000000000000000000000000000000000000000000000000000000000000000000000000000000000000000000000000000000000000000000000000000000000000000000000000000000000000000000000000000000000000000000000000000000000000000000000000000000000000000000000000000000000000000000000000000000000000000000000000000000000000000000000000000000000000000000000000000000000000000000000000000000000000000000000000000000000000000000000
#135340:000000000000000000000000000000000000000000000000000000000000000000000000000000000000000000000000000000000000000000000000000000000000000000000000000000000000000000000000000000000000000000000000000000000000000000000000000000000000000000000000000000000000000000000000000000000000000000000000000000000000000000000000000000000000000000000000000000000000000000000000000000000000000000000000000000000000000000000000000000000000000000000000000000000000000000000000000000000000000000000000000000000000000000000000000000000000000000000000000000000000000000000000000000000000000000000000000000000000000000000000000000000000000000000000000000000000000000000000000000000000000000000000000000000000000000000000000000000000000000000000000000000000000000000000000000000000000000000000000000000000000000000000000000000000000000000000000000000000000000000000000000000000000000000000000000000000000000000000000000000000000000000000000000000000000000000000000000000000000000000000005300000000000000000000000000000000000000000000000000000000000000000000000000000000000000000000000000000000000000000000000000000000000000000000000000000000000000000000000000000000000000000000000000000000000000000000000000000000000000000000000000000000000000000000000000000000000000000000000000000000000000000000000000000000000000000000000000000000000000000000000000000000000000000000000000000000000000000000000000000000000000000000000000000000000000000000000000000000000000000000330000000000000000000000000000000000000000000000000000000000000000000000000000000000000000000000000000000000000000000000000000000000000000000000000000000000000000000000000000000000000000000000000000000000000000000000000000000000000000000000000000000000000000000000000000000000000000000000000000000000000000000000000000000000000000000000000000000000000000000000000000000000000000000000000000000000000000000000000000000000000000000000000000000000000000000000000000000000000000000000005300000000000000000000000000000000000000000000000000000000000000000000000000000000000000000000000000000000000000000000000000000000000000000000000000000000000000000000000000000000000000000000000000000000000000000000000000000000000000000000000000000000000000000000000000000000000000000000000000000000000000000000000000000000000000000000000000000000000000000000000000000000000000000000000000000000000000000000000000000000000000000000000000000000000000000000000000000000000000000053320000000000000000000000000000000000000000000000000000000000000000000000000000000000000000000000000000000000000000000000000000000000000000000000000000000000000000000000000000000000000000000000000000000000000000000000000000000000000000000000000000000000000000000000000000000000000000000000000000000000000000000000000000000000000000000000000000000000000000000000000000000000000000000000000000000000000000000000000000000000000000000000000000000000000000000000000000000000000000000000000000000000000000000000000000000000000000000000000000000000000000000000000000000000000000000000000000000000000000000000000000000000000000000000000000000000000000000000000000000000000000000000000000000000000000000000000000000000000000000000000000000000000000000000000000000000000000000000000000000000000000000000000000000000000000000000000000000000000000000000000000000000000000000000000000000000000000000000000000000000000000000000000000000000000000000000000000000000000000000000000000000000000000000000000000000000000000000000000000000000000000000000000000000000000000000000000000000000000000000000000000000000000000000000000000000000000000000000000000000000000000000000000000000000000000000000000000000000000000000000000000000000000000000000000000000000000000000000000000000000000000000000000000000000000000000000000000000000000000000000000000000000000000000000000000000000000000000000000000000000000000000000000000000000000000000000000000000000000000000000
#135350:000000000000000000000000000000000000000000000000000000000000000000000000000000000000000000000000000000000000000000000000000000000000000000000000000000000000000000000000000000000000000000000000000000000000000000000000000000000000000000000000000000000000000000000000000000000000000000000000000000000000000000000000000000000000000000000000000000000000000000000000000000000000000000000000000000000000000000000000000000000000000000000000000000000000000000000000000000000000000000000000000000000000000000000000000000000000000000000000000000000000000000000000000000000000000000000000000000000000000000000000000000000000000000000000000000000000000000000000000000000000000000000000000000000000000000000000000000000000000000000000000000000000000000000000000000000000000000000000000000000000000000000000000000000000000000000000000000000000000000000000000000000000000000000000000000000000000000000000000000000000000000000000000000000000000000000000000000000000000000000000000000000000000000000000000000000000000000000000000000000000000000000000000000000000000000000000000000000000000000000000000000000000000000000000000000000000000000000000000000000000000000000000000000000000000000000000000000000000000000000000000000000000000000000000000000000000000000000000000000000000000000000000000000000000000000000000000000000000000000000000000000000000000000000000000000000000000000000000000000000000000000000000000000000000000000000000000000000000000000000000005300000000000000000000000000000000000000000000000000000000000000000000000000000000000000000000000000000000000000000000000000000000000000000000000000000000000000000000000000000000000000000000000000000000000000000000000000000000000000000000000000000000000000000000000000000000000000000000000000000000000000000000000000000000000000000000000000000000000000000000000000000000000000000000000000000000000000000000000000000000000000000000000000000000000000000000000000000000000000000053320000000000000000000000000000000000000000000000000000000000000000000000000000000000000000000000000000000000000000000000000000000000000000000000000000000000000000000000000000000000000000000000000000000000000000000000000000000000000000000000000000000000000000000000000000000000000000000000000000000000000000000000000000000000000000000000000000000000000000000000000000000000000000000000000000000000000000000000000000000000000000000000000000000000000000000000000000000000000000000000000000000000000000000000000000000000000000000000000000000000000000000000000000000000000000000000000000000000000000000000000000000000000000000000000000000000000000000000000000000000000000000000000000000000000000000000000000000000000000000000000000000000000000000000000000000000000000000000000000000000000000000000000000000000000000000000000000000000000000000000000000000000000000000000000000000000000000000000000000000000000000000000000000000000000000000000000000000000000000000000000000000000000000000000000000000000000000000000000000000000000000000000000000000000000000000000000000000000000000000000000000000000000000000000000000000000000000000000000000000000000000000000000000000000000000000000000000000000000000000000000000000000000000000000000000000000000000000000000000000000000000000000000000000000000000000000000000000000000000000000000000000000000000000000000000000000000000000000000000000000000000000000000000000000000000000000000000000000000000000000000000000000000000000000000000000000000000000000000000000000000000000000000000000000000000000000000000000000000000000000000000000000000000000000000000000000000000000000000000000000000000000000000000000000000000000000000000000000000000000000000000000000000000000000000000000000000000000000000000000000000000000000000000000000000000000000000000000000000000000000000000000000000000000000000000000000000000000000000000000000000000000000000000000000000000000000000000000000000000000000
#136320:23
#136371:12
#140371:52000052000052005200005200000000220000000000000000000000000000000000000000000000000000000000000000000000000000000000000000000000
#140381:00520000005200520000520052005200000000000000000000000000000000000000000000000000000000000000000000000000000000000000000000000000
#140361:00005200520000000052000000520052000000000000000000000000000000000000000000000000000000000000000000000000000000000000000000000000
