This file was generated by Ched 2.7.0.0.
#TITLE ""
#ARTIST ""
#DESIGNER ""
#DIFFICULTY 0
#PLAYLEVEL
#SONGID ""
#WAVE ""
#WAVEOFFSET 0
#JACKET ""
#REQUEST "ticks_per_beat 480"
#00002: 4
#BPM01: 185
#00008: 01
#TIL00: ""
#HISPEED 00
#MEASUREHS 00
#00219:14
#00313:14
#0041a:14
#00514:14
#00618:14
#00712:14
#0081a:14
#00914:14
#01018:14
#01112:14
#0121a:14
#01210:0041000000000000
#0131a:14
#01414:14
#01514:14
#01812:14
#01912:14
#02018:14
#02118:14
#02418:14
#02514:14
#03318:00160000
#03312:00000016
#03418:00160000
#03412:00000016
#03518:00160000
#03512:00000016
#04112:00160000
#04118:00000016
#04518:00160000
#04512:00000016
#04618:00160000
#04610:0041000000000000
#04714:00140000
#04818:00140000
#04912:00140000
#0501a:00140000
#05114:00140000
#05218:00140000
#05312:00140000
#06112:00140000
#06218:00140000
#06314:00140000
#07718:0016
#07710:0000004100000000
#07812:16
#07818:0016
#07912:16
#07918:0016
#08012:16
#08518:0016
#08612:16
#08912:0014
#08910:00000041
#09018:0014
#09114:0014
#0921a:0014
#09312:0014
#09418:0014
#09514:0014
#0961a:0014
#0681f:0000001100000000
#03212:0026000000000000
#03210:0041000000000000
#06713:0000002400000000
#06719:0000002400000000
#07612:0000002600000000
#0761f:0000002100000000
#09712:0000002600000000
#09818:0000002600000000
#09912:0000002600000000
#10218:0026000000000000
#05810:0041000000000000
#016380:14
#017380:24
#022340:14
#023340:24
#026380:14
#027390:34
#0283a0:34
#029390:34
#030380:3424
#032320:0016000000002600
#036380:00160026
#037320:0000163636260000
#038380:0016000000360000
#039380:0036000000000000
#040380:0026000000000000
#042320:00160000
#044320:0026000000000000
#0543a0:00140000
#055380:00240000
#056320:00140000
#057340:00240000
#058380:00140000
#0593a0:0034000000000000
#0603a0:0024000000000000
#0643a0:0014000000000000
#066380:0024000000000000
#068320:0000001400000000
#069340:0034
#070320:0000003400000000
#071340:0000002400000000
#0723a0:0000001400000000
#073380:0034
#0743a0:0000003400000000
#075380:0000002400000000
#076320:0000001600000000
#077320:26
#080380:0016
#081380:26
#081320:0000000016363636
#082320:3636363600000000
#082340:0000000000000036
#083340:0000003600000000
#084340:0000002600000000
#086380:0016
#088380:0000002600000000
#102380:000000160000000000003600000000000036000000000000
#106380:00000026
