This file was generated by Ched 2.7.0.0.
#TITLE ""
#ARTIST ""
#DESIGNER ""
#DIFFICULTY 0
#PLAYLEVEL
#SONGID ""
#WAVE ""
#WAVEOFFSET 0
#JACKET ""
#REQUEST "ticks_per_beat 480"
#00002: 4
#BPM01: 185
#00008: 01
#TIL00: ""
#HISPEED 00
#MEASUREHS 00
#10215:0013000000000000
#10214:000000000014000000000000
#10212:000000000000000000000000000000000016000000000000
#10218:000000230000000000002400000000000026000000000000
#00212:0013000013000000
#00215:00130013
#00218:0000001300000000
#0021b:0013
#0011b:0000131300001313
#00112:0000000013130000
#00118:0013000023000000
#00115:00230023
#00318:0000000000160026
#00312:0000002400001600
#0031b:0013000000000000
#00316:00240000
#0031a:0000002400000000
#00018:00000013
#0001b:0000000000000023
#00015:0000000000000023
#00416:0000130000000023
#0041b:0000000000001313
#00512:0013000000140000
#0051b:0000001300000000
#00516:0000002300001400
#0051a:0000000000000014
#00517:0023000000000000
#0071b:0013000000130000
#00712:0000001300000000
#00716:0023000000230000
#00717:0000002300000000
#0081b:00130000
#00817:0000000000000013
#00812:0000000013000013
#00816:00141400
#00916:0013000000000000
#00917:0000001300000000
#00912:0000000000160013
#00918:0000000000000016
#01114:0000000000140000
#01112:2400240000000016
#01118:0000000000241526
#0111a:24240000
#01113:00000025
#01212:0013000013000013
#01215:00130013
#01218:0000001300000013
#01210:0041000000000000
#0131b:0013000000000000
#0131a:0000000000140000
#01314:00000014
#01318:0000001300000014
#01315:0000001300000000
#01312:00130000
#0141b:0013000013000000
#01418:0000130000001323
#01415:0000001300000000
#01412:0000000000000023
#01512:0000131300000000
#01518:0000131300001300
#01514:0000000000140014
#0151b:0000000000130013
#01612:0013001300001300
#01618:0014001400001300
#01615:0000130000130023
#0161b:0000000000130023
#01712:00130000000013000000000000000000
#0171b:0013
#01718:00130000000013000000000000000000
#01715:0000000013000016
#0181b:0013000013000013
#01815:0013
#01818:00130000
#01812:0000232300002300
#01915:1300000000130000
#0191b:0013000000000000
#01918:0000131300000013
#01912:0000232300000013
#02018:0000000000130000
#02015:0000130000001313
#02012:0013000013000000
#0201b:0000232300002300
#02118:0013000000000000
#02112:0013000000140014
#02116:00000014
#0211a:0000000000140014
#0211b:0000232300000000
#02212:0013000013130000
#02216:0000001400000014
#0221b:00131300
#02215:00000013
#02312:0014002400000013
#0231a:0000140000240000
#02317:0000001300000000
#02316:0000000000130014
#0241b:00130000
#02412:0000001300260000
#02416:00130000000000000000000000001400
#02418:0026
#0251a:24140000
#02512:1400241600000013
#0251c:0000000000000012
#02515:0000000000130000
#02518:0000002600001300
#02516:0024000000000000
#01012:0000130000130000
#0101b:0013
#01015:00000013
#01018:00000000000000000000001300000000
#01016:00141400
#02616:0012000000000000
#02619:00120000
#02615:0000001200000000
#02617:0000000012120012
#02612:0000000012120000
#0261c:0000000000000012
#02717:0012000000000000
#02715:00120000
#02719:0000001225150000
#02712:0000000015250016
#02718:0000000000000016
#02812:0013000013000000
#02815:0000001300000000
#0281b:0000130000131300
#02818:0000000000000013
#0291b:0000000000130000
#02915:0000130000001313
#02912:1313000000000000
#02918:0000001313000000
#03012:13000000000000000033333300001400
#03018:00130000000000000000000000000000
#03013:0013000000000000
#03019:00000013000000000000000000000000
#03014:00130000
#03015:0000001300000000
#03016:0013
#0301a:00000000001300000000000014000000
#0301b:00000000000000130000000000000000
#03112:0016001400001626
#0311a:0000000000140000
#03116:1414
#03118:0026000000002616
#03217:0013000000000000
#03215:0013
#03218:0000000000130026
#03212:0024000000002600
#03210:0041000000000000
#03315:0013000013000000
#0331b:0000130000130000
#03318:0000001300000000
#03312:0000230000230013
#03317:0000000000000013
#03414:13
#03416:0013000000000000
#03419:13
#0341b:0013000013000000
#03412:0000001323000000
#03415:00000000000000000000130000130000
#03418:0000000000002313
#03516:0013000000130000
#0351b:2313000000130000
#03512:23131300
#03517:00131300
#03616:0013000000000013
#03618:0000001300000000
#03615:0013
#0361b:0000000000130013
#03612:00000013
#03617:00000013
#0361a:0024000000000000
#03712:0013000014000013
#03716:0000140000140000
#03714:0000001400000000
#0371b:0000000000000013
#0371a:0000242424240000
#03818:13000000000013000000000000000013
#03815:00000000000000130000260000001300
#0381b:0013
#03812:0026000000000000
#03912:1326000033001300
#03917:00003313
#0391b:0000001300000033
#03916:0000001300000033
#03918:0026000000000000
#04412:2316001300001300
#04415:0013
#04418:0016000000130000
#0441b:13000013
#0431b:0023000013130000
#04315:0000001300001313
#04318:13000023
#04312:0023000023000000
#04515:13
#04518:0000000000000016
#0451b:0000001300000000
#04516:0024
#04512:0000000000240000
#0451a:0000000000240000
#04612:1623
#04615:0000001300001300
#0461b:0000000013000013
#04618:0026000000130000
#04610:0041000000000000
#04012:0024000000001300
#04015:0000000000000013
#04017:0023000000000000
#04118:13
#0411b:0013000000130000
#04116:0013000000130000
#04112:0000001300000000
#04117:0000001300000000
#04218:0000001300000013
#04215:00001300000000000000130000000013
#0421b:0023000013001300
#04212:00131313
#04718:0013000013000000
#04715:0000130000130000
#0471b:0000130000130000
#04716:0000000000000014
#04712:2323
#04818:1400001300001300
#04812:0000000013000013
#04815:0000000000130000
#0481a:0014000000000000
#0481b:0023
#04915:0013000013000000
#04918:0000130000130000
#04912:0000130000130000
#04916:0000000000000014
#0491b:2323
#05014:14
#05012:0014000023000000
#05015:0000001300001300
#0501b:0013
#05018:0000000000130013
#05112:1323
#05115:0013001300130000
#05118:0000130000130000
#0511b:2300000013000013
#05212:1414000013001300
#05215:0000001300000013
#0521b:00001313
#05218:0000000000130013
#05219:13
#05217:0023000000000000
#05316:0000000014242424
#0531a:0000001400000000
#05312:0024000000140000
#05418:0000001313001300
#05412:0013
#05415:0000000000130013
#0541b:0000000000000013
#05416:24
#0541a:0024000000000000
#0551b:0000130000000013
#05512:1300001300131400
#05515:00000000000000001300000000000013
#05518:00001300000000130013000000000000
#0551a:00000014
#05618:1300000013130000
#05612:0000140000130000
#05615:00130000000000130000000000001300
#0561b:0000001300000000
#05718:1300001300001313
#05712:00131300
#05715:00001300000000000000130000130000
#0571b:00232300
#05815:13
#05816:00000000000000130000000000001400
#0581a:0014000000001400
#05812:0023000000000000
#05810:0041000000000000
#05912:1400000000001414
#05916:0024001424002400
#0591a:0014000014140000
#0601a:14
#0601b:0013000000000013
#06012:0000001300000000
#06015:0013
#06018:0000000000130000
#06016:2413000000000000
#06112:0000001300001300
#06115:0013000013000013
#06118:13000000000000000000130000000013
#0611b:00000013
#0621b:0013000000000000
#06215:1300001300002300
#06212:0023000013000000
#06218:0000000016000013
#06312:1600242424240013
#0631b:1300000000000023
#06316:0000140000140000
#0631a:0014
#06318:0000001400000000
#0671a:0014000000141400
#06712:1400002600141400
#06716:00140000
#06718:0000001600000000
#06818:1424000000000000
#06814:2414000000000000
#06813:00000012
#06819:0000000000000012
#0681f:0000001100000000
#0661b:13000000130000000000000000333333
#06615:00000000001300000000000000000000
#0661a:0000001300000000
#06614:00000000000000130000000000000000
#06619:0013
#06618:0013000000130000
#06617:00000013
#06613:00000000000000000013000000000000
#06612:00000000000000000000001300000000
#07616:0000001300000000
#07618:1616000000001300
#07615:0000000000000013
#0761a:0000002400000000
#0761f:0000002100000000
#07718:2600001300001300
#07712:0026000013000013
#07715:0000000000130000
#0771b:0000000023000023
#07710:0000004100000000
#07816:0013000000000000
#07814:00130000
#07812:0000001300001300
#0781b:0000000000132300
#07819:0025000000000000
#07817:00250000
#07815:0000002500000000
#07818:0000000000000023
#0791b:00131323
#07916:00001323
#07912:0000232300000013
#07917:0000002300000013
#07918:00130000000000000000000000000000
#07915:2323000000000000
#08017:0000001300000000
#08015:0000000000130000
#08018:00000013
#08012:0000002400000013
#0811b:2300001300000000
#08116:2300000014141414
#08112:0023000024002400
#0811a:0000000000240024
#08117:0023000000000000
#08416:1300002300000000
#0841b:13
#0841a:0000002400000000
#08412:0033000000000000
#08417:0033000000000000
#08312:0000002600130000
#08317:0000000000130000
#08318:0013002600000000
#0831b:00130033
#08315:00000013000000000000000000000000
#08316:00000033
#08712:2300002300001313
#08718:00000023000000000000130000000000
#0871b:2300002300002300
#08715:0023230000000000
#08818:1313001600002300
#08812:0000132600000000
#08815:2300000000230023
#0881b:00230000
#08618:0000001300000013
#08615:0000000000130000
#0861b:00001323
#08612:0000002300002300
#08917:00000013
#08912:2300002300000000
#0891b:2300002300000000
#08910:00000041
#09012:0000130000000013
#09016:0000001300000000
#09014:0000000000130000
#09019:0000002500000000
#09017:0000000000250000
#09015:0000000000000025
#09312:0014000000001300
#09316:0024000000002400
#0911a:0014000000000000
#09116:00140013
#09112:0000002400000000
#0941b:1300001300000013
#09412:0000000000130000
#09416:2400002300000023
#09417:0000000000230000
#09512:0015000000000000
#0951b:00000013
#09516:0000001300002400
#09519:0000002500000000
#09718:0014251600000000
#09713:0000150000000013
#09714:0024000000001300
#09712:0000002600000000
#0971a:0000000000240000
#09612:13002424
#0961b:0013000000000000
#09618:00130000
#09615:00000013000000000000000000000000
#0961a:00002424
#09616:24
#0921b:0000130000000013
#09217:0000001300000000
#09219:0000000000130000
#09212:0000002500000000
#09214:0000000000250000
#09216:0000000000000025
#09812:1313131300240000
#09819:00000013
#0981a:0000000000000013
#0991b:1313131300000000
#09912:0000000000000013
#09913:00000013
#0991a:0000000000240000
#1001a:0013000000000000
#1001b:0000131300000000
#10012:2400000000130000
#10015:00000013
#10018:0000000000000013
#1011b:1300000000130013
#10112:1300000000000013
#10115:00130000
#10116:00000014
#10316:1212
#10314:0014001400140014
#10312:00160016
#10318:1214161412141614
#07512:00140000000000000000160016000000
#07517:00130000000000000000000000000000
#0691c:0012000000000000
#06912:0000001200000012
#06916:12
#06918:0012
#06915:0000000000120000
#0691b:00000012
#07016:0000120000000012
#07018:0012000000000000
#0701c:0000001200001200
#07012:0000000000120000
#0711c:1200000000120000
#07112:0012000000000000
#07118:00120000
#07116:0000001200000000
#07115:00000012
#07119:0000000000000012
#07212:12
#07219:0000000000120000
#07215:00000012
#0721c:1200000000000012
#07312:1200000024242424
#07319:0012000000000000
#0731a:0000000024242424
#06512:00130000
#06518:1300000013000013
#0651b:0013001300001300
#06418:0013001300000000
#0641b:00001313
#06415:0023000000000000
#10416:1212
#10414:0014001400140014
#10412:00160016
#10418:1214161412141614
#10516:1212
#10514:0014001400140014
#10512:00160016
#10518:1214161412141614
#10616:12
#10618:12
#00617:0000130000000023
#00612:0000000000001313
#08218:00002400000026000000001300000000
#08215:0000000000130026
#08212:24000013
#08214:00240000
#0851b:1300000000130000
#08518:0013000000000000
#08515:00130000
#08512:0000001300000013
#08517:0000001300000013
#08516:0000000000130000
#07416:0023000000242400
#0741b:0023000000002300
#07417:0000002300000000
#0025b:0053
#00358:0000000000160016
#00352:00000016
#0045b:0000000000000013
#00552:0013000000000000
#0055b:0000001300000000
#0055a:0000000000000014
#0075b:0013000000530000
#00756:0000000000530000
#00752:0000001300000013
#00757:0000000000000013
#00857:0000000000000063
#00852:0000000053000013
#00856:0054
#00956:0053000000000000
#00957:0000006300000000
#00952:0000001300160013
#00958:0000000000000016
#0095b:0013000000130000
#01152:0000540000000016
#0115a:00540000
#01158:0000000000000016
#01252:0000000000000053
#0135a:0000000000140000
#01354:00000014
#01358:0000000000000014
#01355:0000005300000000
#01554:0000000000000014
#0155b:0000000000000013
#01658:0000001400000000
#01652:0000001300000000
#01655:0000000000000053
#0165b:0000000000000053
#0175b:0063
#01755:0000000063000016
#01752:00230000000000000000000000000000
#01758:00230000000000000000000000000000
#0185b:0053
#01958:0000005300000013
#01955:0000000000130000
#01952:0000000000000013
#0195b:0000000000130000
#02055:0000000000000053
#02152:0053000000000014
#0215a:0000000000000054
#02155:0000001300000000
#02255:00000023
#02252:0000000000530033
#02256:0000000000000064
#02352:0000000000000053
#02356:0000000000000014
#02456:00230000000000000000000000000000
#02458:0016
#02452:0000000000160000
#02552:0000001600000000
#0255c:0000000000000052
#02558:0000001600000000
#02657:0000000000000052
#02752:0000000000000016
#02758:0000000000000016
#0295b:0000000000530000
#02955:00530000
#03056:0053
#03257:0053000000000000
#03252:0014000000001600
#03258:0000000000000016
#0345b:0053000000000000
#03556:0053000000230000
#0355b:0053000000230000
#03552:00236333
#03557:00236333
#03656:0063000000000000
#0365a:0014000000000000
#03957:00000053
#0395b:0000005300000000
#03952:0016000000005300
#03956:0000005300000000
#03958:0016000000000000
#0445b:00000053
#04458:0016000000000000
#04452:0016000000000000
#04558:0000000000000016
#04652:16
#04658:0016000000000000
#04255:0063000000000000
#04252:00230000
#0415b:0063000000630000
#04156:0063000000630000
#04152:0000005300000000
#04157:0000005300000000
#05252:0014000000000000
#05258:0000000000000053
#05257:0053000000000000
#05155:0000000000530000
#05455:0000000000000053
#0545a:0014000000000000
#05452:0014000000000000
#05552:23
#05555:0013000000000000
#05652:00140000
#05658:0000000000530000
#05856:00000000000000230000000000000000
#0585a:0014000000000000
#05852:0053000000000000
#0625b:0063000000000000
#06252:0013
#06258:0016
#0605b:0063000000000000
#06352:16
#0635b:13
#03152:0016000000000000
#03158:0016000000000000
#02852:0053
#0285b:00530000
#02858:0000000000000063
#06758:0000001600000000
#06752:0000001600000000
#06657:00000063
#07656:0000006300000000
#0765a:0000001400000000
#07852:0000006300000000
#08057:0000005300000000
#08056:43
#0805b:43
#08052:0000001400000000
#08456:6300006300000000
#0845b:63
#0845a:0000006400000000
#08352:0000001600630000
#08357:0000000000630000
#08358:0000001600000000
#08858:0000005600000000
#08852:0000001600000000
#08658:0000005300000000
#0865b:0023
#09352:0064000000000000
#09356:0064001400000000
#0935a:0000001400000000
#0945b:6300005300000053
#09452:0000000000630000
#09456:6400001300000013
#09457:0000000000130000
#09552:0015000000000000
#09559:0000001500000000
#09758:0000001600000000
#09752:0000001600000000
#0975a:0000000000540000
#1015b:53
#10252:000000000000000000000000000000000056000000000000
#10258:000000000000000000000000000000000056000000000000
#10356:2222
#10354:0054005400540054
#10352:00260026
#10358:2264266422642664
#07552:00240000000000000000000000000000
#07557:00230000000000000000000000000000
#07556:0000004400000000
#0755b:0000004300000000
#0705c:0000005200000000
#07156:0000005200000000
#06552:00230000
#10456:2222
#10454:0054005400540054
#10452:00260026
#10458:2264266422642664
#10556:2222
#10554:0054005400540054
#10552:00260026
#10558:2264266422642664
#10656:22
#10658:22000016
#10652:00000016
#0435b:0063000000000000
#03852:0016000000000000
#03855:0000000000160000
#04057:0053000000000000
#04052:0054000000000000
#05956:0054000000000000
#07758:16
#07752:0016000000000000
#0775b:0000000000000013
#08752:0000005300000000
#08258:0000001600000000
#08255:0000000000000016
#0965a:00000064
#09652:00000064
#09852:0000000000640000
#09856:0000001400000000
#0995a:0000000000540000
#09956:0000001400000000
#10052:64
#10056:0000001400000000
#08952:5300001300000000
#0895b:5300001300000000
#07456:0053000000006400
#07457:0000005300000000
#0745b:00000063
#00055:0000000000000053
#04856:0013000000000000
#05057:0013000000000000
#0535b:0013000000000000
#05352:0054000000000000
#00652:0000000000000013
#03352:0000000000130000
#0795b:00002353
#07956:00002353
#07952:0000005300000023
#07957:0000005300000023
#08552:0000005300000053
#08557:0000005300000053
#0855b:0000000000630000
#08556:0000000000630000
#09059:0000001500000000
#09057:0000000000150000
#09055:0000000000000015
#09152:0000001400000000
#09252:0000001500000000
#09254:0000000000150000
#09256:0000000000000015
#06455:0053000000000000
#000350:0000000000000013
#001320:0023000000000000
#0023b0:0013
#002380:00000023
#0023b0:0000000000000013
#003380:23
#003351:13
#003321:0023000000000000
#0043b1:00130000
#004371:0023
#004320:0013
#004360:00000023
#006320:00130000
#006360:0023
#0063b1:0013
#006371:00000023
#007361:0000000000130000
#007321:0000000000000023
#0073b0:0000000000130000
#007370:0000000000000023
#008320:0013
#008360:00000023
#008361:0014
#0083a1:00000024
#008371:0000000000000013
#0093b1:0023000000000000
#009360:0013000000000000
#009320:0000002300000000
#009371:0000001300000000
#0093b1:0000000000230000
#011321:00140000
#011351:0023
#0113a0:00140000
#011380:0023
#0123b0:00001323
#012320:0000000000000013
#013350:0023000000000000
#013350:0000001300000000
#013320:0000000000230000
#014320:00001323
#014380:0000000000000013
#0143b0:00000000000000000000000000000053
#0143a0:0000000000000000000000000000000000000000000000000000000000000053
#0153b0:53532300000000000000000000000000
#0153a0:0053005300000000000000000000000000000000000000000000000000000000
#014321:0000000000000013
#014351:00000000000000000000000000000053
#014341:0000000000000000000000000000000000000000000000000000000000000053
#015351:53532300000000000000000000000000
#015341:0053005300000000000000000000000000000000000000000000000000000000
#016351:0000000000000013
#017321:00530000000000000000000000000000
#017351:00230000
#0163b0:0000000000000013
#017380:00530000000000000000000000000000
#0173b0:00230000
#0173b0:0013
#017380:00000023
#017351:0013
#017321:00000023
#0183b1:0013
#018381:00000023
#019381:0000001300000000
#0193b1:0000000000230000
#020351:0000000000000013
#021321:0033000000000000
#021351:0000002300000000
#0213a1:0000000000000014
#022361:0024000000000000
#022321:0000000000130023
#022351:00000053
#022360:0000000000000014
#0233a0:0024000000000000
#023320:0000000000000013
#024360:00530000000000000000000000000000
#024320:00230000
#0253c0:0000000000000012
#026380:0022000000000000
#026370:0000000000000012
#027320:0022000000000000
#0283b0:00130000
#028380:0023
#028321:0013
#028351:0000000000000023
#028380:0000000000000013
#0293b0:00230000
#029351:00130000
#029321:0000000000230000
#0293b0:0000000000130000
#030380:23
#030360:0013
#030320:00000000000000000033333323000000
#032370:0013000000000000
#0323b0:0023
#0343b0:0013000000000000
#034370:0000002300000000
#035360:0013002300000000
#035320:00530000
#0353b1:0013002300000000
#035371:00530000
#035371:00001323
#0353b1:0000000000530000
#035320:00001323
#035360:0000000000530000
#036360:0013000000000000
#036320:0000002300000000
#0393b0:0000001300000033
#039370:0000000033333300
#0403b0:23
#039361:0000001300000033
#039321:0000000033333300
#040361:23
#040321:0014000000000000
#040361:0024
#040370:0013000000000000
#0403b0:0023
#0413b0:0013000053330000
#041370:0000533300005323
#041361:0013000053330000
#041321:0000533300005323
#042351:0013002300000000
#042321:00530000
#0433b1:0013000000000000
#043381:0000002300000000
#0443b1:00000013
#045381:23
#0453b1:0013000000000000
#045381:00230000
#045350:00130000
#045320:0000002300000000
#047320:0000000000000013
#048340:33
#048360:0023000000000000
#0493b0:0000000000000013
#050390:33
#050370:0023000000000000
#051350:0000000000130000
#051320:0000000000000023
#052370:0013000000000000
#0523b0:0000002300000000
#052380:0000000000000013
#0533b0:0023000000000000
#053321:0014000000000000
#053361:0000002400000000
#053361:0000000000140000
#0533a1:00000024
#053360:00000014
#053320:0000000000000024
#053361:0000000000000014
#0543a1:24
#054360:14
#054320:0024000000000000
#054350:0000000000000013
#055320:53
#055350:0023000000000000
#0563b0:0013230000000000
#056380:0000000000130000
#0563b0:0000000000000023
#058320:0013000000002300
#058360:00000000000000530000000000000000
#059360:0014000000000000
#059320:0000002400000000
#0603b0:0013000000000000
#060370:0000002300000000
#0623b0:0013000000000000
#062380:0000002300000000
#064350:0013000000000000
#065320:00530000
#066350:00230000
#066370:00000013
#0663b0:00000000000000000000000000333333
#0673b0:23
#0683c0:0000001200002200
#0703c0:0000001200000000
#070380:0000000000220000
#071360:0000001200000000
#071320:0000000000220000
#072320:0000001200220000
#074360:0013000000000000
#074320:0000002300000000
#074371:0000001300000000
#0743b1:0000000000230000
#074361:00000014
#075321:00540000000000000000000000000000
#075361:0000002400000000
#0743b0:00000013
#075370:00530000000000000000000000000000
#0753b0:0000002300000000
#075380:0000000000000000000000000000000000000000165656562600000000000000
#0753a0:00000000000000000000000000000000000000000000000000000000000000000000000000000000005200520052005200000000000000000000000000000000
#076320:1656565626000000000000000000000000000000000000000000000000000000
#076340:00520052005200520000000000000000000000000000000000000000000000000000000000000000000000000000000000000000000000000000000000000000
#076360:0000001300000000
#076320:00000023
#078320:0000001300000000
#078360:0000000000230000
#079370:0000001300230000
#0793b0:0053
#079321:0000001300230000
#079361:0053
#079361:00000013
#079321:0000000000000053
#080361:23
#0793b0:00000013
#079370:0000000000000053
#0803b0:23
#080370:0000001300000000
#0803b0:0000000000230000
#083320:0000000000130000
#083360:0000000000003333
#084360:33
#084320:0033230000000000
#083371:0000000000130000
#0833b1:0000000000003333
#0843b1:33
#084371:0033230000000000
#0843a1:0000001400000000
#084361:00000024
#084360:0000001300000000
#084320:00000023
#085320:0000001300005333
#085360:0000000053330000
#086360:5323000000000000
#085371:0000001300005333
#0853b1:0000000053330000
#0863b1:5323000000000000
#086381:0000001300230000
#0863b1:0053
#087321:0000001300000000
#087351:0000000000230000
#088381:0000001600230000
#089321:13
#089351:00230000
#0893b0:13
#089380:00230000
#089320:00000013
#090360:23
#0903b1:13
#090371:00230000
#0913b1:00000013
#092371:23
#092320:13
#092360:00230000
#093360:0014000000000000
#0933a0:0000002400000000
#093321:0014000000000000
#093361:0000002400000000
#0943b1:13
#094371:00230000
#094360:14
#094320:00240000
#0943b0:0000001300000000
#094370:0000000000230000
#094321:0000000000130000
#094361:0000000000000023
#0943b0:0000000000000013
#095370:0023000000000000
#0963a0:00000014
#097380:23
#096321:00000014
#097351:23
#0973a1:0000000000140000
#098361:0000002400000000
#098321:0000000000140000
#099361:0000002400000000
#0993a1:0000000000140000
#100361:24
#100320:14
#100360:0000002400000000
#1013b0:13
#101380:00230000
#1013b0:0000001300000000
#101380:0023
#101351:0013
#101321:0000000000230000
#102321:000000000000000000000000000000000016000000000000
#103361:5252
#103341:0054005400540054
#103321:00560056
#104361:5252
#104341:0054005400540054
#104321:00560056
#105361:5252
#105341:0054005400540054
#105321:00560056
#106361:52
#106321:00000026
#102380:000000000000000000000000000000000016000000000000
#103380:5254565452545654
#104380:5254565452545654
#105380:5254565452545654
#106380:52000026
