This file was generated by Ched 2.7.0.0.
#TITLE ""
#ARTIST ""
#DESIGNER ""
#DIFFICULTY 0
#PLAYLEVEL
#SONGID ""
#WAVE ""
#WAVEOFFSET 0
#JACKET ""
#REQUEST "ticks_per_beat 480"
#00002: 4
#BPM01: 185
#00008: 01
#TIL00: ""
#HISPEED 00
#MEASUREHS 00
#00018:00000013
#00015:0000000000000023
#00112:0000001300130013
#0011b:00230000
#00119:0023
#00117:00000023
#00218:0000333313000000
#00212:0000000000000013
#00319:0000000000150025
#00312:0000002300001500
#0031b:13
#00315:0013000000000000
#00318:00230000
#00412:0000130000000024
#00418:00130000
#00415:0013
#0041b:0013
#00515:0000000000130000
#00516:0024000000000000
#0051a:0000002400000000
#0061b:00130000
#00615:00130000
#00618:0013
#00612:0013
#0061a:0000000000000024
#00812:0000130000000024
#00818:00130000
#00815:0013
#0081b:0013
#0101b:00130000
#01015:00130000
#01012:0013
#01018:0013
#0121b:0013001300000000
#01215:00130000
#01212:0013
#01218:00000013
#01210:0041000000000000
#01412:0013001300000000
#01418:00130000
#01415:00000013
#0141b:0013
#0141a:0000000000000024
#01512:0000131300000000
#0151b:0000000000130013
#01515:00000013
#01612:0013001300000000
#01618:0000130000130000
#01615:00000013
#0161b:0000000000000023
#01715:0000001313000000
#01719:0000000000000014
#01812:0013000000000013
#01818:00130000
#01815:0000001300000000
#0191b:1313000000000000
#01915:00130000
#01918:0000001300000000
#01912:0000000000000013
#0201b:0013000000000013
#02015:0000130000330013
#02018:0000001300000000
#02118:0013000000000000
#02112:0013000000140014
#0211a:00000014
#02218:0013130000000000
#02215:0000001300000000
#0221b:0013
#02212:0000000000130000
#02318:0013002300000013
#02315:0000130000230000
#02312:0000002300000013
#0231b:0000000000230000
#02518:0000000000130000
#02515:33330013
#02512:0000002300000000
#02612:0000130000000013
#02618:0000001300000000
#02615:0013
#0261b:0000000000130000
#02718:00130000
#02715:0000001300000000
#0271a:0000000024000014
#02712:0000000000240000
#03115:1300001300000000
#03118:0013
#03114:0000000000130000
#03119:00000023
#03113:0000000000000023
#0311b:0023000000000000
#03912:0000001300000013
#0391b:00001313
#03915:3323000000130000
#03918:3323000000000000
#04018:1300000000000013
#04012:00000013
#04015:0023000000000000
#04115:1300000000130000
#0411b:0013000000000000
#00919:0000000000000014
#00913:0000000000140000
#00916:0024000000000000
#0091a:0000002400000000
#01318:0000000000130000
#01315:00330000
#0131b:00000033
#04519:0000000000000015
#04512:0013000000230000
#0451b:00130000
#04515:0000001300000000
#04518:0023
#04612:1500000033333300
#04615:0000001300000000
#04619:0025000000000000
#04610:0041000000000000
#04215:0013000000000000
#0421b:0013000000000000
#04212:0033
#04218:0033
#04312:0013000000000000
#04318:0013000000000000
#04818:0000001300000000
#04816:14
#04812:0014000000000000
#0481b:0000000033333300
#0471b:0013000000000000
#04718:0013
#0471a:0000000000000014
#04715:00130000
#04712:0000000000130000
#04912:0013000000000014
#04915:0013
#04918:00130000
#0491b:0000000000130000
#05016:1400000000000013
#0501a:0014000000000000
#05012:0000001300000000
#05014:0000000000130000
#05019:0013
#0501b:00000013
#05112:0013000000000014
#0511b:0013
#05118:00130000
#05115:0000000000130000
#05312:0014000000002400
#0531a:0014000000240024
#05318:0000001300000000
#05315:0013
#0521b:0000001300000000
#05219:0000000000130000
#05214:0013
#05212:00000013
#05217:0000000000000013
#0521a:14
#05216:0014000000000000
#05412:2413
#05415:0000000000000013
#05418:0000000000130000
#05416:0024000000000000
#05718:13
#05715:00001300000000000000000000330000
#0571b:00232300
#05812:00000013
#05818:00000000001300000000000000001300
#0581b:0023000000000000
#05810:0041000000000000
#05915:13000023
#0591b:0023000000130013
#05912:0023
#06018:0013000033000000
#0601b:0000001300000000
#06015:0000000000000013
#06012:23
#0611b:0000001300000000
#06115:00000000000000001300000000003333
#06118:0000000000130000
#06112:33000013
#06212:0000001300000013
#0621b:0013
#06215:0000000000130000
#06218:00000013
#0621a:0024000000000000
#0631b:0013000000000000
#06316:0000000000000024
#0631a:0000000000240000
#06312:00230000
#06318:0000002300000000
#06315:0023
#06516:00140000000000000000000000000000
#06718:0000130000130000
#06715:0013000000001300
#0671b:13
#06712:0000002300000000
#06815:0000000000000013
#0681f:0000001100000000
#0681b:23
#06812:0023000000000000
#06918:13
#06915:0013000000000000
#0691b:0000001300130013
#06912:00001313
#07015:0013000000000000
#0701b:00130000
#07018:00000013
#07012:0000000000000013
#07118:1300000000130000
#07115:0013001300000000
#0711b:00130000
#07112:00000013
#07212:13
#0721b:13
#07218:00000013
#07215:0000000000000013
#0731b:13
#07312:0013000000240024
#0731a:00002424
#0741a:0024000000241400
#07412:0000002400000000
#07414:0024000000000000
#07418:0000002400000000
#07512:0000000000131300
#0761b:1313000000000000
#07618:0000000000000013
#07615:00000013
#07612:0000002500000000
#07619:0000002500000000
#0761f:0000002100000000
#0771b:00000013
#07715:0000000000130000
#07712:2600001300000023
#07718:0026000023000000
#07710:0000004100000000
#08012:0000001300000000
#08018:00000013
#08015:0000000000000013
#08013:24
#08019:24
#0831b:0023000000130000
#08312:0023000000001300
#08318:0000330000000013
#08315:00330000
#08412:13
#0841b:0013000000000000
#08415:00130000
#08418:0000002300000000
#0851b:13
#08515:0013000000000000
#08518:0000130000000013
#08512:0000001300000000
#08118:0000001300000024
#08112:0023000024000000
#0811a:0000000000240000
#08114:00000024
#0811b:23
#04418:0000000033331300
#08618:0000001300000000
#08612:0000001300000000
#0861b:00000033
#08615:00000033
#0871b:00000013000000000000000000000000
#08715:00000013000000000000000000000000
#0881b:0000002300130000
#08818:0000000000003333
#0891b:00000013
#08915:00000013
#08918:0000002600000000
#08912:00260000
#08910:00000041
#09018:13
#09012:1300000000000024
#0901a:0000002400000000
#09016:0000000000240000
#09118:0013000000001300
#09112:00000013
#0911b:0000002300000000
#09215:13
#0921b:13
#09212:0000002400000000
#09216:0000000000240000
#0921a:0000000000000024
#0931b:00000013
#09312:0023000000000000
#09315:00000023
#09512:00000013
#09519:0014000000000000
#09513:0000002400000000
#09518:00000023
#09412:1300000000000024
#0941a:0000002400000000
#09416:0000000000240000
#09418:23
#0961b:13
#09612:0024
#09615:23
#09715:0000000000130000
#09714:0000000000000013
#0971b:00000013
#09719:0025002500000000
#09712:00250000
#0981a:13
#09819:0000130000000013
#09813:0013000000000000
#09818:0000000000130000
#09812:0000002300001300
#09913:13
#09914:0000130000000013
#0991a:0013000000000000
#09915:0000000000130000
#09918:00000013
#0991b:0000002300000000
#10019:13
#10013:0013000000000000
#1001a:00130000
#1001b:0000000000130000
#10012:0000002300000000
#10017:0000000000003333
#10117:33130000
#1011b:0000003333333300
#10415:0016
#03012:13000013
#03018:0000000000000013
#03014:00130000
#03019:0000001300000000
#03016:0013
#0301b:0000000000130000
#03017:0013000000000000
#02816:00000000000000000000000000140000
#0661b:00130000
#06614:0000000000130000
#06617:00000013
#06612:0000000000000013
#06619:0013
#06616:0000001300000000
#10612:16
#03215:0000000000130000
#03218:00001326
#03212:0025000000000026
#03219:0025000000000000
#03210:0041000000000000
#0331b:0013000000230000
#03312:0013
#03318:0000001300000000
#03315:0000230000000013
#03418:13000023
#03415:0013000000130000
#03412:0000000000000013
#0341b:0023
#03512:0013000000000000
#03513:00000014
#03519:00000014
#0351b:23
#03515:0000003300000000
#0361b:0013000000000013
#03615:0013
#03618:0000000000130000
#03612:00000013
#0371b:0000000000000013
#03715:0013000000000000
#0371a:00240000
#03712:0000002400000000
#03718:0024
#03714:0000000000240000
#03812:0000001300000013
#0381b:0000000000000013
#03818:3323000000000000
#03815:0000000033230000
#0071b:0000000000230000
#00716:0024000000000000
#00712:0000002400000000
#0111a:24
#01112:0000000000250025
#01119:00000025
#08212:23
#0821b:0000000000230000
#08215:0033330000000000
#08218:00000033
#10212:000000260000000000000000000000000026000000000000
#10218:000000000026000000000000
#02412:0026
#02418:0000000000260000
#06412:0024000000000000
#07818:0023002300000023
#07815:00230000
#07812:00000023
#07915:23
#0791b:0023002300000000
#07912:00230000
#07918:0000000000330000
#05518:00000000000000333300000000000000
#0551b:00000000000000000000000000000033
#05612:00000000000000330000000000000000
#0561b:33330000000000000000000000000000
#10312:0036
#00258:0063
#00555:0000000000530000
#00552:0000000000000013
#0155b:0000000000000013
#01652:0000001300000000
#0165b:0000000000000053
#01755:0053
#01759:0000000000000014
#01958:0000006300000000
#01952:0000000000000013
#0195b:0000000000130000
#0205b:0000000000000053
#02055:0000000000000053
#02158:0053000000000000
#02152:0053000000000014
#02252:0000000000530000
#02255:0000000000000013
#02352:0000000000000053
#02358:0000000000000053
#0275a:0000000000000054
#0415b:0053000000000000
#04155:0000000000530000
#00959:0000000000000014
#00953:0000000000140000
#01358:0000000000530000
#0135b:0000000000000013
#04255:0053000000000000
#0425b:0053000000000000
#04352:0023000000000000
#04358:0023000000000000
#04858:0000005300000000
#04852:0014000000000000
#04655:0000006300000000
#04659:0015000000000000
#0505a:0014000000000000
#05352:0014000000000000
#0535a:0014000000000000
#05256:0014000000000000
#05455:0000000000000053
#05456:0014000000000000
#06058:0053000000000000
#0605b:0000002300000000
#06055:0000000000000053
#05858:00000000002300000000000000000000
#0585b:0053000000000000
#06152:00000053
#06556:00240000000000000000000000000000
#0745a:00000054
#08052:0000006300000000
#08053:14
#08059:14
#08552:0000006300000000
#08558:0000000000000063
#04458:00000063
#08658:0000006300000000
#08652:0000006300000000
#0875b:00000023000000000000000000000000
#08755:00000023000000000000000000000000
#0885b:0000000000530000
#09158:0063000000000000
#0915b:0000001300000000
#09559:0014000000000000
#09553:0000001400000000
#10157:00230000
#1005b:0000000000530000
#10052:0000001300000000
#10455:0026
#02652:0000000000000053
#02856:00000000000000000000000000240000
#00055:0000000000000063
#00359:0000000000000015
#0075b:0000000000630000
#00757:0000000000000013
#0115a:54
#01157:00140000
#01152:0000000000000015
#0145a:0000000000000054
#08252:53
#0825b:0000000000630000
#08255:0000001300000000
#08258:0000000000000013
#08352:0053000000000000
#0835b:0053000000000000
#08358:0000001300000000
#08355:0000001300000000
#09352:0053000000000000
#09356:0000001300000000
#09652:0054
#09656:00000014
#10252:000000000000000000000000000000000056000000000000
#06452:0054000000000000
#07556:0000001400000000
#10655:00000016
#10652:56
#0595b:0053000000000000
#07652:0000001500000000
#07659:0000001500000000
#07752:0000000000000013
#07858:0000005300000000
#0795b:0000005300000000
#08458:0000005300000000
#08958:0000001600000000
#09852:0000001300000000
#0995b:0000001300000000
#02552:0000003300000000
#0315b:0013000000000000
#04055:0053000000000000
#06752:0000001300000000
#09759:0000001500000000
#03455:0053000000000000
#03552:0053000000000000
#03553:00000014
#03559:00000014
#0365b:0053000000000000
#0375b:0000000000000053
#03852:0000006300000063
#0385b:0000000000000053
#03858:0013000000000000
#03855:0000000000130000
#0335b:0000000000130000
#03955:0013000000000000
#03958:0013000000000000
#03252:0015000000000000
#03259:0015000000000000
#000350:0000000000000013
#001320:0023000000000000
#0023b0:0013000000002300
#002380:0000333333000000
#005350:0000000000130000
#005320:0000000000000023
#0073b0:0000000000130000
#007370:0000000000000023
#0113a0:14
#011370:00240000
#012350:0000000000000013
#013320:0033000000000000
#013350:0000332300000000
#013380:0000000000130000
#0133b0:0000000000003323
#0143a0:0000000000000014
#015360:0024000000000000
#0163b0:0000000000000013
#017380:00230000
#017350:0013
#017320:00000023
#0183b0:0013
#018380:00000023
#019380:0000001300000000
#0193b0:0000000000230000
#020320:0013
#020350:0000000000332300
#0203b0:0000000000000013
#021380:0033000000000000
#0213b0:0000002300000000
#020351:0000000000000013
#021321:0033000000000000
#021351:0000002300000000
#022321:0000000000130000
#022351:0000000000000023
#023321:0000000000000013
#024351:00230000
#023380:0000000000000013
#0243b0:00230000
#024320:0000000000000013
#025350:3333330000000000
#025320:0000002300000000
#0253b0:0000000000000013
#0263b0:0023000000000000
#026320:0000000000000013
#027350:0023000000000000
#0273a0:0000000000000014
#028360:00000000000000000000000000540000
#0293a0:00000024
#034350:0013000000000000
#034320:0000002300000000
#035320:0013000000000000
#035350:0000003323000000
#0363b0:0013000000000000
#036380:0000002300000000
#0373b0:0000000000000013
#038380:3323000000000000
#038320:0000001300000000
#038350:0000000033230000
#038320:0000000000000013
#039350:3323000000000000
#0383b1:0000000000000013
#039381:3323000000000000
#040351:0013000000000000
#040321:0023
#0413b1:0013000000000000
#041381:0000002300000000
#041351:0000000000130000
#041321:0000000000000023
#0423b1:0013000000000000
#042381:0033
#043381:0053000000000000
#0443b1:0023000000000000
#042350:0013000000000000
#042320:0033
#043320:0053000000000000
#044350:0023000000000000
#0443b0:0000001300000000
#044380:0000000033333300
#0453b0:23
#046350:0000001300000000
#046320:0000000033333323
#048380:0000001300000000
#0483b0:0000000033333323
#054350:0000000000000013
#055320:0023000000000000
#0553b0:00000000000013000000000000000033
#055380:00000000000000333333000033003300
#0563b0:33332300000000000000000000000000
#056350:0000133300000000
#056320:00000000000000333300330000002300
#057320:0000000000133300
#057350:00000000000000000000000000333300
#058350:23
#0583b0:0013000023000000
#058380:00000000005300000000000000000000
#0593b0:0013000000000000
#059380:0000002300000000
#060380:0013000033230000
#0603b0:0000003300000000
#060350:0000000000000013
#061320:3323000000000000
#061320:00000013
#061350:00000000000000000000000000003333
#062350:23
#064320:0014000000000000
#065360:00540000000000000000000000000000
#066320:24
#068380:0000001300002300
#070350:0000001300230000
#072350:0000001300230000
#0743a0:0000000000143400
#075360:0000002400000000
#078380:0000001300000000
#0783b0:0000000000230000
#0793b0:0000001300000000
#079380:0000000000332300
#080320:0000001300000000
#080350:0000000000230000
#082320:13
#082350:0033332300000000
#0823b0:0000000000130000
#082380:0000000000003323
#0833b0:0013000000000000
#083380:0000332300000000
#083321:0013000000000000
#083351:0000332300000000
#084381:0000001300000000
#0843b1:00000023
#085321:0000001300000000
#085351:0000000000230000
#085381:0000000000000013
#0863b1:0023000000000000
#086321:0000001300000000
#086351:00000033
#087351:00000053000000000000000000000000
#088321:0023000000000000
#086380:0000001300000000
#0863b0:00000033
#0873b0:00000053000000000000000000000000
#088380:0023000000000000
#0883b0:0000001300330000
#088380:0000000000003333
#089380:23
#091380:0013000000000000
#0913b0:0000002300000000
#093320:0013000000000000
#093360:0000002300000000
#096320:0014
#096360:00000024
#1003b0:0000000000130000
#100370:0000000000003333
#101370:33330000
#1013b0:0000003333333323
#102320:000000000000000000000000000000000016000000000000
#103320:0036
#104350:0056
#106320:56
#106350:00000026
