This file was generated by Ched 2.7.0.0.
#TITLE ""
#ARTIST ""
#DESIGNER ""
#DIFFICULTY 0
#PLAYLEVEL
#SONGID ""
#WAVE ""
#WAVEOFFSET 0
#JACKET ""
#REQUEST "ticks_per_beat 480"
#00002: 4
#BPM01: 185
#00008: 01
#TIL00: ""
#HISPEED 00
#MEASUREHS 00
#00112:0000261626142612
#0011c:0000001200000000
#00118:0000260026002616
#0011a:0000000000140000
#00015:0000000000002313
#00018:0000000000001323
#00216:0012001200000000
#00218:00121200
#0021a:0000001200000000
#0021c:0012
#00212:0012000000001200
#00214:0000120000000012
#00312:0016002600000000
#00318:1622162600121416
#00316:2200220000220000
#00314:00000034
#00412:0000160013000014
#00418:0016
#0041b:00130013
#00416:0014001400140024
#00514:0014000000001400
#00516:0000001400140000
#0051a:1200002400000000
#0051c:00120000
#00517:0000000000000013
#00519:00000013
#0051b:0000000000130000
#00512:0000000013000014
#00518:0024000000000000
#0061a:0000000000000014
#00618:00160000
#00612:00131613
#0061b:0013
#00616:0014001400140024
#00718:0014000000000000
#00716:0000001400000000
#00714:1224000000000000
#00712:0000122400240000
#0071b:0013
#0071a:0000000000240000
#00815:0000160016000015
#0081b:00130013
#00812:0015000013150012
#00819:0000001500000000
#0091c:0012000000120000
#0091b:1313
#00912:0000131200001500
#00918:00000012
#00916:0000000000150000
#01015:00161600
#01012:0000131500001414
#0101b:0013
#01019:0015000000000000
#0101a:0000000000140014
#01016:00000000000000000000001400000000
#01112:2400260000241526
#0111a:2400000000140000
#01118:0000260000000016
#01119:00000025
#01412:0000130013000014
#01417:00131300
#0141b:0013001300001300
#01416:0000000000000023
#0141a:0000000000000000000000000000000000000000000000000000000000340000
#01516:0014141400141414
#01512:0000130000130000
#0151b:0000001300001300
#01216:0000130013000013
#01212:0013001300001300
#0121b:0000130013000013
#01210:0041000000000000
#01316:0014141400180000
#0131b:00130000
#01312:000000130000181c
#0161b:0013000000001300
#01616:0014141400141424
#01612:0000130000130013
#01716:0014140014000000
#01713:0000001300000000
#01717:00000000000000130000130000000000
#01712:0000000000140018
#0171b:00001313
#0181b:0000130000130000
#01819:0000001300000013
#01817:0013000013000000
#01816:0000000000130000
#01812:0000242400002400
#01916:13
#0191b:13
#01919:0013000000000000
#01917:0000131300000000
#01915:0000000000160016
#01912:0000242400000013
#02017:0000000013130013
#02012:0000001300130013
#02015:00000013
#02014:00130000
#02016:0013000000000000
#0201a:0000242400002400
#02115:0013000000000000
#02112:0000130000130013
#0211b:13000013
#02116:0000000000141414
#0211a:0000242400000000
#02216:1300141400000000
#0221b:0013001313000000
#02212:0000130013000013
#02215:0000000000131316
#02218:00000000000000000000001300000000
#02316:0014000000000000
#02312:0000131300000016
#0231b:0000130000130000
#02318:0000000000001316
#02315:0000002613260000
#02417:0000001200000000
#02418:0000000016260000
#02412:0000000026160012
#0241c:0000000000000012
#02512:2c162c002c002c000000000000001200
#02515:00000016000000000000130013000000
#02518:00000000001600000000001300000000
#02517:0000000000000012
#02617:1212000012121212
#02614:0000121200000000
#0261c:1200000000120000
#02618:0000001200000000
#02612:0000000000001212
#0271c:12
#02712:0012000024240016
#0271a:0000121224240000
#02716:00000000000012000000001414000000
#02718:0000000000000016
#02717:12
#02812:16001600260013001600001300002600
#02818:0000160026000016
#0281b:0000001300130000
#02816:00000014
#02912:13000000160000130013000000130013
#0291b:00130000000013000000130013000000
#02916:00001400000000001400001400001400
#02918:00260000
#0321b:0000000000130000
#0321a:0014000000000000
#03215:00000000001400000000000000000000
#03212:0026001313002616
#03218:0000000000001626
#03210:0041000000000000
#03312:0013000013260013
#0331b:0000130000130000
#03318:0000001300000000
#03315:00000000000000130000000000000000
#03317:0013000000000000
#03316:00230000
#03416:1314130024132400
#0341b:1300000013130000
#03412:0013000000001313
#0341a:00140000
#03417:00000000000000000000000000130000
#0351b:1313000000130000
#03517:00131300
#03512:0000001313000014
#03516:24000000000000000000130000000014
#0361a:14
#0361b:0000001300130000
#03612:0014000000001300
#03617:00141300
#03616:0000000000000014
#03618:0026000000000000
#03712:0013261626160016
#03718:00000000160026001600260000000013
#0371b:0013000000000000
#03815:13000000000000130000000000000000
#03818:00160000000016001300260000000000
#03816:0000000000000014
#0381a:00000000000000000000000000000014
#03812:00002c00000000000016260000000000
#03912:1c26001600001300
#03916:00131400
#0391b:0000000000130000
#03918:0026000000000000
#04016:14002300001400000000000000000000
#04012:00000000001300000000000013000000
#04017:00000013
#04014:0000000000000013
#04019:0000000000000013
#0401a:0024000000000000
#0411a:0000140000240000
#04117:0000130000130000
#04112:0014000000001400
#04116:1323000000001300
#0411b:13
#04318:0013000026162600
#04312:0000000026122614
#0431a:0000000000000014
#04315:1623000000000000
#04412:2616000000001200
#0441c:0012001200000000
#04418:2600001200120000
#04416:00001212
#04414:0000000000120000
#0441a:0012
#0451c:12
#0451a:0012000000000000
#04518:0000221622260022
#04512:0000160016260000
#04516:0000002200000012
#04215:00002400000000000000000000001616
#04212:0013000013001300
#0421b:00001313
#04217:0000001300000000
#04216:0000000000140000
#04612:0016001300001300
#04616:0000000013000013
#04614:1400000000130000
#04617:0000001300001300
#0461b:0000000000000013
#0461a:0024
#04618:34
#04610:0041000000000000
#04717:0000130000130000
#04712:1300130000130000
#04719:0000001300000000
#0471b:0013000013000000
#0471a:0000000000000014
#04716:00000000000000002400000000000014
#04718:24
#04816:1800001300001300
#04812:00141c00000000002400000000001300
#0481b:0000001300001300
#04817:0000000013000013
#04819:0000000000130000
#05012:181c001300130013
#05017:0000001300130013
#05016:00002313
#0501b:0013
#0501a:00140000000000000000000000000000
#05112:0013001300130000
#05116:1323
#0511b:23131300
#05117:0013001300000000
#05118:0000000000000016
#05115:00000000000000000000000000000016
#05212:1626000016000016
#05218:00001600160016001600001200140016
#05216:0000000000120000
#05214:00000014
#0301b:13131300
#03015:00161600000000000000000000000000
#03012:00000013000000130000001300160000
#03016:00000000001414000000000000000000
#03018:0000000000001614
#03014:00000000000000000000000000000014
#03017:00000000000000000012120000000000
#03118:1200000000001626
#03116:00120000000000000000140000000000
#03112:002c001400001626
#03114:0014
#05512:0000001300000000
#05515:00000000000000130000000000000000
#05518:00000000000000001300000016000013
#0551b:13001300000000000013000000001300
#05517:0000000000130000
#05615:13000013000000000000000000000000
#05612:00130000130000000000000000000000
#05617:0000000013130000
#0561b:0000000000130000
#05616:0000001300000000
#05618:0013000000000000
#05312:1c16161600281428
#05316:00001428
#0531a:0000000000140014
#05318:0026000000000000
#0571b:13000000230013000000000000130000
#05716:0014000013001414
#05712:13000000000000002300130000000013
#05717:00130000
#05816:1418000014001414
#0581b:0000001300130013
#05817:00000000001300000000000000000000
#05812:0023000000131300
#05810:0041000000000000
#05912:1318001300000000
#05916:1400000013180000
#05914:0000000000001318
#0591b:0023000000000000
#0591a:0024
#05918:00000024
#06012:1300001200000000
#06017:0012000012120000
#0601c:0012000000120012
#06016:24
#06117:12001200000000001200000012003232
#06112:00001200000000001200000000003232
#06115:0000001200000000
#06119:0000000000120000
#0611c:00000012
#06216:0024000014002413
#0621b:0013000013130013
#06212:0000001300001300
#06316:14130000
#0631b:0013000013000023
#06312:1300240000230000
#06319:0000001300000000
#06315:0000002400160016
#06318:00000013
#06317:0024
#06717:0000000000130000
#06712:1600002c00130000
#06716:00120013
#0671b:00000013
#06718:00160014001200000000000000000000
#06714:0014000000000000
#06818:1626000000000000
#06817:0000001200000012
#0681c:0000000000001212
#06812:2616001200000000
#0681f:0000001100000000
#06914:1212000000001200
#06919:0012000000000000
#06912:0012
#0691a:0012
#06917:0000001200120012
#0691c:00000012
#07012:0012000000000000
#07014:00120000
#07016:0000001200001200
#07018:0012000000000012
#0701a:00120000
#0701c:0000001200001200
#0711a:12
#07114:12
#07116:0012001200000000
#07112:00120000
#07118:0000120000120000
#0711c:0000001200000000
#07115:00000012
#07119:0000000000000012
#07119:0000000000000012
#07212:1200001200001200
#0721c:12
#07218:0000001200001212
#07216:0000000000120000
#07316:12
#07312:0012000016000026
#07318:0012000026000016
#0731c:12
#07314:00000000000000000000001800000000
#07313:00000000002a0000
#07315:00000026
#07612:1600001400000013
#07617:00000000000000000014000000000000
#0761b:0000000000131300
#07618:16121600000026000000000000000000
#0761f:0000002100000000
#07912:0000232300000013
#07917:0000000000000013
#07916:24130000240000001300000023000000
#0791b:2323000000132300
#0801a:0014001400000000
#08016:00000014000000000000000013000000
#08012:0000142600130013
#08015:0014
#0811b:2300001300000000
#08112:0000001326162616
#08118:0000000016261626
#08116:0024000000000000
#08712:2300000000002616
#0871c:0000000000000012
#08715:00002626260013000000000000000000
#08718:0000002300002600
#0871b:23
#08812:2614261200002200
#0881a:0014000000000022
#0881c:0000000000120000
#08818:2600262600002200
#08814:0000000000000022
#08616:0000000000130014
#0861a:14
#08617:1300002400000000
#0861b:0000002300002300
#08612:00000023
#10016:0000120000120000
#10018:00120000000000000000000012000000
#1001a:00000012000000000000000000001200
#10014:0012000000000000
#1001c:00000000001200000000000000000000
#10012:1200002c00000000
#1011c:1200000000000012
#10112:00120000
#10114:0000001200000000
#10117:12
#10116:0012
#10118:0000000000120000
#1011a:00000012
#07516:00000000000000000000001200000000
#07518:363616363636363636000000000000160000000000000000
#07512:363616363636363636000000000000160000160000000000
#09312:00240000001c141c
#0931a:0024000000000000
#09316:00000024
#0941a:14
#09412:001c130013120000
#0941c:0000001200000012
#0941b:00130013
#09416:2400002500000025
#09415:0000000000250000
#09512:13120022001c001c
#09516:00120024
#09519:00150000
#09515:0015002500000000
#0951a:00000014
#09612:1414001424002600
#09616:24000014000000000000000000000000
#0961a:0000141424000000
#09618:00000026
#09718:0026162600000000
#09712:000000001600000026000000260000000000000000140000140000001c000000
#09716:00000000000000000000181400000000
#09018:0016
#09012:0000162800141628
#0901a:1400001400000014
#09014:25
#09016:0000000000280000
#09118:16
#09112:001300130018121a
#0911b:00130000
#09116:0014141400000000
#09115:00000025
#08912:0000261600000000
#08916:2200000000182500
#08914:000000000000001a
#0891c:22000012
#08918:0000002600000000
#08910:00000041
#09918:00000000000000000000161600140012
#09912:1400000018000000000000002c00000000000000001600000000000000000000
#09914:00000014
#09916:00180000141800000000000000001200
#0991a:00000014000000000000000000000000
#09812:0018001400182c000000180000001c00
#0981a:1400000000000000000000000000000000000000001400001400000000000000
#09816:00001800140000000000001400000000
#0651c:00120000
#06512:1200121200121200
#06516:0025000000000000
#06515:0024
#06514:0000000000000023
#06612:1212130013001300
#06615:00000000001616000000000000000000
#0661b:00000000000000130000001300000013
#06616:00000000000000000014140000000000
#06617:00000000000000000000000000121200
#06412:0013001200120012
#06415:1329000000002400
#06414:0023
#07415:16
#07414:00180000000000000000000000000000
#07412:000000000000000000000000160000000000260000000000000000000000000000000000160000360000360036003600
#07418:000000000000000000000000160000000000160000000000160000000000160000000000260000360000360036003600
#07413:002a000000000000
#05412:1426001313000013
#0541b:0000000013130000
#05417:0000001300001313
#05416:2800000000130000
#05418:0026000000000000
#10616:0000001200000000
#10618:1400001200000000
#10614:14
#10514:14141414
#10518:14141414
#10418:14141414
#10414:14141414
#10314:00001414
#10318:0015000014001400
#10313:0015000000000000
#10212:000000160000000000001600000000000016000000000000
#10218:000000260000000000002600000000000026000000000000
#04916:00000000130000002400130000000014
#0491b:1300130000130000
#04914:2400001300000000
#04912:0013000013000014
#0771b:0000001300001300
#07712:2626000013000013
#07715:0000000000130000
#07718:26002600000000000000001300002600
#07716:0000001300000000
#07717:0023
#07710:0000004100000000
#07812:0000130014002323
#07816:0000001400002400
#07817:0000230013000013
#0781b:0023002300000000
#08215:00000013000000000000000013000000
#08212:2300000000162c000000160000002600
#08218:00002600230000000000001300162600
#0821b:13
#08316:0014000000001400
#08312:000000141c0026000000000000001300
#08318:0000002600160000
#08317:0013
#0841b:13000000000000000013000000000000
#08416:00000000140000000014000000000000
#08417:0000002300000000
#08412:0000002400000000
#08512:0000130014000024
#08516:1300000013000013
#0851a:0000001400000000
#0851b:13
#08519:0013000000000000
#08517:0000132300000000
#08514:0013000000000000
#09212:1400001416280014
#09218:00160016
#0921a:0000000000140000
#09217:25
#09216:0000002800000028
#00055:0000000000000053
#00058:0000000000000053
#0025c:0062
#00358:0000000000424446
#00352:0000000000000036
#00452:0000360000000034
#00458:0046
#00554:0034000000000000
#00556:0000003400000000
#00557:0000000000000053
#0065a:0000000000000044
#00658:00460000
#00652:0036
#00758:0044000000000016
#00756:0000004400000000
#00752:0000000000540016
#0075a:0000000000640000
#00855:0000160016000045
#00852:0000000000000052
#0095c:0062000000620042
#00952:0000005200002500
#00958:00000022
#00956:0035000000550045
#00955:0000004500000000
#01055:00161600
#01452:0000000063000034
#0125b:0053
#01256:0000000000000053
#01356:0000000000480000
#01352:000000000000384c
#01552:0000000000530033
#01556:0000000000002434
#0165b:0063004300000000
#01656:0000244400000054
#01652:0000000000000033
#01752:0000000000240038
#01756:0054
#01857:0053
#0185b:0000000000230000
#01957:0000006300000000
#01955:0000000000360046
#01952:0000000000000043
#0195b:0000000000330000
#02155:0053000000000000
#02152:0000230000000053
#0215b:23
#02156:0000004300000014
#02057:0000000000000053
#02256:23
#02255:0000000000000056
#02252:0000000000000013
#02352:0000000000000056
#02358:0000000000000066
#02657:2200000000000052
#02552:0000001c00000052
#0275c:22
#02752:0000000000000016
#02758:0000000000000066
#02858:0000460000000046
#02852:2636
#02952:00360000
#0335b:0000000000530000
#03352:0000000000160000
#03456:0054230000000000
#03452:0053000000000000
#0345a:00240000
#03557:00235333
#0355b:0053000000230000
#03552:00005333
#03556:0000000000230000
#03652:0054000000000000
#03657:00240000
#03656:0000000000000014
#03658:0016000000000000
#0325a:0064000000000000
#03255:00000000002400000000000000000000
#03252:0016000023003600
#03258:0000000000000046
#04052:00000000002300000000000000000000
#04056:00006300002400000000000000000000
#0405a:0064000000000000
#0415a:0000240000540044
#04157:0000230000530043
#04152:0064003400002400
#04156:0063003300002300
#04452:0016000000005200
#0445c:0012000000000000
#04358:0063000000000000
#04355:0063000000000000
#04656:0000000000000053
#04654:34
#04652:0036000000000000
#04658:0046000000000000
#04752:2300000000530000
#0475a:0000000000000044
#04856:48
#04852:004c000000000000
#04857:0000000000000063
#05152:0053000000130000
#05156:53
#0515b:00535300
#05157:0000005300130000
#05052:383c000000000053
#05056:00000053
#05057:0000005300530000
#0505b:0053
#05258:0046260066000000
#05252:0056000000000000
#05652:00530000
#0565b:0000000000530000
#05656:0000002300000000
#05657:0000000000530000
#05352:0036260000000000
#05358:0066000000000000
#05856:0048000000000000
#05857:00000000002300000000000000000000
#05852:0053000000000000
#05952:0038000000000000
#0595b:0053000000000000
#0605c:0052000000000000
#06057:0000000000520000
#06157:0052000000005200
#0615c:00000052
#06256:0000000014000053
#0625b:0053000000000000
#06356:14
#06352:2300000000330000
#06355:0000000000360046
#0635b:0000000000000043
#06852:1600005200000000
#06858:0016000000000000
#07056:0000005200000000
#0705c:0000005200000000
#07156:0000005200000000
#07352:0052000036000000
#07358:0052000000000046
#07258:0000005200000000
#07952:0000005300000023
#07957:0000000000000023
#07956:00002353
#0795b:00000053
#0805a:0000006400000000
#08055:0024
#08052:0000001600000000
#08056:43
#0805b:43
#07652:6600005400000000
#07657:00000000000000000024000000000000
#0765b:00000023
#07658:00220000000016000000000000000000
#08852:0000005200000000
#08858:0000001600000000
#08755:0000005300000000
#08758:0000005300000000
#1015c:62
#07556:00000000000000000000002200000000
#07558:000026000000000000460000000000560000000000000000
#07552:000026000000000000360000000000000000000000000000
#0945c:0000006200000062
#09452:0000000000520000
#09456:3400003500000035
#09455:0000000000450000
#09552:0052003200000000
#09556:00220034
#09559:00250000
#09555:0065003500000000
#08952:0000005600000000
#08958:0000001600000000
#08956:00000035
#0895c:52
#09156:0000005400000000
#09155:00000045
#0655c:00220000
#07458:0000004626005600
#07452:0000005600005600
#10656:0000002200000000
#10658:5400002200004600
#10654:64
#10652:00000036
#10554:64546454
#10558:54645464
#10458:54645464
#10454:64546454
#10354:00006454
#10358:0055000054006400
#10353:0055000000000000
#10252:000000360000000000004600000000000056000000000000
#10258:000000360000000000004600000000000056000000000000
#03956:00230000
#03952:0016000000000000
#03958:0056000000000000
#01152:0000560000000016
#01158:0000660000000016
#02452:0036
#02458:0000000000460000
#03852:001c000000160000
#03858:0000000000160000
#04255:0054000000000000
#03152:001c000000001600
#03158:0000000000000016
#05452:0016000000000053
#05458:0016000000000000
#05456:0000000000530000
#07758:4600000000000016
#07752:0036000000000063
#08657:2300006400000000
#0865a:24
#08656:0033000000000000
#08652:0034000000000000
#0935a:0064000000000000
#09352:0054001600000000
#09358:0000001600000000
#09356:00000044
#09658:00000066
#09652:00000056
#09656:44
#09752:0000161600000000
#09758:0016001600000000
#09852:0000001c00000000
#10052:0000001c00000000
#05556:0013000000000000
#05557:0000000000530000
#00158:0000000000000016
#00152:0000000000000012
#0495b:2300000000630000
#04952:0000000000000034
#05757:00530000
#05756:0053
#05752:0013
#0575b:00130000
#06752:0000001c00000000
#07856:0000006400000000
#07852:0024
#07857:0023
#0785b:0000005300000000
#08158:0000000000460046
#08152:00003636
#08156:0014000000000000
#08252:0000001c00000016
#08258:0000000000000016
#0845b:00000000000000000023000000000000
#08456:00000000000000000024000000000000
#08457:0000005300000000
#08452:0000005400000000
#08357:0023
#08358:0000001600000000
#08352:0000006600000000
#08552:0000000024000064
#08556:0000000023000063
#0855a:0000005400440000
#08557:0000005300430000
#09054:35
#09052:0000003800000038
#09056:0000000000480000
#09257:45
#09256:0000004800000048
#09252:0000000000380000
#04556:0000000000000032
#09952:0000001c00000000
#06455:0059000000000000
#03758:00464600
#03752:0000003600360000
#000380:0000000000000013
#001320:0023000000000000
#000351:0000000000000013
#0013b1:0023000000000000
#0023c1:0012
#002361:00000022
#003361:0000000000120000
#003341:00000034
#003321:0000000000000026
#005371:0000000000000013
#0063b1:0023000000000000
#007321:0000000000140000
#007381:0000000000000026
#0073a0:0000000000140000
#007320:0000000000000026
#008320:0000000000000012
#009360:0025000000000000
#0093c1:0012000000000000
#009351:0000002500000000
#009320:0000001200005500
#009360:0000000000350025
#0093c1:0000000000120022
#009381:00000052
#011321:00160000
#0113b1:0023
#011380:00160000
#011320:0023
#0123b0:0013
#012370:00000023
#012360:0000000000000013
#013320:0023000000000000
#014320:0013
#014360:00000023
#014360:0000000000000013
#0143a0:0000000000000000000000000000000000000000000000000000000000343454
#014380:00000000000000000000000000000000000000000000000000000000000000000000000000000000000000000000000000000000000000000000000000540054
#0153a0:5454545424000000000000000000000000000000000000000000000000000000
#015380:00540054005400540000000000000000000000000000000000000000000000000000000000000000000000000000000000000000000000000000000000000000
#015320:0000000000130023
#015360:00000054
#0163b0:0013002300000000
#016360:00540000
#016360:0000000000000014
#0173b0:00230000
#017360:00001424
#017320:0000000000540000
#018370:00001323
#0183b0:0000000000530000
#019370:0000001300000000
#0193b0:0000000000230000
#020370:0000000000000013
#0213b0:33
#021380:0023000000000000
#021351:0013000000000000
#021321:00330000
#021361:0000002300000000
#021321:0000000000000013
#022361:53
#022321:0023000000000000
#022351:0000000000000016
#0233b1:0023000000000000
#023321:0000000000000016
#0243b1:00230000
#023380:0000000000000016
#024320:00230000
#025320:0000000000000012
#026370:52
#026320:0022000000000000
#026370:0000000000000012
#0273c0:52
#027370:0022000000000000
#027380:0000000000000016
#028320:56
#028380:0026000000000000
#031370:0000001300000000
#0313b0:0000000000230000
#0323a0:0014000024000000
#032350:00000000005400000000000000000000
#032321:0013
#032361:0000000000230000
#0333b1:0000000000130000
#033361:0000000000000023
#034321:0013002300000000
#034361:00530000
#034360:0014002400000000
#0343a0:00540000
#035360:1424000000000000
#035320:00540000000000000000000000000000
#0353b1:0013002300000000
#035371:00530000
#035371:00001323
#0353b1:0000000000530000
#035320:00001323
#035360:0000000000530000
#036320:0014002400000000
#036370:00540000
#036320:0013
#036360:0000000000230000
#036370:00000013
#0363b0:0000000000000023
#039380:0016002600000000
#039360:00530000
#039320:0013
#039360:0000000000230000
#039370:00000013
#0393b0:0000000000000023
#039361:0000000000000013
#040321:23
#0403a1:0014000024000000
#040361:00000000005400000000000000000000
#040360:0013000023000000
#040320:00000000005300000000000000000000
#041360:0013002300000000
#0413a0:00540000
#041321:0014002400000000
#041371:00530000
#041371:0000000000130023
#041321:00000054
#0413a0:0000000000140024
#041360:00000053
#042350:0014000000000000
#0423a0:0000002400000000
#043350:0013000000000000
#0433b0:0000002300000000
#043381:0013000000000000
#043321:0000002300000000
#044321:00000012
#045381:22
#045381:0000000000000012
#046381:3426000000000000
#046361:0000000000000013
#047321:53
#047361:0023000000000000
#047321:0000000000130000
#047371:0000000000000023
#048371:0000000000000013
#0493b1:53
#049371:0023000000000000
#0493b1:0000000000130000
#049361:0000000000000023
#050371:0000001300330000
#0503b1:00003323
#050360:00000013
#050320:0000000000000033
#051360:33230000
#051320:0033000000000000
#0513b1:00133300
#051371:0000003300230000
#052321:0016002600000000
#052381:00560000
#052381:0000000016220000
#053381:0016002600000000
#053321:00560000
#054361:0000000000130000
#054321:0000000000003333
#055361:3323000000000000
#055371:0000000000130000
#055321:00000023
#056321:00132300
#056361:0000005300000000
#0563b1:0000000000130000
#056361:00000000000000000000005300002300
#056370:0000000000130000
#056320:00000000000000000000005300002300
#057370:00130000
#057320:00000000005300002300000000000000
#057361:0013
#0573b1:00000000000000000053000023000000
#058321:0013000023000000
#058371:00000000005300000000000000000000
#0593b1:0013000000000000
#059361:0000002300000000
#0603c1:0012000000000000
#060371:0000002200000000
#060371:0000000000120000
#060321:0000000000000022
#061371:0012000000000000
#0613c1:0000002200000000
#061371:00000012
#061321:00000000000000000000000000003232
#062321:22
#0613c0:00000012
#061370:00000000000000000000000000003232
#062370:22
#0623b0:0013000000000000
#062360:0000002300000000
#062360:0000000000000013
#063320:53
#063360:0023000000000000
#064350:0019000000000000
#0653c0:00520000
#066350:00290000
#068320:0000001200000000
#068370:00000022
#070360:0000001200000000
#070320:0000000000220000
#0703c1:0000001200000000
#070381:0000000000220000
#071361:0000001200000000
#071321:0000000000220000
#072381:0000001200000000
#0723c1:0000000000220000
#073321:0012000000000000
#073361:0000002200000000
#073380:0012000000000000
#0733c0:0000002200000000
#074320:0000001600260000
#074380:0056
#074320:000000000000000000000000000000000000000000000000000000000000000000000000160000360000360036003600
#075320:363600363636363636260000000000000000000000000000
#075380:003600000000000000000000
#074381:000000000000000000000000000000000000000000000000000000000000000000000000160000360000360036003600
#075381:363600363636363636260000000000000000000000000000
#075321:003600000000000000000000
#075381:0000000000162600
#075361:00000000000000000000005200000000
#076321:1626000000000000
#076381:00520000000000000000000000000000
#076321:0000001400002400
#076371:00000000000000000054000000000000
#0763b0:00000013
#076370:0000000000000023
#077320:0000000000000013
#078370:0023000000000000
#0783b0:0000001300230000
#078370:0053
#078361:0000001400240000
#078321:0054
#079361:0000142400000000
#0793a1:00000000005400000000000000000000
#079320:0000001300230000
#079360:0053
#079360:00000013
#079320:0000000000000053
#080360:23
#0793b1:00000013
#079371:0000000000000053
#0803b1:23
#0803a1:0000001400240000
#080351:0054
#0803b1:00000013
#080371:0000000000000023
#081361:13
#081321:0023000000000000
#083321:0000001600260000
#083371:0053
#0833b1:00000013
#083371:0000000000000023
#084361:13
#084321:0023000000000000
#084370:0013000000000000
#0843b0:00230000
#084320:0000001400002400
#084360:00000000000000000054000000000000
#084371:0000001300002300
#0843b1:00000000000000000053000000000000
#085371:0000001300230000
#085321:0054
#0853a0:0000001400240000
#085360:0053
#085360:0000000000000013
#0863a0:54
#086360:0023000000000000
#085321:0000000000000014
#086371:53
#086321:0024000000000000
#086371:0000001400000000
#086321:0000000000240000
#087381:0000001300000000
#087321:0000000000230000
#087350:0000001300000000
#0873b0:0000000000230000
#088320:0000001200000000
#088360:0000000000220000
#0893c0:12
#089380:00220000
#089320:0000001600220000
#090380:0016260000000000
#091360:0000001400000000
#0913c0:0000000000220000
#092320:0016260000000000
#0933a0:0014000000000000
#093320:0000002600000000
#093321:0014000000000000
#093381:0000002600000000
#0943c1:0000001200000000
#094351:0000000000250000
#094320:0000000000120000
#094360:0000000000000025
#0943c1:0000000000000012
#095351:0035002500000000
#095391:00550000
#095320:0012002200000000
#095360:00520000
#096380:00000016
#097320:24
#096321:00000016
#0973a1:24
#1013c1:12
#101371:00220000
#102381:000000000000000000000000000000000016000000000000
#103331:0055000000000000
#103381:0054
#103341:00000054
#104381:5454
#104341:00540054
#105381:5454
#105341:00540054
#106381:54000026
#106361:0000005200000000
#102320:000000000000000000000000000000000016000000000000
#103380:0055000000005400
#103340:0054
#104340:5454
#104380:00540054
#105340:5454
#105380:00540054
#106340:54
#106380:0000005200000000
#106320:00000026
