This file was generated by Ched 2.7.0.0.
#TITLE ""
#ARTIST ""
#DESIGNER ""
#DIFFICULTY 0
#PLAYLEVEL
#SONGID ""
#WAVE ""
#WAVEOFFSET 0
#JACKET ""
#REQUEST "ticks_per_beat 480"
#00002: 4
#BPM01: 185
#00008: 01
#TIL00: ""
#HISPEED 00
#MEASUREHS 00
#00018:00000014
#00014:0000000000000024
#00312:14
#00318:0014000000001400
#00314:0000240000140024
#0031a:0000002400000000
#0041a:00140000
#00414:0014
#00419:00000014
#00513:14
#00518:00140000
#00512:0014
#00612:00140000
#00618:0014
#00613:00000014
#00719:14
#00714:00140000
#0071a:0014
#0081a:00140000
#00814:0014
#00819:00000014
#00913:14
#00918:00140000
#00912:0014
#01012:00140000
#01018:0014
#01113:14
#01119:14
#0121a:00140000
#01214:00000014
#01210:0041000000000000
#01318:00140000
#01312:00000014
#01418:00140000
#01412:00000014
#0151a:00140000
#0181a:14
#01814:00140000
#01818:0014
#01812:00000014
#0191a:14
#01914:00140000
#02012:14
#02018:00140000
#02014:0014
#0201a:00000014
#02112:14
#02118:00140000
#02312:0000000000000014
#0251a:14
#02514:0014000000000000
#02518:00240000
#02512:0000002400000000
#02718:1414
#02712:00140014
#0261a:1414
#02614:00140014
#0331a:00140000
#03314:0014
#03318:00000014
#03412:14
#0341a:00140000
#03414:0014
#03418:00000014
#03512:14
#0351a:00140000
#0371a:0000140000000014
#03714:0000001400000000
#03718:0024
#03712:0000000000240000
#03814:14
#0381a:0014000000000014
#03812:0000001400140000
#03818:0014
#03914:14
#04012:00000014
#04018:0000000000000014
#04114:14
#0421a:0014000000000000
#04318:0014000000000000
#04512:00140000
#04518:0000001400000000
#04514:0000000024000014
#0451a:0000000000240000
#04618:14
#0461a:0014
#04614:0024000000000000
#04610:0041000000000000
#04714:14
#0471a:0014
#04814:14
#04818:0014
#04912:14
#04918:0014
#05012:14
#0501a:0014
#05114:14
#05118:0014
#05212:14
#0521a:0014
#05314:14000014
#05318:0014
#05418:14
#06018:0014000000000000
#06212:0014
#06318:14
#06512:00000014000000000000000000000000
#06414:0014000000000000
#06914:14
#0731a:0014
#07314:0000000000140000
#07318:00000024
#07312:0000000000000024
#0771a:0014
#07714:00000014
#07710:0000004100000000
#07818:14
#07812:00140000
#0781a:0014
#07814:00000014
#07918:14
#07912:00140000
#0791a:0014
#0811a:0014
#08114:0000000000140000
#08118:00000024
#08112:0000000000000024
#08218:14
#0821a:0000140000140014
#08214:0000001400001400
#08212:0014000000000000
#08312:0014000000003434
#08318:00140000
#0851a:14
#08514:0014000000000000
#08518:00140000
#08512:0000001400000000
#0861a:0000001400000000
#08718:0000001400000000
#08912:00000014
#08910:00000041
#09018:14
#09019:0014
#09014:00000014
#09013:00140000
#0911a:14000014
#09214:14
#09213:0014
#09218:00000014
#09219:00140000
#09312:14000014
#09418:14
#09419:0014
#09414:00000014
#09413:00140000
#0951a:14000014
#09614:14
#09619:0014
#09613:0014
#10212:000000260000000000000000000000000016000000000000
#0741a:0024000000001400
#0681f:0000001100000000
#03213:0024000000000000
#03210:0041000000000000
#03613:0024000000000000
#0671a:0000002400000000
#07212:0000002400000000
#07613:0000002400000000
#0761f:0000002100000000
#08013:0000002400000000
#09719:0000002400000000
#09713:0000002400000000
#09819:0000002400000000
#09813:0000002400000000
#09919:0000002400000000
#09913:0000002400000000
#00118:0000343434343400
#08412:3434340000000000
#05810:0041000000000000
#01159:0000000000000014
#01153:0000000000000014
#02454:0014
#02352:0000000000000054
#03558:00000014
#0355a:00640000
#0425a:0054000000000000
#04358:0024000000000000
#06058:0054000000000000
#06454:0054000000000000
#06552:00000024000000000000000000000000
#08058:14
#07753:14
#0795a:0064
#03253:00000014
#03653:00000014
#08153:14
#0865a:0000006400000000
#08758:0000002400000000
#09759:0000001400000000
#09753:0000001400000000
#09859:0000001400000000
#09853:0000001400000000
#09959:0000001400000000
#09953:0000001400000000
#10252:000000000000000000000000000000000056000000000000
#0745a:00000054
#0013a0:0014000000000000
#001380:0000343434343424
#011390:0000140000343424
#011331:0000140000343424
#015341:00000014
#016341:00340034
#017341:0024
#019381:00001424
#021341:00001424
#0223a1:14
#022381:0034
#0233a1:24
#023321:0000000000000014
#024341:0024
#028381:14
#0303a1:0024
#032331:0014000000002400
#0353a1:00140000
#035381:00000024
#036331:0014000000002400
#0393a1:0014003434343434
#0403a1:3424000000000000
#0413a1:0014003400340034
#0423a1:0034000000000000
#043381:0054000000000000
#0443a1:0024000000000000
#054341:00140000
#054321:00000034
#055341:00340000
#055321:00000024
#056381:00140000
#0563a1:00000034
#057381:00340000
#0573a1:00000024
#058321:00140000
#058341:00000034
#059321:00340000
#059341:00000024
#060381:0014000000000000
#0613a1:00000024
#063341:0000143434340034
#064341:0034000000000000
#065321:00000054000000000000000000000000
#066341:00240000
#0673a1:0000001400000000
#0683a1:0000002400000000
#0693a1:0014
#0703a1:0000003400000000
#071381:0000003400000000
#072381:24
#072321:0000001400000000
#073321:24
#0743a1:0014003400343400
#075381:0000002400000000
#076331:0000001400000000
#077331:24
#0793a1:0014
#080381:24
#080331:0000001400000000
#081331:24
#083321:0000001400343434
#084321:3434340000000000
#084341:0000002400000000
#0853a1:0000000000140034
#0863a1:0034003400000000
#087381:0000003400000000
#0883a1:0000002400000000
#096331:00000014
#097331:0034342400000000
#096390:00000014
#097390:0034342400000000
#102320:000000160000000000003600000000000036000000000000
#106340:00000026
