This file was generated by Ched 2.7.0.0.
#TITLE ""
#ARTIST ""
#DESIGNER ""
#DIFFICULTY 0
#PLAYLEVEL
#SONGID ""
#WAVE ""
#WAVEOFFSET 0
#JACKET ""
#REQUEST "ticks_per_beat 480"
#00002: 4
#BPM01: 136
#00008: 01
#TIL00: ""
#HISPEED 00
#MEASUREHS 00
#0001a:14
#00114:14
#00218:14
#00312:14
#0041a:14
#00514:14
#00618:14
#00712:14
#0081a:14
#00810:41
#0091a:14
#01014:14
#01114:14
#01218:14
#01318:14
#01412:14
#01512:14
#02019:14
#02013:14
#0211a:14
#02214:14
#02318:14
#02412:14
#02518:14
#02510:41
#02612:14
#0271a:14
#02814:14
#03712:0016
#03718:26
#0371f:21
#03818:16
#03812:0016
#03810:41
#04112:0016
#04118:26
#04218:16
#04212:0016
#04318:1616
#04412:1616
#04512:0016
#04518:26
#04718:0016
#04712:26
#04912:0016
#04918:26
#05118:0016
#05112:26
#05719:14
#05713:14
#05818:0016
#05812:26
#05810:41
#05912:16
#05918:0016
#06218:0016
#06212:26
#06312:16
#06318:0016
#06412:1616
#06518:1616
#06618:0016
#06612:26
#06610:41
#06812:0016
#06818:26
#07018:0016
#07012:26
#07212:0016
#07218:26
#07418:0014
#07414:24
#0291f:11
#01610:41
#016390:14
#017390:24
#018330:14
#019330:24
#0293a0:1434
#0303a0:24
#031340:1434
#032340:24
#033380:1434
#034380:24
#035320:1434
#036320:3424
#039380:1626
#040320:1626
#046380:1626
#048320:1626
#050380:1626
#052320:1626
#053390:14
#054390:24
#055330:14
#056330:24
#060320:1626
#061380:1626
#067320:1626
#069380:1626
#071320:1626
#073380:1626
#075340:1424
#076380:14340000
#077380:24
