This file was generated by Ched 2.7.0.0.
#TITLE ""
#ARTIST ""
#DESIGNER ""
#DIFFICULTY 0
#PLAYLEVEL
#SONGID ""
#WAVE ""
#WAVEOFFSET 0
#JACKET ""
#REQUEST "ticks_per_beat 480"
#00002: 4
#BPM01: 136
#00008: 01
#TIL00: ""
#HISPEED 00
#MEASUREHS 00
#00018:00000013
#00015:0000000000000013
#00016:0000001300130000
#00017:13000013000000000000000000000000
#00112:13
#00119:00000013000000000000000000000000
#0011b:0000001300000000
#00117:1300000000130000
#00115:00000013
#00118:0000000000000013
#00114:00000013000000000000000000000000
#00116:0000001300000000
#0021b:13
#00212:00000013000000000000130000000000
#00216:1300001300000000
#00215:00000013
#00218:0000000000000013
#00217:00000013000000000000000000000000
#00312:0013
#0031b:13
#00316:13
#00417:0000001300130000
#00416:00000013000000000000000000000000
#00415:00000013
#00418:0000000000000013
#00617:0013
#00616:00130013
#00612:13
#0061b:13130000
#00717:1300000013000013
#00719:0013000000000000
#0071b:00000000130000000000001300000000
#00714:0000001300000000
#00712:0000000000000013
#00716:00130000
#00817:13
#00816:00130000
#00815:00000000000000001300000000000013
#00818:00000000000000000013001300001300
#00812:13000000000000000000000000130000
#0081b:00130000
#00810:41
#0091b:1313
#00912:00001300000000000000001300000000
#00916:00000000000000000013000000000000
#00915:00130000
#00918:0000001300000000
#00917:00000013
#01016:13000000000000001300001300000000
#01017:00130000
#0101b:00000000000000000000000000130000
#01015:0000000000000013
#01018:00000000000000000000000000000013
#01012:00130000
#0121b:00000000130000000000001300000000
#01212:00000000000000001300000000130000
#01217:13000000000000000013000000000000
#01218:0000000000000013
#01215:00000000000000000000000000000013
#01216:00000000130000000000001300000000
#0131b:13131300
#01312:00001300000013000000001300000000
#01317:0013001300001300
#01316:00000000130000000013000000000000
#01417:00130000
#0141b:00000000000000001300001300130000
#01415:0000000000000013
#01418:00000000000000000000000000000013
#01412:00130000
#01416:13
#01512:1300000013000013
#01515:0013000000000000
#01518:00130000
#0151b:0000001300000000
#01517:0000000013000013
#0161b:0013000000000000
#01616:0013000000000000
#01617:00000000000000130000000000000000
#01612:00000000000000130000000000000000
#01610:41
#01718:1313000000000000
#01715:00130000000000000000000000000000
#01712:00000013000000130000001300000000
#01716:00000000001300000013000000001300
#01717:00000000000000130000000013000000
#0171b:00000000001300000013000000000000
#0211b:13000000000000130000000013000000
#02115:00130000001300000000000000000000
#02118:0013130000000000
#02112:00000013000000000000130000000000
#02119:0000000000000013
#02116:00000000000000130000000013000000
#02114:0000000000000013
#02217:13000000001300000000000000000000
#0221b:0013000000001300
#02216:00000013000000000000000000000000
#02212:1300001300000000
#02218:0000000000000013
#02312:13000000000000130000000013000000
#02317:00130000000000130000000000000000
#02314:0013000000000000
#02319:00000013000000000000000000000000
#02316:00130000
#0231b:00000000001300000000130000000000
#02315:0000000000000013
#02418:13
#02416:00000013000000000000000000000000
#0241b:00001300001300000000130013000000
#02417:00000000000000130000000000001300
#02412:00000000001300001300000000001300
#0251b:1313130000131300
#02516:00130013000000000000000013000000
#02512:0000001313000013
#02517:00000000000000130000000000000000
#02510:41
#02816:00001313000000001300000000000000
#0281b:00000013000000001300000000001300
#02817:00000000001313000000000000000000
#02812:0000001300000000
#02815:13
#02917:13000000130000001313000000001300
#0291b:00001300000013000000001300000000
#0291f:11
#02912:23232323
#0301b:1300000013000013
#03017:00000013000000000000000000000000
#03012:23232323
#03117:1313
#03116:00000000130000000000001300000000
#03118:0000000000000013
#03112:2323
#0311b:00230023
#0321b:1313
#03215:0013001300000000
#03218:00130000
#03212:2300000013000013
#03514:0013000000000000
#03519:0000001300000000
#03516:1313
#03515:00000000000000000000130000000013
#03518:00000000000000000000001300000000
#0351b:23000000000000002300000000130000
#03517:00130000
#03512:00230023
#03618:1313131315151500
#03618:13
#03615:00130013001300130000000000000000
#03613:00000000000000000015001500000000
#03717:1300001300000013
#03712:1300001300000000
#03713:00000013
#03716:00000013000000000000000000000000
#0371b:00000023000000000000230000000000
#0371f:21
#03816:13
#03814:00000013000000000000000000000000
#03812:0000001300000000
#0381b:2300000000230000
#03819:00000023000000000000000000000000
#03817:0000002300000000
#03818:00000023
#03815:0000000000000023
#03810:41
#03912:13000013000000000000000000001300
#03916:0000001300000000
#03917:00000013000000000000130000001300
#0391b:13000013
#04016:1313
#0401b:13
#04012:00130000
#04017:00130013
#04418:0013000000000000
#04415:00130000
#04412:00000000000013000000001300000000
#0441b:1300000013000013
#04416:0000000013000013
#0451b:13000000000000001300001300000000
#04517:00130000
#04516:13000000000000000013000000000000
#04512:00000000130000000000000000130000
#04518:0000000000000013
#04515:00000000000000000000000000000013
#0461b:13000000000000001313000013000000
#04619:0013001300000000
#04617:00130000
#04616:00000000000000001300001300000000
#04612:00130000
#04712:13000000000000001300000000130013
#0471b:00000000130000000000001300000000
#04717:0000000013000013
#04716:00130000
#04817:1300130013000013
#0481b:0013001300000000
#04812:0000130013000013
#04816:00001300000013000000001300000000
#0541b:13001300001300000013000000000000
#05416:00130013000000000013000000001300
#05412:00000000001300130000001300000000
#05417:00000000000000130000000013000000
#05712:1200000000000012
#05716:00000012000000000000000012000000
#05718:1200001200000000
#0571c:00000012000000000000000000000000
#05816:1300001300001300
#05817:00000013000000000000130000000000
#0581b:2300002300001300
#05819:0000000000000013
#05812:00000023000000000000000000000000
#05810:41
#05917:13
#0591b:00000013000000000000230000000000
#05912:23
#05916:00000023000000000000000000000000
#05918:00000023
#05915:0000000000000023
#06017:1300001300000000
#0601b:00000013000000000000000000000000
#06012:1300001300000000
#06016:00000013000000000000130000000000
#06018:00000013
#06015:0000000000000013
#06117:1313
#06112:1313
#0611b:00130000
#06116:00130000
#0641b:13230000
#06412:13
#06415:00232300
#06418:00000023
#06618:00000000000000001300000000000013
#06615:00000000000000000013000000001300
#0661b:23000000000000000000001300130000
#06612:00000000230000000000001300000000
#06616:24240000
#06610:41
#06717:0013
#06712:23000000000000001313000000000000
#06716:00000000230000000000001300000000
#0671b:00230013
#06714:0023000000000000
#06719:0000002300000000
#06817:0013
#06812:23000000000000001300000000130000
#06818:0000000000000013
#06815:00000000000000000000000000000013
#06816:00000000240000000000001300000000
#0681b:00230000
#06916:0000000013000013
#0691b:2300000013000013
#06912:00230000
#06919:0023000000000000
#06917:00230000
#06914:0000002300000000
#0741b:13000000000000001300000000130000
#07412:00000000130000000000001300000000
#07415:0000000000000013
#07418:00000000000000000000000000000013
#07416:13
#07512:2300000013000013
#07517:0013
#0751b:00000000000023000000001300000000
#07515:0023000000000000
#07518:00230000
#0051b:13
#00514:00000013000000000000000000000000
#00512:0000001300000000
#00516:1300000000130000
#00518:00000013
#00515:0000000000000013
#00519:00000013000000000000000000000000
#00517:0000001300000000
#0201a:1212000000000000
#02016:00120012000000000000000000000000
#02012:00000000001200000000000000000000
#02018:00000000001200000000000000000000
#0201b:00000000000000120000000000000000
#02017:00000000000000000012000000000000
#02013:00000000000000000000001200000000
#03316:13000000130000001313000000001300
#03312:00001300000013000000001300000000
#0331b:23232323
#03412:1300000013000013
#03416:00000013000000000000000000000000
#0341b:23232323
#04116:1300001300000013
#0411b:1300001300000000
#0411a:00000013
#04117:00000013000000000000000000000000
#04112:00000023000000000000230000000000
#04217:13
#04219:00000013000000000000000000000000
#0421b:0000001300000000
#04212:2300000000230000
#04214:00000023000000000000000000000000
#04216:0000002300000000
#04215:00000023
#04218:0000000000000023
#0431b:13
#04315:13000023
#04312:00230000
#04318:00232300
#04912:13000000000000001300001300000000
#04916:00130000
#04917:13000000000000000013000000000000
#0491b:00000000130000000000000000130000
#04915:0000000000000013
#04918:00000000000000000000000000000013
#05012:13000000000000001313000013000000
#05014:0013001300000000
#05016:00130000
#05017:00000000000000001300001300000000
#0501b:00130000
#0511b:13000000000000001300000000130013
#05112:00000000130000000000001300000000
#05116:0000000013000013
#05117:00130000
#05216:1300130013000013
#05212:0013001300000000
#0521b:0000130013000013
#05217:00001300000013000000001300000000
#05312:0013000000000000
#05317:0013000000000000
#05316:00000000000000130000000000000000
#0531b:00000000000000130000000000000000
#05512:13001300001300000013000000000000
#05517:00130013000000000013000000001300
#0551b:00000000001300130000001300000000
#05516:00000000000000130000000013000000
#0561b:13001300001300000000001300000000
#05616:00130013000000000000001300000000
#05612:00000000001300130000000000000000
#05614:00000000000000000013000000000000
#05617:00000000000000130000000000000000
#05619:00000000000000000013000000000000
#06217:1300001300001300
#06216:00000013000000000000130000000000
#06212:2300002300001300
#06214:0000000000000013
#0621b:00000023000000000000000000000000
#06316:13
#06312:00000013000000000000230000000000
#0631b:23
#06317:00000023000000000000000000000000
#06315:00000023
#06318:0000000000000023
#06515:0013000000000000
#06518:00130000
#0651b:00000000000013000000001300000000
#06512:1300000013000013
#06517:0000000013000013
#07015:00000000000000001300000000000013
#07018:00000000000000000013000000001300
#07012:23000000000000000000001300130000
#0701b:00000000230000000000001300000000
#07016:24240000
#07116:0013
#0711b:23000000000000001313000000000000
#07117:00000000230000000000001300000000
#07112:00230013
#07119:0023000000000000
#07114:0000002300000000
#07216:00241300
#0721b:23000000000000001300000000130000
#07215:0000000000000013
#07218:00000000000000000000000000000013
#07217:00000000000000000000001300000000
#07212:00230000
#07312:2300000013000013
#07317:0000000013000013
#0731b:00230000
#07314:0023000000000000
#07316:00230000
#07319:0000002300000000
#07616:13000000000000000013000000000000
#07612:0013000000000000
#07617:0013000000000000
#0761b:00000000000000000013000000000000
#01112:1313
#0111b:00001300000000000000001300000000
#01117:00000000000000000013000000000000
#01118:00130000
#01115:0000001300000000
#01116:00000013
#01815:1313000000000000
#01818:00130000000000000000000000000000
#0181b:00000013000000130000001300000000
#01817:00000000001300000013000000001300
#01816:00000000000000130000000013000000
#01812:00000000001300000013000000000000
#01912:00000013001300000000001300000000
#01917:00000000001300000000001300000000
#01918:0013000000000000
#01915:00130000000000000000000000000000
#0191b:13000000000000130000000000000000
#01916:00000000000000130000000000000000
#01914:00000000000000000013000000000000
#01919:00000000000000000013000000000000
#02616:13000000001300000000000000000000
#02612:0013000000001300
#02617:00000013000000000000000000000000
#0261b:1300001300000000
#02615:0000000000000013
#0271b:13000000000000130000000013000000
#02716:00130000000000130000000000000000
#02719:0013000000000000
#02714:00000013000000000000000000000000
#02717:00130000
#02712:00000000001300000000130000000000
#02718:0000000000000013
#00156:0000005300000000
#0025b:53
#00257:00000053000000000000000000000000
#0035b:53
#00352:0053
#00557:0000006300000000
#00656:00530053
#00657:0053
#00852:13
#0085b:00130000
#0105b:13
#01052:00130000
#00957:00000053
#0125b:00130000
#01252:13
#01357:00000053
#0145b:13
#01452:00130000
#01557:0053
#01552:0053
#0155b:00000000000000000000001300000000
#01556:00000000000000000000001300000000
#0165b:0053000000000000
#01656:0053000000000000
#01657:00000000000000230000000000000000
#01652:00000000000000230000000000000000
#01757:00000053
#0215b:00000000000000530000000000000000
#02252:0000005300000000
#02352:00000000000000530000000000000000
#02452:0053
#02856:0053
#0285b:0053
#0305b:5353
#03057:00000053000000000000000000000000
#0325b:0053
#03252:0053
#03452:6363
#03456:00000063000000000000000000000000
#03658:00000015
#0375b:00000013000000000000130000000000
#03752:5300005300000000
#03757:5300005300000000
#03756:00000053000000000000000000000000
#03852:0000005300000000
#0395b:53
#03957:00000053000000000000000000000000
#03956:0000005300000000
#0405b:53
#04056:0053
#04057:00230000
#04156:6300006300000000
#0415b:6300006300000000
#04152:00000013000000000000130000000000
#04157:00000053000000000000000000000000
#0425b:0000006300000000
#0445b:0053
#04556:13
#0455b:13
#04557:00130000
#04552:00130000
#0465b:00000053
#04757:13
#04752:1353
#0475b:00130000
#04756:00130000
#04857:0053
#04952:13
#04956:00130000
#04957:13
#0495b:00130000
#0515b:1363
#05152:00130000
#05157:00130000
#05156:13
#05052:00000063
#05256:0063
#05252:00000000000000000000001300000000
#05257:00000000000000000000001300000000
#05352:0063000000000000
#05357:0063000000000000
#05356:00000000000000230000000000000000
#0535b:00000000000000230000000000000000
#05457:00000053
#0545b:0000000000000013
#05556:00000063
#05552:0000000000000013
#0585b:1300001300000000
#05856:5300005300000000
#05857:00000053000000000000000000000000
#05852:00000013000000000000000000000000
#05957:5300001300000000
#0595b:00000053000000000000000000000000
#05952:0000001300000000
#05956:00000053000000000000000000000000
#06057:0000006300000000
#06157:0053
#06152:5353
#06156:00230013
#0615b:00000013
#06257:6300006300000000
#06256:00000063000000000000000000000000
#06252:1300001300000000
#0625b:00000013000000000000000000000000
#06356:6300001300000000
#06352:00000063000000000000000000000000
#06357:00000063000000000000000000000000
#0635b:0000001300000000
#06552:0063
#0665b:43
#06652:00330000
#06852:33
#0685b:00430000
#06857:0053
#0675b:00000053
#0695b:0053
#06956:0053
#06952:00000000000000000000001300000000
#06957:00000000000000000000001300000000
#07256:0063
#0725b:43
#07252:00330000
#07152:00000063
#07052:33
#0705b:00430000
#0735b:00000000000000000000001300000000
#07356:00000000000000000000001300000000
#07352:0053
#07357:0053
#0745b:5353
#07452:00530000
#07552:0000000053000053
#0755b:00000000000000000000005300000000
#07652:0053000000000000
#07657:0053000000000000
#07656:23000000000000000023000000000000
#0765b:00000000000000000023000000000000
#01156:00000063
#01856:00000063
#0265b:0000006300000000
#0275b:00000000000000630000000000000000
#000320:13000023000000000000000000000000
#0003b0:0000001300230000
#001360:0000001300000000
#001320:0000000000230000
#0023b0:1300002300000000
#002370:00000033000000000000000000000000
#0033b0:13
#003370:0023
#003321:0013
#004361:23
#0043b0:13000023000000000000000000000000
#004320:0000001300230000
#005370:0000001300000000
#0053b0:0000000000230000
#006360:00130000
#006320:0023
#006371:0013
#0063b1:00000023
#006360:00000013
#007320:23
#007320:0013
#007360:00000000000000000000002300000000
#009370:00000013
#0103b0:23
#0103b0:00000000000000001300002300000000
#011360:00000013
#012320:23
#013370:00000013
#0143b0:23
#014360:00000000000000001300002300000000
#015320:0013
#015360:00000000000000000000002300000000
#015371:0013
#0153b1:00000000000000000000002300000000
#0163b1:0013000000002300
#016371:00000000000000530000000000000000
#016360:0013000000002300
#016320:00000000000000530000000000000000
#017370:00000013
#0173b0:0000000000000023
#018360:00000013
#018320:0000000000000023
#0213b0:00000000000000130000000000000000
#021370:0000000000230000
#022320:0000001300000000
#022360:00000023
#023320:00000000000000130000000000000000
#023360:0000000000230000
#024320:0013
#024360:00000023
#0263b0:0000001300000000
#026370:00000023
#0273b0:00000000000000130000000000000000
#027370:0000000000230000
#028360:0013
#028320:00000023
#0283b1:0013
#028371:00000023
#0303b1:1300002300000000
#030371:00000033000000000000000000000000
#0303b1:0013
#030371:00000023
#032321:0013
#032351:00000023
#0323b0:0013
#032380:00000023
#034320:1300002300000000
#034360:00000033000000000000000000000000
#034320:0013
#034360:00000023
#037320:1300003300000000
#037360:00000033000000000000230000000000
#037371:13
#0373b1:00000023000000000000000000000000
#037371:0000001300000000
#0373b1:0000000000230000
#038321:0000001300000000
#038361:0000000000230000
#0393b1:1300002300000000
#039371:00000033000000000000000000000000
#039360:0000001300000000
#039320:0000000000230000
#0403b0:1323
#040370:00530000
#040361:0013
#040321:00000023
#0413b1:1300003300000000
#041371:00000033000000000000230000000000
#041360:13
#041320:00000023000000000000000000000000
#041360:0000001300000000
#041320:0000000000230000
#0423b0:0000001300000000
#042370:0000000000230000
#043320:00132300
#043381:00001323
#043350:00000013
#044350:23
#0443b0:0013
#044370:00000000000000000000002300000000
#0463b0:00000013
#047370:23
#047320:0013
#047360:00000000000000000000002300000000
#048370:0013
#0483b0:00000000000000000000002300000000
#050320:00000013
#051360:23
#0513b0:0013
#051370:00000000000000000000002300000000
#052360:0013
#052320:00000000000000000000002300000000
#053320:0013000000002300
#053360:00000000000000530000000000000000
#053371:0013000000002300
#0533b1:00000000000000530000000000000000
#054371:00000013
#0543b1:0000000000000023
#055361:00000013
#055321:0000000000000023
#057321:0000001200220000
#057380:0000000000120022
#0573c0:00000032
#058360:13
#058320:00000023000000000000000000000000
#058371:00000013000000000000000000000000
#0583b1:0000002300000000
#058360:0000001300000000
#058320:0000000000230000
#059370:1300002300000000
#0593b0:00000033000000000000000000000000
#059361:00000013000000000000000000000000
#059321:0000002300000000
#060371:0000001300000000
#0603b1:0000000000230000
#061321:1333
#061361:00530023
#061370:0013
#0613b0:00000023
#062370:13
#0623b0:00000023000000000000000000000000
#062361:00000013000000000000000000000000
#062321:0000002300000000
#062370:0000001300000000
#0623b0:0000000000230000
#063360:1300002300000000
#063320:00000033000000000000000000000000
#063371:00000013000000000000000000000000
#0633b1:0000002300000000
#0643b1:00132300
#064350:00001323
#064381:00000013
#065381:23
#065321:0013
#065361:00000000000000000000002300000000
#0673b1:00000013
#068371:23
#068371:0013
#0683b1:00000000000000000000002300000000
#069361:0013
#069321:00000000000000000000002300000000
#0693b0:0013
#069370:00000000000000000000002300000000
#071320:00000013
#072360:23
#072360:0013
#072320:00000000000000000000002300000000
#073320:0013
#073360:00000000000000000000002300000000
#073371:0013
#0733b1:00000000000000000000002300000000
#0743b1:13
#074371:00230000
#074320:00130000
#074360:0023
#0743b1:0013
#074371:00000000000000000000002300000000
#075321:0013
#075361:00000000000000000000002300000000
#0753b0:00000000000000000000001300000000
#075370:0000000000000023
#075321:0000000000000013
#076361:53000000000000000053000000000000
#076321:0033000000000000
#077321:23
#076370:0013000000000000
#0763b0:00000000000000000053000000000000
#077370:23
