This file was generated by Ched 2.7.0.0.
#TITLE ""
#ARTIST ""
#DESIGNER ""
#DIFFICULTY 0
#PLAYLEVEL
#SONGID ""
#WAVE ""
#WAVEOFFSET 0
#JACKET ""
#REQUEST "ticks_per_beat 480"
#00002: 4
#BPM01: 136
#00008: 01
#TIL00: ""
#HISPEED 00
#MEASUREHS 00
#0001b:00000013
#00015:0000000000000013
#00112:1300001300000000
#0011b:00000013000000000000130000000000
#00118:1300001300000013
#00115:00000013000000000000000013000000
#00212:13
#00218:0000000000130013
#00215:00000013000000000000000013000000
#0031b:0013
#00312:13
#0061b:00130013
#00618:0013
#00715:0013000000000000
#00718:00130000
#00712:0000001300000000
#0071b:0013
#00815:0013
#00812:13000000000000000033000000000000
#00818:00130000
#00810:41
#00912:0013000000000000
#0091b:00001333
#00915:00000000000013000013000000000000
#00918:00000000130000000000001300000000
#0151b:0013000000000000
#01515:00130000
#01518:0000001300000013
#01512:0013
#01612:0013000000000000
#01616:00000000000000130000000000000000
#01610:41
#02115:00000000000000130000000000001300
#0211b:00333333330000000000000013000000
#02218:13000013000000000000000000000000
#02212:0013000000000000
#0221b:0000001300000000
#02215:00000000001300000000000000000000
#02415:13000013000000130000000000000000
#02418:0013000013000000
#0241b:00000000001300000000000000000000
#02515:1313130013000000
#02518:00130013000000000000130000001300
#0251b:0000001300000000
#02512:00000013
#02510:41
#0261b:0013000000000000
#02615:13000013000000000000000000000000
#02618:00000000001300000000000000000000
#02612:0000001300000000
#0281b:0000001300000013
#02818:13000013000000000000000000000000
#02812:0013000000000000
#02815:00000000001300001300000000000000
#02915:1300000013000013
#02918:00001300000000000013000000000000
#02912:00000000130000000000001300000000
#0291b:00000000000013000000001300000000
#0291f:11
#03018:1300000000000013
#0301b:00000013000000000000000000000000
#03015:0013
#03115:13
#03118:0000130000000013
#0311b:13
#03112:00130000
#03218:0013000013000000
#03215:00130000
#0321b:0000001300000000
#03212:1300000013000013
#03512:00001300000000000000000000130000
#03515:0000000000130000
#03518:00000000000000000000001300000000
#0351b:00000000000000001300000000000013
#03712:0000001300000013
#03718:00000023000000000000000013000000
#0371b:13
#03715:0000000000230000
#0371f:21
#03912:0000000000130000
#03918:00000013000000000000000013000000
#03915:0000000000000013
#0391b:13
#0401b:1313
#04018:00130000
#0441b:0013000000000000
#04412:00130000
#04415:0013
#04418:0000001300000000
#0451a:14
#04518:0013
#04515:00000000000000000013000000000000
#0451b:00000000000000000000001300000000
#04514:00140000
#0461b:0013000000000000
#04615:00130000
#04618:00000000000013000013000000000000
#04612:00001334
#04614:00000000000000000000001400000000
#04718:00140000
#04715:0013
#04815:0013001300000000
#04818:00131300
#04812:0013
#05415:00000000000000130000000033000000
#05412:00000000000000000000001300000000
#0541b:00000000001300000000000000000000
#05418:00000000000000000013000000000000
#05714:00000012000000000000000000000000
#05716:1200001200001200
#05718:00000012000000000000120000001200
#0571a:1200001200000000
#0581b:00000023000000000000130000000000
#05818:0000000000000013
#05815:0000002300001300
#05812:23
#05810:41
#06015:00000013000000000000000013000000
#06018:1300001300000013
#06012:1300001300000000
#0601b:00000013000000000000000000000000
#07518:0000230013000013
#07512:0000000013000013
#0751b:0023000000000000
#07515:0000002300000000
#02019:1212000000000000
#02015:00120012000000000000000000000000
#0201a:00000000001200000000000000000000
#02016:00000000000000120000000000000000
#02018:00000000000000000012000000000000
#02014:00000000000000000000001200000000
#0531b:0013000000000000
#05317:00000000000000130000000000000000
#05612:00000000000000000000001300000000
#05615:00000000000000000013000000000000
#05618:00000000000000130000000000000000
#0561b:00000000001300000000000000000000
#06112:1313
#06115:00130000
#07412:1313
#07418:1313
#0741b:00130000
#07415:00130000
#0761b:13000000000000000013000000000000
#07618:0013000000000000
#07615:13000000000000000013000000000000
#07612:0013000000000000
#01118:0013000000000000
#01115:00000000130000000000001300000000
#0111b:0000001300000000
#01112:0013
#01113:00000000000000000033000000000000
#01015:00130000
#00412:00000013
#00418:0000000000000013
#0051b:1300001300000000
#00512:00000013000000000000130000000000
#00515:1300001300000013
#00518:00000013000000000000000013000000
#01212:0013
#01218:00130000
#01215:00000000000000000033000000000000
#01315:00001300000000000013000000000000
#01318:00000000130000000000001333000000
#01312:0000001300000000
#0131b:0013
#01415:00130000
#01912:00000000001400000000001400000000
#0191a:00000000000000140000000000000000
#01916:00000000000000000014000000000000
#02318:00000000000000130000000000001300
#02312:00333333330000000000000013000000
#02715:00000000000000130000000000001300
#0271b:00333333330000000000000013000000
#03415:13
#03412:00000013000000000000000000000000
#03418:0013
#03612:0013
#03816:13000024
#03814:00000013000000000000000000000000
#03812:0000001300000024
#0381b:23
#03819:00000023000000000000000000000000
#03817:0000002300000000
#0381a:0000000000240000
#03810:41
#0411b:0000001300000013
#04115:00000023000000000000000013000000
#04112:13
#04118:0000000000230000
#04217:13
#04219:00000013000000000000000000000000
#0421b:0000001300000000
#04212:2300000000240000
#04214:00000023000000000000000000000000
#04216:0000002300002400
#0421a:0000000000000024
#05518:00000000000000130000000033000000
#0551b:00000000000000000000001300000000
#05512:00000000001300000000000000000000
#05515:00000000000000000013000000000000
#06212:00000023000000000000130000000000
#06215:0000000000000013
#06218:0000002300001300
#0621b:23
#06512:0013000000000000
#0651b:00130000
#06518:0013
#06515:0000001300000000
#06615:0013
#06618:00000000240000000013000000000000
#06612:24000000000000000000001300000000
#06610:41
#0671b:0013
#06715:00000000000023000013000000000000
#06718:00000000230000000000001400000000
#06712:0023000000000000
#0671a:00000034
#06818:0013
#0681a:24
#06814:00240000
#0691b:0013
#06915:00231300
#06918:0023002300000000
#07215:0013
#07212:24
#07218:00240000
#07312:0013
#07318:00231300
#07315:0023002300000000
#01718:00000000000000130000000033000000
#0171b:00000000000000000000001300000000
#01712:00000000001300000000000000000000
#01715:00000000000000000013000000000000
#01815:00000000000000130000000033000000
#01812:00000000000000000000001300000000
#0181b:00000000001300000000000000000000
#01818:00000000000000000013000000000000
#07018:0013
#07015:00000000000000000013000000000000
#0701b:00000000000000000000001300000000
#0701a:24
#07014:00240000
#07112:00001334
#0711b:0023000013000000
#07114:00000000000000000000001400000000
#07115:00230000
#07118:0000002300000000
#03318:1300000013000013
#03315:00001300000000000013000000000000
#0331b:00000000130000000000001300000000
#03312:00000000000013000000001300000000
#04912:14000000000000000000001300000000
#04915:0013
#04918:00000000140000000013000000000000
#05012:0013000013000000
#05018:00000000130000000000001400000000
#05015:0000001300000000
#0501b:0013
#0501a:00000034
#05114:00140000
#05118:0013
#05218:0013001300000000
#05215:0000130013000013
#0521b:0013
#05912:2300000000240000
#0591b:00000023000000000000000000000000
#05916:00000024
#0591a:0000000000000024
#04312:00230000
#0631b:23
#06312:00000023000000000000000000002400
#0631a:0000000000240000
#06316:00000024
#0641b:00230000
#00252:63
#00255:00000063000000000000000000000000
#00352:63
#0035b:0063
#00852:13
#00858:00130000
#00855:0053
#00958:00000000000000000000005300000000
#01552:0053
#01555:00000000000000000000001300000000
#01652:0063000000000000
#01656:00000000000000230000000000000000
#02155:00000000000000530000000000000000
#0225b:0000005300000000
#02458:0053
#02652:0000005300000000
#03058:53
#0305b:00000053000000000000000000000000
#03055:0053
#03252:0063
#03258:0053
#03758:00000013000000000000000000000000
#03755:0000000000130000
#0375b:53
#03752:0000005300000000
#0395b:53
#03958:00000053000000000000000000000000
#0405b:5353
#04058:00230000
#04455:0053
#0455a:14
#04554:00140000
#04654:00000000000000000000005400000000
#04752:14
#04758:00140000
#04755:0063
#04852:0053
#04858:0053
#0535b:0053000000000000
#05357:00000000000000230000000000000000
#05852:13
#05855:0000001300000000
#0585b:00000013000000000000000000000000
#05958:0000001300000000
#0595b:00000053000000000000000000000000
#06052:0000005300000000
#06058:0000005300000000
#06152:5353
#06155:00230013
#07558:0000000053000053
#07552:0000000053000053
#07658:0053000000000000
#0765b:23000000000000000023000000000000
#07655:23000000000000000023000000000000
#07652:0053000000000000
#01055:00130000
#0105b:13
#0065b:00530053
#00658:0053
#0075b:0053
#01152:0063
#01155:00000000000000000000006300000000
#01252:1363
#01258:00130000
#01455:00130000
#0145b:13
#02358:00000000000000630000000000000000
#02755:00000000000000530000000000000000
#02855:0053
#03455:63
#03452:00000063000000000000000000000000
#03458:0063
#03552:0053000000000000
#0355b:00000000000000000000000000000063
#03652:0063
#0415b:0000006300000000
#04152:63
#04155:00000013000000000000000000000000
#04158:0000000000130000
#05455:0000000000000013
#05452:00000000000000000000005300000000
#0555b:00000000000000000000006300000000
#05558:0000000000000013
#0625b:13
#06258:0000001300000000
#06252:00000013000000000000000000000000
#06352:00000063000000000000000000000000
#06355:0000001300000000
#06558:0063
#06652:14
#06658:00140000
#06758:00000000000000000000006400000000
#0685a:14
#06854:00140000
#06858:0053
#0695b:0063
#06955:0063
#06958:00000000000000000000001300000000
#06952:00000000000000000000001300000000
#07255:0063
#07252:14
#07258:00140000
#07352:0053
#07358:0053
#07355:00000000000000000000001300000000
#0735b:00000000000000000000001300000000
#07458:0063
#07452:0063
#0175b:00000000000000000000006300000000
#01852:00000000000000000000005300000000
#01358:00000000000000000000005300000000
#07154:00000000000000000000005400000000
#0705a:14
#07054:00140000
#04952:14
#04958:00140000
#05154:00140000
#05158:0053
#0515a:14
#05058:00000000000000000000006400000000
#0525b:0063
#05255:0063
#05258:00000000000000000000001300000000
#05252:00000000000000000000001300000000
#000380:13000023000000000000000000000000
#000320:0000001300230000
#002320:1300002300000000
#002350:00000033000000000000000000000000
#003320:13
#003350:00230000
#0033b0:0013
#003380:00000023
#004350:13000023000000000000000000000000
#0043b0:0000001300230000
#0063b0:00130033
#006380:0033
#007380:23
#0073b0:0013
#007380:00000000000000000000002300000000
#008350:0013
#008320:00000000000000000033002300000000
#0083b0:00000000000000000000000000130000
#0083a0:0000000000000033
#008390:00000000000000000000000000000033
#009380:23
#009380:00000000000000000000001300000000
#0093b0:00000033
#0103b0:23
#010380:00000000000000001300002300000000
#010350:00000000000000000000000000130000
#010340:0000000000000033
#010330:00000000000000000000000000000033
#011320:23
#011320:0013
#011330:00000000000000000033000000000000
#011350:00000000000000000000003300000000
#012320:23
#012320:0013
#012350:00000000000000000033002300000000
#012380:00000000000000000000000000130000
#012390:0000000000000033
#0123a0:00000000000000000000000000000033
#0133b0:23
#013380:00000000000000000000001333000000
#0143b0:23
#0143b0:00000000000000001300002300000000
#014320:00000000000000000000000000130000
#014330:0000000000000033
#014340:00000000000000000000000000000033
#015350:23
#015320:0013
#015350:00000000000000000000002300000000
#016320:0013000000002300
#016360:00000000000000530000000000000000
#0173b0:13
#0173a0:00330000000000000000000000000000
#017390:0033000000000000
#017380:00000023000000000000000000000000
#0173b0:00000000000000000000001300000000
#017380:0000000000003323
#018320:13
#018330:00330000000000000000000000000000
#018340:0033000000000000
#018350:00000023000000000000000000000000
#018320:00000000000000000000001300000000
#018350:0000000000003323
#0193b0:13
#0193a0:00330000000000000000000000000000
#019390:0033000000000000
#019380:00000023000000000000000000000000
#0213b0:13333333330000000000000000000000
#021380:00000000002300000000000000000000
#021350:00000000000000130000000000000000
#021320:0000000000230000
#0223b0:0000001300000000
#022380:00000023
#023320:13333333330000000000000000000000
#023350:00000000002300000000000000000000
#023380:00000000000000130000000000000000
#0233b0:0000000000230000
#024380:0013
#0243b0:00000023
#026320:0000001300000000
#026350:00000023
#0273b0:13333333330000000000000000000000
#027380:00000000002300000000000000000000
#027350:00000000000000130000000000000000
#027320:0000000000230000
#028350:0013
#028320:00000023
#030380:1300002300000000
#0303b0:00000033000000000000000000000000
#030350:0013
#030320:00000023
#0313b0:00000000000000001300002300000000
#031351:00000000000000001300002300000000
#032321:0013
#032351:00000023
#032380:0013
#0323b0:00000023
#034350:1300002300000000
#034320:00000033000000000000000000000000
#034380:0013
#0343b0:00000023
#035320:0013000000000000
#035350:0000002300000000
#0353b0:00000000000000000000000000000013
#036380:00005323
#036321:0013
#036351:00000023
#0373b1:13
#037381:00000023000000000000000000000000
#037321:0000001300000000
#037351:0000000000230000
#0393b1:1300002300000000
#039381:00000033000000000000000000000000
#0403b1:1333
#040381:00530023
#041321:13
#041351:00000023000000000000000000000000
#0413b1:0000001300000000
#041381:0000000000230000
#043321:00130033
#043351:0033
#044351:23
#044351:0013
#044321:00000000000000000000002300000000
#045321:00000000000000000000000000130000
#045331:0000000000000033
#045341:00000000000000000000000000000033
#046351:23
#046341:00000000000000000000001400000000
#046321:00000034
#047321:24
#047351:0013
#047321:00000000000000000000002300000000
#047381:00000000000000000000000000130000
#047391:0000000000000033
#0473a1:00000000000000000000000000000033
#0483b1:23
#048321:0013
#048351:00000000000000000000002300000000
#048380:0013
#0483b0:00000000000000000000002300000000
#0493b0:00000000000000000000000000130000
#0493a0:0000000000000033
#049390:00000000000000000000000000000033
#050380:23
#050380:00000000000000000000001400000000
#0503a0:00000034
#0513a0:24
#051380:0013
#0513b0:00000000000000000000002300000000
#051350:00000000000000000000000000130000
#051340:0000000000000033
#051330:00000000000000000000000000000033
#052320:23
#0523b0:0013
#052380:00000000000000000000002300000000
#052351:0013
#052321:00000000000000000000002300000000
#0533b1:0013000000002300
#053371:00000000000000530000000000000000
#054321:13
#054331:00330000000000000000000000000000
#054341:0033000000000000
#054351:00000023000000000000000000000000
#054321:00000000000000000000001300000000
#054351:0000000000003323
#0553b1:13
#0553a1:00330000000000000000000000000000
#055391:0033000000000000
#055381:00000023000000000000000000000000
#0553b1:00000000000000000000001300000000
#055381:0000000000003323
#056321:13
#056331:00330000000000000000000000000000
#056341:0033000000000000
#056351:00000023000000000000000000000000
#0593b1:00000013000000000000000000000000
#059381:0000002300000000
#060321:0000001300000000
#060351:0000000000230000
#060380:0000001300000000
#0603b0:0000000000230000
#061320:1333
#061350:00530023
#063320:00000013000000000000000000000000
#063350:0000002300000000
#0643b0:00130033
#064380:0033
#065380:23
#065380:0013
#0653b0:00000000000000000000002300000000
#0663b0:00000000000000000000000000130000
#0663a0:0000000000000033
#066390:00000000000000000000000000000033
#067380:23
#067380:00000000000000000000001400000000
#0673a0:00000034
#0683a0:24
#068380:0013
#0683b0:00000000000000000000002300000000
#068350:00000000000000000000000000130000
#068340:0000000000000033
#068330:00000000000000000000000000000033
#069320:23
#0693b0:0013
#069380:00000000000000000000002300000000
#069351:0013
#069321:00000000000000000000002300000000
#070321:00000000000000000000000000130000
#070331:0000000000000033
#070341:00000000000000000000000000000033
#071351:23
#071341:00000000000000000000001400000000
#071321:00000034
#072321:24
#072351:0013
#072321:00000000000000000000002300000000
#072381:00000000000000000000000000130000
#072391:0000000000000033
#0723a1:00000000000000000000000000000033
#0733b1:23
#073321:0013
#073351:00000000000000000000002300000000
#073380:0013
#0733b0:00000000000000000000002300000000
#074380:0013
#0743b0:00000000000000000000002300000000
#074321:0013
#074351:00000000000000000000002300000000
#074351:00000000000000000000000000130000
#074341:0000000000000033
#074331:00000000000000000000000000000033
#075321:23
#075381:0013
#0753b1:00000000000000000000002300000000
#075320:0013
#075350:00000000000000000000002300000000
#075380:0000000000000013
#0763b0:53000000000000000053000000000000
#076380:0033000000000000
#077380:23
#075321:0000000000000013
#076351:53000000000000000053000000000000
#076321:0033000000000000
#077321:23
