This file was generated by Ched 2.7.0.0.
#TITLE ""
#ARTIST ""
#DESIGNER ""
#DIFFICULTY 0
#PLAYLEVEL
#SONGID ""
#WAVE ""
#WAVEOFFSET 0
#JACKET ""
#REQUEST "ticks_per_beat 480"
#00002: 4
#BPM01: 136
#00008: 01
#TIL00: ""
#HISPEED 00
#MEASUREHS 00
#00017:00001313
#00016:1400001300001400000000001400000000000000140000000000000013000000
#00012:13000013
#0001b:0000001300000013
#00112:1300000013000013
#00118:00000014000000000000000014000000
#0011a:0000001400140000
#00114:00000013000000000000000013000000
#00116:1400001300000014
#0021b:1300000000000013
#00212:00000013000000000000000000000000
#00216:1300001300000013
#00217:00000013000000000000130000000000
#00214:00000013
#00219:00000013
#00717:0013131300000000
#0071b:00130000
#00716:14000000000000001400001300001400
#00712:0000000013000013
#0081b:13131300
#00815:00000013130000000000000000001300
#00816:00000000000000000014000014000000
#00812:13000000000013000000001300130000
#00818:00001300000013000000000000000013
#00810:41
#0091b:13000000130000001313000000000000
#00917:0013001300000000
#00916:00000000000000000014000014000000
#00912:00000000000000000000001313000000
#00914:0000000000000013
#01016:1314001413000000
#01017:00130013
#01015:0000000000000013
#01018:00000000000000000000000000000013
#01012:00000000130000000000001400130000
#0101a:00000014000000000014000000000000
#0111b:1300002300000000
#01112:00001300000000000000002323000000
#01114:00130000
#01118:00000000000000230023000000130013
#01117:0013000000000000
#01119:00130000
#01116:0000001300000000
#01115:0000000023000023
#0211b:13000000130000130000000000000000
#02118:00130000000000000000000000001200
#02115:0013000000000000
#02112:00000013000000001400140000000000
#02116:00000000001400140000000000120000
#0211a:00000012
#02114:00000000000000000000000000000012
#0221b:13001313000000001300130000000000
#02217:00000000001313000000000013000000
#02219:0000000000000013
#02212:1300001300000000
#02216:00000013000000000013000000000000
#02214:0000000000000013
#0231b:13000000000000131300000013000000
#02316:00130000000000130000000013000000
#02319:0013000000000000
#02314:00000013000000000000000000000000
#02317:0000130000130013
#02312:00000000001300000000000000001300
#0241b:1300001323000000
#02412:00000013000000000000000000000000
#02417:0013000000002323
#02416:13000000000000131300000000000000
#02414:00000000001300000000000000000000
#02419:0000130000230000
#0281a:0000000000000014
#02814:0000130014141400
#02818:00000000000000000014001400000000
#02812:1300001300000014
#0281b:00000013000000000000000000000000
#02816:0013000000000000
#02817:13000000000000130000000000000000
#02819:00000000001300000000000000000000
#02917:13000000000000001313000000001300
#02919:0013001300000000
#0291b:00000000130000000000001300000000
#02912:2413240024132400
#0291f:11
#03017:00000013000000001300000000000000
#03019:0000000000000013
#03012:2413240024132400
#0301b:1300001300000000
#03117:13000000000000131300000000001300
#03116:00000013130000000000000000000000
#03115:00000000000000000000001300000000
#0311a:0013240000002400
#03113:0000001300000000
#03118:0000000000130000
#03112:2400000024000013
#0321b:1313
#03216:00001300130000000013000000000000
#03217:0000001300000000
#03218:0000000000000013
#0321a:00000024000000000000130000000000
#03215:00000000000000000000001300000000
#03219:00000013
#03214:00000000000000000000000000130000
#03213:00000000000000000000000000000013
#03212:2400002400000000
#03618:0016
#03614:00130000001300000000160000000000
#03617:0013000000000000
#03612:0000001300000000000000161c000000
#03619:13130000
#0361b:0000001300000000
#03616:00000000000000130016000000000000
#03712:1414001400001300
#03714:0000000000000013
#0371a:1400001414240000
#03716:00140024000000140014000000000000
#03717:00000013
#03719:0000000000000013
#0371f:21
#03815:00130000001300000000000000000000
#03818:0013130000000000
#03812:00000023000013000000000000002300
#03816:0013
#0381b:2300002313230000
#03819:00000023
#03817:0000000000000023
#03814:00000023
#03810:41
#0391b:1300000013000013
#03918:00000013000013000000001300000000
#03915:00001300000000130000130000000000
#03912:00130013
#03916:1300000000000013
#04012:13000016
#04017:1313
#0401b:00000000130000000000001300000000
#04016:00130000
#04019:0013001300000000
#04018:0000000000130000
#04015:00000000000000000013000000000000
#0441b:00001300000000000013000000001300
#04414:00130000
#04412:0000001300001300
#04416:00001300000000001313000000001300
#04419:00130000
#04417:00000000000013000000001313000000
#04418:13
#04517:13000000000000000013000000000000
#0451b:00000000130000000000000000130000
#04516:00130013
#04518:0000000000000013
#04515:00000000000000000000000000000013
#04512:13
#04519:0013000000000000
#04514:0000001300000000
#04612:13130000
#0461b:0013001300001300
#04617:00000000130000001313000000000000
#04616:00001300000013000000001313000000
#04614:0000000000000013
#04712:13000000000000001313000000000000
#0471b:00000000130000000000001300130000
#04717:0013
#04718:0000000000000013
#04715:00000000000000000000000000000013
#04716:00130013
#04714:0013000000000000
#04719:0000001300000000
#04812:13000000000000001313000000001300
#0481b:0013001300001300
#04817:00131300
#04816:00000000000000000000001400140014
#05712:12
#05717:12000012000012000000120000001200
#0571c:00000012000000000000000012000000
#05817:00000013
#05819:0000000000000013
#05812:1414001400141300
#05816:00140028000000140014000000000000
#0581a:2400002414140000
#05814:0000000000000013
#05810:41
#0601b:1313130000000013
#06012:1300001300000000
#06016:00000014000000000000130000000000
#06017:0000001300001300
#06014:0013
#06616:24001400240014000014000014000000
#0661b:00000000000000000000000000130000
#06615:0000000000000013
#06618:00000000000000000000000000000013
#0661a:24
#06612:00240000
#06610:41
#06712:23000000230000001313000000001300
#06716:14002300140023000000001313000000
#0671a:0014001400001400
#0741b:13000000130000000000000000130000
#07418:0000000000000013
#07415:00000000000000000000000000000013
#07416:1313
#07417:00001300000013000000001300000000
#07412:0013001300000000
#07512:2300000000000000000000002300000000000013000000000000000013000000
#0751b:00002300000000001300001300000000
#07516:0000000023000000000000000000000000000018000000000000000000000000
#07517:0000002313000000
#07519:00230000
#07514:00230000
#00312:12
#00316:00121212
#00319:00000000000000000012001200000000
#00314:0012001200120012
#00318:12
#0031a:0012001200000012
#0031c:00120000
#01912:00000000001200000000001200000000
#01918:00001200000000120000000000000000
#01915:00000000000000000012000000000000
#01914:12
#01916:00120000000000000000000000000000
#0191a:00000012000000000000000000000000
#0191c:0000001212120000
#0431a:14
#04312:1400001300230013
#0431b:0000002300130023
#04315:00230023
#04318:00232300
#05212:00001300000013000000001300001300
#05217:0000000000000013
#0521b:13001313
#05216:00130000
#05215:00000000000000000013000000000000
#05218:0000000000130000
#05617:00000000001300000000001300000000
#0561b:00000000000000130000000000000000
#05619:00000000000000000013000000000000
#05612:1300001313130000
#05615:00130013000000000000000000000000
#05618:0013000000000000
#0611b:00130013
#06116:00000000130000000000001300000000
#06112:1300000000000013
#06117:1300000013000013
#06119:0013001300130000
#06114:00000000000000000013000000000000
#06515:13
#06512:00001300000000000013000000001300
#06519:00130000
#0651b:0000001300001300
#06517:00001300000000001313000000001300
#06514:00130000
#06516:00000000000013000000001313000000
#0691b:2300000013000013
#06916:1300000013000013
#06914:0000001300000000
#06917:00000000230000000000001300000000
#06919:0023002300000000
#07319:0000001300000000
#07317:1300000013000013
#07312:2300000013000013
#07316:00000000230000000000001300000000
#07314:0023002300000000
#07617:13
#07612:00001300000000000018000000000000
#07616:0013000000000000
#0761b:00000000000000000013000000000000
#00416:14000014000014001300140013000000
#00417:0000001300000000000000000000000000000000000000000000000013000000
#0041b:13000013
#00412:0000001300000013
#0051b:1300000013000013
#00514:00000014000000000000000014000000
#00512:0000001400140000
#00519:00000013000000000000000013000000
#00516:1400000000000014
#00517:0000001300000000
#00612:1313
#00616:00130013
#0061b:00130013
#00617:1313
#00619:0000001300130013
#01212:13131300
#01218:00000013130000000000000000001300
#01216:00000000000000000014000014000000
#0121b:13000000000013000000001300130000
#01215:00001300000013000000000000000013
#01312:13000000130000001313000000000000
#01316:00001300000013000014000014000000
#0131b:00000000000000000000001313000000
#01319:0000000000000013
#01417:1313
#01416:0014131400001300
#01418:0000000000000013
#01415:00000000000000000000000000000013
#0141b:00000000130000000000000000130000
#01412:00000014000000000014000000000000
#0141a:00000000000000000000001400000000
#01512:1313000013132c00
#01518:00130013000000000013001300000000
#01515:0000131300000000
#0151b:00000000001300130000000000000000
#0161a:12
#01618:00120000000000000000000000000000
#01616:0012000000000000
#01614:00000012000000000000000000000000
#01612:00000000000000000000001212000000
#01617:00000000000000120000001212001200
#0161c:00000000001200000012000000000000
#01610:41
#01714:12
#01716:00120000000000000000000000000000
#01718:0012000000000000
#0171a:00000012000000000000000000000000
#0171c:00000000000000000000001212000000
#01717:00000000000000120000001212001200
#01712:00000000001200000012000000000000
#0181a:12
#01818:00120000000000000000000000000000
#01816:0012000000000000
#01814:00000012000000000000000000000000
#01812:00000000000000000000001212000000
#01817:00000000000000120000001212001200
#0181c:00000000001200000012000000000000
#0201a:12000000001200000000000000000000
#02017:00000000000000120000000000000000
#02019:00000000000000000012000000000000
#0201b:00000000000000000000001200000000
#02018:00120000000000000000000000000000
#02016:0012000000000000
#02014:00000012000012001200120000000000
#02512:13130000
#02515:00130000000000130000000000000000
#02518:00001300000013000000130000120000
#0251b:00000013000000001300000000000000
#02514:00000012
#02516:0000000000000012
#0251a:00000000000000000000000000000012
#02510:41
#02612:13001313000000001300130000000000
#02616:00000000001313000000000013000000
#02614:0000000000000013
#0261b:1300001300000000
#02617:00000013000000000013000000000000
#02619:0000000000000013
#02712:13000000000000131300000013000000
#02717:00130000000000130000000013000000
#02714:0013000000000000
#02719:00000013000000000000000000000000
#02716:0000130000130013
#0271b:00000000001300000000000000001300
#03316:13000000000000001313000000001300
#03314:0013001300000000
#03312:00000000130000000000001300000000
#0331b:0013000000130000
#0331a:24242424
#03416:00000013000000001300000000000000
#0341b:0013000000130000
#03412:1300001300000000
#03414:0000000000000013
#0341a:24242424
#03516:13000000000000131300000000000013
#03517:00000013130000000000000000000000
#03518:00000000000000000000001300000000
#03513:0013000000000000
#0351a:2400001324000000
#03515:0000000000130000
#0351b:0000000000000013
#03512:00240024
#0411b:00000013
#04119:0000000000000013
#04112:1400001414240000
#0411a:1414001400000000
#04116:00140024000000140014000013000000
#04114:0000000000000013
#04218:00130000001300000000000000000000
#04215:0013130000000000
#0421b:00000023000013000000000000002300
#04217:0013
#04212:2300002313230000
#04214:00000023
#04216:0000000000000023
#04219:00000023
#04916:13000000000000000013000000000000
#04912:00000000130000000000000000130000
#04917:00130013
#04915:0000000000000013
#04918:00000000000000000000000000000013
#0491b:13
#04914:0013000000000000
#04919:0000001300000000
#0501b:13130000
#05012:0013001300001300
#05016:00000000130000001313000000000000
#05017:00001300000013000000001313000000
#05019:0000000000000013
#0511b:13000000000000001313000000000000
#05112:00000000130000000000001300130000
#05116:0013
#05115:0000000000000013
#05118:00000000000000000000000000000013
#05117:00130013
#05119:0013000000000000
#05114:0000001300000000
#0531b:13000000001300000013000000000000
#05318:00130013000000000000000000000000
#05315:0013000000000000
#05316:00000000001300000013000000000000
#05312:00000000000000130000001313000000
#05317:00000000000000130000001313000000
#05412:13000000001300000013000000000000
#05415:00130013000000000000000000000000
#05418:0013000000000000
#05417:00000000001300000013000000000000
#0541b:00000000000000130000001313000000
#05416:00000000000000130000001313000000
#0551b:13000000001300000013000000000000
#05518:00130013000000000000000000000000
#05515:0013000000000000
#05516:00000000001300000013000000000000
#05512:00000000000000130000001313000000
#05517:00000000000000130000001313000000
#05912:0013130013000024
#05917:0000000013000023
#0591b:2300002300230000
#05919:00000023
#05916:23000024000024000000240000000000
#05914:00000024
#06216:00140000000000140014000013000000
#06214:0000000000000013
#0621b:00000013
#0621a:1414001400140000
#06212:24000028000024001400140000000000
#06219:0000000000000013
#06412:1300002300130023
#0641b:1300001300230013
#06418:00230023
#06415:00232300
#0631b:0013130013000000
#06316:00000024000024001300240000002300
#06312:2300002300230000
#06314:00000023
#06317:23
#06318:00000024
#0631a:0000000000000024
#06816:00001400240014000014001400000000
#06812:24000000000000001400000000130000
#06815:0000000000000013
#06818:00000000000000000000000000000013
#0681a:00240014
#0711b:23000000230000001313000000001300
#07117:00002300000023000000001313000000
#07112:0014001400001400
#07116:14140000
#0721a:2414
#07218:0000000000000013
#07215:00000000000000000000000000000013
#0721b:00000000000000000000000000130000
#07216:00001400240014000014001400000000
#07212:00240014
#07016:24001400240014000014000014000000
#07012:24000000000000000000000000130000
#07018:0000000000000013
#07015:00000000000000000000000000000013
#0701a:00240000
#00156:1400005300000000
#00152:0023
#00158:00000014000000000000000000000000
#0015a:0000001400000000
#0025b:53
#00257:00000053000000000000000000000000
#00256:0000005300000000
#00852:13
#0085b:00130000
#0105a:14
#01052:00130000
#00956:00000054
#0215b:00000000000000530000000000000000
#02456:0053
#03057:00000053000000005300000000000000
#0305b:53
#03652:0000001c
#03756:00000014000000000000000000000000
#0375a:0000000000140000
#03852:0000005300000000
#03856:0023
#04052:63000016
#04056:00230000
#04552:13
#04557:13
#0455b:00130000
#04556:00130000
#0465b:00000053
#04652:53530000
#04656:0023002300000000
#04757:13
#04752:13
#0475b:00130000
#04756:00130000
#04857:0053
#0585a:1400001400000000
#05856:00000018000000000000000000000000
#06057:0000006300000000
#06152:53
#06156:00230000
#0615b:00000013
#0665a:44
#06652:00340000
#06852:34
#0685a:00440000
#0675a:0024002400005400
#06756:54540000
#0735b:00000000000000000000001300000000
#07357:5353
#07356:00000000000000000000001300000000
#07552:0000000000000000000000000000000000000023000000000000000053000000
#0755b:00000000000000005300005300000000
#07557:0053
#07556:0000000000000000000000000000000000000028000000000000000000000000
#07652:00005300000000000028000000000000
#07656:0053000000000000
#07657:23
#0765b:00000000000000000023000000000000
#00052:53
#0005b:0000005300000000
#00056:0000002300000000000000000000000000000000000000000000000000000000
#00057:0023
#00554:00000014000000000000000000000000
#00552:0000001400000000
#00556:14
#00557:0000006300000000
#0055b:0023
#0045b:63
#00457:0000002300000000000000000000000000000000000000000000000000000000
#00452:0000006300000000
#00456:0023
#00652:5353
#00656:00530053
#00752:1313
#0075b:00130000
#0075a:00000000000000000000001400000000
#00756:0054
#0125b:13
#01252:00130000
#01356:00000064
#0145b:00130000
#01452:14
#01552:0000001c
#01657:00000052
#01757:00000062
#01857:00000052
#01958:00000000000000120000000000000000
#01955:00000000000000000012000000000000
#01952:00000000000000000000001200000000
#02057:00000000000000120000000000000000
#02059:00000000000000000012000000000000
#0205b:00000000000000000000001200000000
#02252:5300005300000000
#02256:00000053000000000023000000000000
#02356:00000000000000530000000000000000
#0265b:6300006300000000
#02657:00000063000000000023000000000000
#02757:00000000000000630000000000000000
#02854:00000014
#03456:00000063000000006300000000000000
#03452:63
#03952:00330033
#0395b:4343
#0425b:0000006300000000
#04257:0023
#04156:00000014000000000000000000000000
#04152:0000000000140000
#04956:13
#04952:00130000
#0495b:13
#04957:00130000
#0505b:63630000
#05057:0023002300000000
#05052:00000063
#0515b:13
#05152:00130000
#05157:00130000
#05156:13
#05352:00000053
#05356:0000000000000013
#05357:00000053
#0535b:0000000000000013
#0545b:00000063
#05456:00000063
#05457:0000000000000013
#05452:0000000000000013
#05552:00000053
#05557:00000053
#05556:0000000000000013
#0555b:0000000000000013
#05659:00000000000000000013000000000000
#0565b:00000000000000130000000000000000
#05657:00000000000000000000001300000000
#0595b:0000001300000000
#06252:14000018000014000000000000000000
#06352:0000001300000000
#06458:00530053
#06455:0053
#0645b:0000002300000023
#06452:0000000000230000
#07152:0024002400006400
#07156:64640000
#07052:34
#0705a:00440000
#0725a:44
#07252:00340000
#07456:5353
#0745b:00530000
#07457:0000002300000000
#07452:0023000000000000
#04352:0000002300000023
#0435b:0000000000230000
#04355:00630063
#04358:0063
#06956:6363
#06957:00000000000000000000001300000000
#06952:00000000000000000000001300000000
#000320:13000023000000000000000000000000
#000360:0000005300000000000000000000000000000000000000000000000000000000
#0003b0:0000001300230000
#000370:0053
#001360:0000001300230000
#001320:0053
#0023b0:1300002300000000
#002370:00000033000000000000000000000000
#002361:0000001300000000
#002321:0000000000230000
#0043b1:13000023000000000000000000000000
#004371:0000005300000000000000000000000000000000000000000000000000000000
#004321:0000001300230000
#004361:0053
#005371:0000001300230000
#0053b1:0053
#006321:1333
#006361:00330033
#007321:23
#007361:0014
#0073a1:00000000000000000000002400000000
#009361:13330000
#009321:0033002300000000
#009361:00000014
#0103a1:24
#013371:13330000
#0133b1:0033002300000000
#013361:00000014
#014321:24
#016371:00000000001200000022000000000000
#016321:00000000000000320000000000000000
#016371:00000012
#0163c1:0000000000000022
#017371:00000000001200000022000000000000
#0173c1:00000000000000320000000000000000
#017371:00000012
#017321:0000000000000022
#018371:00000000001200000022000000000000
#018321:00000000000000320000000000000000
#018371:00000012
#0183c1:0000000000000022
#0213b1:00000000000000130000000000000000
#021371:0000000000230000
#022321:1300003300002300
#022361:00000033000000000053000000000000
#023361:00000000000000130000000000000000
#023321:0000000000230000
#024361:0013
#024321:0000000000000023
#025321:0013
#025351:0000000000230000
#0263b1:1300003300002300
#026371:00000033000000000053000000000000
#027371:00000000000000130000000000000000
#0273b1:0000000000230000
#0303b1:13
#030371:0023000000000000
#030371:00000013000000000000000000000000
#0303b1:00000000002300000000000000000000
#030371:0013
#0303b1:00000023
#034321:13
#034361:0023000000000000
#034361:00000013000000000000000000000000
#034321:00000000002300000000000000000000
#034361:0013
#034321:00000023
#038321:0000001300230000
#038361:0053
#040321:1323
#040361:00530000
#0423b1:0000001300230000
#042371:0053
#043351:00132300
#043321:0000005300000000
#043380:00001323
#0433b0:0000000000530000
#043351:00000013
#043321:0000000000000053
#044351:23
#045321:00000000000000001323000000000000
#0453b1:00000000000000000000001323000000
#046321:13332300
#046361:0053005300000000
#0463b1:00000013
#047371:23
#048361:0013002300000000
#048321:00330000
#048371:0013
#0483b1:00000000000000000000002300000000
#0493b1:00000000000000001323000000000000
#049321:00000000000000000000001323000000
#0503b1:13332300
#050371:0053005300000000
#050321:00000013
#051361:23
#052371:0013002300000000
#0523b1:00330000
#053321:00000013
#053361:0000000000000023
#053370:00000013
#0533b0:0000000000000023
#0543b0:00000013
#054370:0000000000000023
#054361:00000013
#054321:0000000000000023
#055321:00000013
#055361:0000000000000023
#055370:00000013
#0553b0:0000000000000023
#057320:0000001200320022
#057370:00000032
#060370:0000001300000000
#0603b0:0000000000230000
#060320:00000013
#060360:0000000000000023
#061320:1323
#061360:00530000
#064380:00132300
#0643b0:0000005300000000
#064351:00001323
#064321:0000000000530000
#064380:00000013
#0643b0:0000000000000053
#065380:23
#0663a0:00000000000000001424000000000000
#066320:00000000000000000000001424000000
#067360:14342400
#0673a0:0054005400000000
#0673a0:00000014
#068360:24
#069360:13
#069320:00230000
#069360:0013
#069320:00000000000000000000002300000000
#070320:00000000000000001424000000000000
#0703a0:00000000000000000000001424000000
#071360:14342400
#071320:0054005400000000
#071320:00000014
#072360:24
#073370:13
#0733b0:00230000
#073370:0013
#0733b0:00000000000000000000002300000000
#074360:13230000
#074320:0053000000000000
#0743b1:00132300
#074371:0000005300000000
#074360:0013
#074320:00000000000000000000002300000000
#0753b0:00000000000000001300003300000000
#075360:0000000000000000000000000000000000000058000000000000000023000000
#075371:00000000000000001300002300000000
#075321:0000000000000000000000000000000000000053000000000000000000000000
#075321:0000000000000013
#076371:53
#076321:00003300000000000058000000000000
#077321:23
#076360:0013000000000000
#0763b0:00000000000000000053000000000000
#077360:23
