This file was generated by Ched 2.7.0.0.
#TITLE ""
#ARTIST ""
#DESIGNER ""
#DIFFICULTY 0
#PLAYLEVEL
#SONGID ""
#WAVE ""
#WAVEOFFSET 0
#JACKET ""
#REQUEST "ticks_per_beat 480"
#00002: 4
#BPM01: 136
#00008: 01
#TIL00: ""
#HISPEED 00
#MEASUREHS 00
#0001a:14
#00014:00140000
#00018:0014
#00012:00000014
#0021a:1414
#00214:00140014
#00418:00140000
#00414:0014
#0041a:00000014
#00612:1414
#00618:00140014
#0081a:00140000
#00814:00001414
#00810:41
#00918:14
#0091a:00343400
#01012:14140000
#01018:00001414
#01114:14
#01112:00343400
#01218:14140000
#01212:00001414
#0131a:14
#01318:00343400
#01414:14140000
#0141a:00001414
#01512:14
#01514:00343400
#0161a:1414
#01614:00140014
#01610:41
#01718:1414
#01712:00140014
#0181a:1414
#01814:00140014
#01918:1414
#01912:00140014
#02018:14
#02013:0014
#02019:0014
#0211a:14
#02114:00140000
#02118:0014
#02112:00000014
#0221a:14
#02312:14
#02318:00140000
#02314:0014
#0231a:00000014
#02412:14
#02518:14
#02512:00140000
#0251a:0014
#02514:00000014
#02510:41
#02618:14
#02714:14
#0271a:00140000
#02712:0014
#02718:00000014
#02814:14
#0291a:14140000
#02914:00001414
#0291f:11
#03018:14140000
#03012:00001414
#03312:14140000
#03318:00001414
#03414:14140000
#0341a:00001414
#0371a:00140000
#03712:0014
#03718:00000014
#03714:24
#0371f:21
#03818:00140000
#03814:0014
#0381a:00000014
#03812:24
#03810:41
#04014:14
#04012:0034
#04412:14
#04418:00140000
#04414:0014
#0441a:00000014
#04512:24140000
#04518:00001414
#0471a:24140000
#04714:00001414
#04914:24140000
#0491a:00001414
#05118:24140000
#05112:00001414
#05312:1414
#05318:00140014
#05414:1414
#0541a:00140014
#05512:1414
#05518:00140014
#05614:1414
#0561a:00140014
#05714:14
#05719:0014
#05713:0014
#05814:00140000
#05818:0014
#05812:00000014
#0581a:24
#05810:41
#05912:00140000
#05918:2414
#05914:00000014
#06118:14
#0611a:0034
#0651a:14
#06514:00140000
#06518:0014
#06512:00000014
#0661a:24140000
#06614:00001414
#06610:41
#06812:24140000
#06818:00001414
#07018:24140000
#07012:00001414
#07214:24140000
#0721a:00001414
#07414:00140000
#07418:0014
#07412:00000014
#0741a:24
#0751a:14
#07514:00140000
#07518:0014
#07512:00000014
#07618:14
#0761a:00340000
#04118:00140000
#04114:0014
#0411a:00000014
#04112:24
#0421a:00140000
#04212:0014
#04218:00000014
#04214:24
#06214:00140000
#06218:0014
#06212:00000014
#0621a:24
#06312:00140000
#0631a:0014
#06314:00000014
#06318:24
#04612:00343400
#0481a:00343400
#05014:00343400
#05218:00343400
#0671a:00343400
#06912:00343400
#07118:00343400
#07314:00343400
#00958:54
#01154:64
#0135a:54
#01552:64
#0225a:54
#02452:64
#02658:54
#02854:64
#03754:14
#04054:54
#06158:64
#0585a:14
#05958:14
#07658:54
#04652:00000014
#0485a:00000014
#05054:00000014
#05258:00000014
#0675a:00000014
#06952:00000014
#07158:00000014
#07354:00000014
#03852:14
#04152:14
#04254:14
#0625a:14
#06358:14
#0013a0:14240000
#001340:00001424
#0033a0:14
#003380:00240000
#003340:0014
#003320:00000034
#004320:24
#005320:14240000
#005380:00001424
#007320:14
#007340:00240000
#007380:0014
#0073a0:00000034
#0083a0:24
#009380:14
#0093a0:00343424
#011340:14
#011320:00343424
#0133a0:14
#013380:00343424
#015320:14
#015340:00343424
#0223a0:14
#022380:00000024
#024320:14
#024340:00000024
#026380:14
#0263a0:00000024
#028340:14
#028320:00000024
#0313a0:14
#031380:0034
#0323a0:34
#032380:0024
#035320:14
#035340:0034
#036320:34
#036340:0034
#037340:24
#039320:14240000
#039380:00001424
#040340:14
#040320:0034
#041320:24
#043340:14240000
#0433a0:00001424
#046340:14
#046320:00343424
#048380:14
#0483a0:00343424
#050320:14
#050340:00343424
#0523a0:14
#052380:00343424
#0603a0:14240000
#060340:00001424
#061380:14
#0613a0:0034
#0623a0:24
#064380:14240000
#064320:00001424
#067380:14
#0673a0:00343424
#069340:14
#069320:00343424
#0713a0:14
#071380:00343424
#073320:14
#073340:00343424
#076380:14
#0763a0:00340000
#0773a0:24
