This file was generated by Ched 2.6.4.0.
#TITLE ""
#ARTIST ""
#DESIGNER ""
#DIFFICULTY 0
#PLAYLEVEL
#SONGID ""
#WAVE ""
#WAVEOFFSET 0
#JACKET ""
#REQUEST "ticks_per_beat 480"
#00002: 4
#BPM01: 136
#00008: 01
#TIL00: ""
#HISPEED 00
#MEASUREHS 00
#00018:14
#00118:14
#00214:14
#00314:14
#0041a:14
#0051a:14
#00612:14
#00712:14
#00818:14
#00914:14
#01018:14
#01114:14
#03212:0016
#03218:26
#0321f:21
#03318:16
#03312:0016
#03310:41
#03612:0016
#03618:26
#03718:16
#03712:0016
#04414:14
#04410:41
#0451a:14
#04612:14
#04718:14
#04818:0016
#04812:26
#04912:16
#04918:0016
#05218:0016
#05212:26
#05312:16
#05318:0016
#05612:2616
#05610:41
#05718:1616
#06012:2616
#06118:1616
#0241f:11
#0121a:14
#01210:41
#01312:14
#0141a:14
#01512:14
#01618:14
#01718:14
#01814:14
#01914:14
#0201a:14
#0211a:14
#02110:41
#02212:14
#02312:14
#07314:14
#07418:14
#06410:41
#024380:14
#025380:24
#026340:14
#027340:24
#0283a0:14
#0293a0:24
#030320:14
#031320:24
#034380:1626
#035320:1626
#038380:1626
#039320:1626
#040380:16000000000000360000000000000000
#041380:00000000000000360000000000000000
#042380:3600003600000000
#043380:26
#050320:1626
#051380:1626
#054320:1626
#055380:1626
#058320:1626
#059380:1626
#062320:1626
#063380:1626
#064320:16
#065320:26
#065380:0016
#066380:36
#067380:26
#067320:0016
#068320:36
#069320:26
#069380:0016
#070380:36
#071380:36
#072380:26
#075320:1400000000000024
