This file was generated by Ched 2.7.0.0.
#TITLE ""
#ARTIST ""
#DESIGNER ""
#DIFFICULTY 0
#PLAYLEVEL
#SONGID ""
#WAVE ""
#WAVEOFFSET 0
#JACKET ""
#REQUEST "ticks_per_beat 480"
#00002: 4
#BPM01: 136
#00008: 01
#TIL00: ""
#HISPEED 00
#MEASUREHS 00
#0241f:11
#02412:1300001300000013
#02418:00000000130000130000000000001300
#0241b:23000000000000000013000000000000
#02415:00001313
#02718:0000130000130013
#02715:00000013000013000000001300000000
#0271b:13000000000000130000000013000000
#02712:13000000000000000013000000130000
#03215:00000000130013000000130000130013
#03218:00000000001300000023000000001300
#03212:2313
#0321b:00001300000000230000002300000000
#0321f:21
#03518:0000131300130013
#03515:00000000001300000023000000230013
#0351b:0013
#03512:00000000000000230000002300000000
#04312:0000130000000013
#04318:00130000
#04315:00000000000000130013000013000000
#0431b:00001313
#01915:00001300000000000000000000130000
#01912:13
#01918:0013000000001313
#0191b:13
#02218:00001300000000000013000013000000
#02212:00000000000000000013000000001300
#0221b:00000000000000130000000000000013
#02215:00000000000013000000001300000000
#02618:00000013000000001300000013000000
#02615:13000000130000130000000000001300
#0261b:1300001300000013
#02612:00000000000000000013000000000000
#03313:0013
#03314:0000000000130000
#03318:13333300333300000013000000000000
#0331a:00000000000000000000000000130000
#03315:00000013
#03316:0000000000000013
#03319:00000000000000000000001300000000
#0331b:00000013000000000000000000000013
#03312:0000001300000000
#03317:00000000000000130000000000000000
#03310:41
#03416:13
#03418:0000130013000013
#0341b:0000001300130000
#03412:00131300
#03415:0000001300130000
#0401b:13
#04014:00000000000000230000000000000000
#05118:00000000001300230000000000130013
#05115:0000131300000013
#0511b:13
#05112:00130000000000000023000000000000
#06515:0000000000000000000000130000000000000000000000000000000000000000
#06512:0000000000001333
#06618:0013000000000000
#0661b:00000000000000000000001300000000
#06614:33
#0671b:0000001300000000
#06715:0000000000000013
#06718:0000000000000013
#06712:0000002300000000
#0681b:0013000000000013
#06812:0013000000000013
#06815:0000001300000000
#06818:0000001300000000
#07114:13
#07119:13
#0701b:00001300000000000000001300000000
#07012:00001300000000000000001300000000
#07014:0000001300000000
#07019:0000001300000000
#06914:0000000000000013
#06919:0000000000000013
#06912:0000000000130000
#0691b:0000000000130000
#06915:0000001300000000
#06918:0000001300000000
#01815:00001300000000000013000013000000
#0181b:00000000000000000013000000001300
#01818:00000000000013000000001300000000
#01812:00000000000000130000000000000000
#02318:00000000130000130013000000001300
#02315:1300001300001300
#02312:0013000013000000
#02515:00000000130000130000000013000000
#02518:00000013000013000000000000001300
#02512:00000000000000000013000000001300
#0251b:13
#02918:13000000000000130000000000000000
#02912:13000000000000000013001300000000
#0291b:00000000000000000013000000000000
#02915:00000013000013000000000000003300
#02913:00000033
#02914:00000000000000000000000000330000
#02916:00000000000000000000000000000033
#0381b:00000000130000001300000000130013
#03816:0000000000000013
#03817:13
#03815:00131300
#03812:0000001300130000
#03818:0000001300130000
#03912:13001300002400000000001300000000
#03917:00130000000000000000000013000000
#03914:00000000000000000000000000130000
#03919:0000000000000013
#03918:00000000000000130013000000000000
#03916:00000000000000000000000000000013
#03915:0013
#0391a:00000024002400000000000000000000
#0441b:23130013
#04418:00000000000000130013000000001300
#04415:1300002300000023
#04412:0023000000230000
#04410:41
#0451b:13000013
#04518:00000000130000130013000000001300
#04512:0023000000230000
#04515:0000002300000023
#04612:13130013
#04615:00000000000000130013000000001300
#0461b:0023000000230000
#04618:0000002300000023
#04712:13000013
#04715:00000000130000130013000000001300
#04718:0000002300000023
#0471b:0023000000230000
#0481b:23131300
#04815:00000000001300000023002300000000
#04818:00000000000013000000130000130013
#04812:00001300000000230000000000001300
#05018:0000000000000013
#05015:00000000000000000000230000000013
#05016:0000001300000000
#0501b:2300002300130000
#05012:00000000230000000000000000130000
#05017:0023
#04918:00000013001300000000130000000000
#0491b:00130000000000130000000000000000
#04914:00000000000000000033000000130000
#04919:00000013
#0491a:0000000000000013
#04915:13001300000013000000001300000000
#04912:00130000
#04913:00000000000000000000000000000013
#0561b:00000000001300000000002300000000
#05615:00000000130000000000000000000013
#05612:23000000000013000000000000130000
#05614:0013
#05616:0000000000130000
#05618:0023000000000013
#05617:00000000000000230000000000000000
#05619:00000000000000000023000000000000
#05610:41
#05912:00000000130000000013000000130000
#05915:00001300000013000000001300000013
#05918:13000013001300000000130000001300
#06416:00000013000000000000000000000000
#06412:2300001300000000
#0641b:0000001300000000
#06410:41
#01715:1300001300001313
#01718:00000000130000130000000000130000
#01712:00000000000000000013000000000000
#0171b:13000000000000000013000000000000
#02112:00000000000000000013000000000000
#0211b:00000000000000000013000000000000
#02115:00000000130000130000000013001300
#02118:13000000000013000000000000130000
#02110:41
#00415:00000000000000000013000013001300
#00412:22000000000000130000000000000000
#0041b:23131313
#00512:00000000000000000013000013001300
#00515:00000000000000130000000000000000
#00518:13131313
#02015:00001300000000000013000000000013
#02018:00000000130000000000001300001300
#0201b:00001300000000000013000000000000
#02012:0000001300001300
#02017:00000000000000130000000000000000
#02019:00000033000000000000000000000000
#01618:00001300000000000013000000001300
#01612:00001300000000000013000000000000
#01615:00000000130000130000001300000000
#0161b:0000001300001300
#02817:0000000000000000331300000000000000000000001300000000000000000000
#0281b:00001300000000130000000000000000
#02816:00000000000000130000000000000000
#02812:2300000000000000000000000000000000000000001300000000000000000000
#02819:00000000000033000033000033000000
#02815:00000000000000003300000000330000
#02814:00000000000000000033000033000000
#02813:00000000000000000000333300000000
#0281a:00000000000000003300000000330000
#02818:00000000003300000000333300000000
#03118:00000013000013000000000000001300
#03112:13000000130000133333333333330000
#0311b:00130000000000000000000000000000
#03115:0013000000000000
#03618:00000000130013000000130000130013
#03615:00000000001300000023000000001300
#0361b:2313
#03612:00001300000000230000002300000000
#03715:13333300333300000013000000130000
#03712:00000013000000130000001300000013
#03718:00001313
#0371b:0000001300000013
#04115:00000000000000130000000000000000
#04212:13
#04218:13
#0421b:0000001300000000
#05218:00000000130000000000002600000000
#05215:00000000001300000026000000000013
#0521b:0013001300000013
#05212:23000013000000260000000000130000
#05412:1300001300130000
#05416:00000000000000001300000000000013
#0541b:0000130000000013
#05417:0000001300000000
#05418:0000000000130000
#05319:00000000000000000000000000130000
#05314:00000013
#05313:0000000000000013
#05318:13001300000000260000001300000000
#0531a:00000000000000000000000000000013
#0531b:00130000
#05315:00000013000000000000000000000000
#05312:00000000000013000026000000000000
#05519:13
#05514:00130000000000000000000000000000
#05517:0013000000000000
#05518:00000000000000130000000000130013
#05515:0000001300000013
#05512:00000024000000000033330000000000
#0551a:00000000002400000000000000000000
#0551b:00000000000000000033330000000000
#05718:00131300
#05715:00000000001300130000000000000013
#0571a:00000013
#0571b:2300001300130000
#05712:00002300000000000013000000000000
#05719:0000000000000013
#05714:00000000000000000000000000130000
#05713:00000000000000000000001300000000
#0581b:0000000000230013
#05815:00000000230000000000000000000013
#05812:00000000000000002300000000130000
#05818:2300002300000000
#0601b:23000000000013000000000000130000
#06015:0023000000000013
#06018:00000000130000000000000000000013
#06012:00000000001300000000002300000000
#06019:0013
#06017:0000000000130000
#06016:00000000000000230000000000000000
#06014:00000000000000000023000000000000
#06318:00001300001300000000001300000013
#06315:13000013000000130000130000001300
#0631b:00000000000000000013000000130000
#06312:00000013
#0611b:0013001300000000
#06118:00000000000000001300000000000013
#06113:00000013
#06114:0000000000000013
#06119:00000000000000000000000000130000
#0611a:00000000000000000000001300000000
#06115:00000000130000130000000000000000
#06112:13000000000000000013000000000000
#06212:0000000000230013
#06218:00000000230000000000000000000013
#0621b:00000000000000002300000000130000
#06215:2300002300000000
#0741b:00130013
#07418:13000000000000130013000000000000
#07412:0000002300000023
#07415:0023000000230000
#07512:0000130000001313
#07515:13000000000000130013000000000000
#0751b:0000002300000023
#07518:0023000000230000
#00712:13131313
#00718:00000000000000000013000013001300
#0071b:00000000000000130000000000000000
#00615:13131313
#0061b:13000000000000000013000013001300
#00618:00000000000000130000000000000000
#01118:00000000000000130013001300130013
#0111a:24240000
#01112:0024000000000000
#01115:0000002323232323
#00812:00000000330000330033000000001300
#0081a:24
#00819:00240000
#00818:0024
#00817:00000024
#0091b:00000000330000330033000000001300
#00915:00240000
#00914:0024
#00913:00000024
#00916:24
#0301b:13
#03015:0013000000000000
#03018:00000013000013000026000000000000
#03012:00000000000000260000002600000000
#0121b:00000000000000130013000000000000
#01212:23
#01215:0023002300230023
#01210:41
#01312:00000000000000130013000000000000
#01318:0023002300230023
#01418:00000000000000130013000000000000
#01412:0023002300230023
#01515:00000000000000130013000000000000
#0151b:0023002300230023
#0721b:00130013
#07218:00000000000000130013000000001300
#07215:0013000000130000
#07212:0000001300000000
#07315:13000000000000130013000000001300
#07312:00130013
#07318:0013000000130000
#0731b:0000001300000000
#01017:00240000
#01018:0024
#01019:00000024
#01016:24
#01012:00000000330000330033000000002400
#0001a:00000000320000320032000032003200
#00114:00000000320000320032000032003200
#0021a:00000000320000320032000032003200
#00314:00000000320000320032000032003200
#07255:13
#07258:13
#0515b:00000000000000000000001300000000
#05155:00000000000000000000001300000000
#05158:00000000000000530000000000000000
#05152:00000000000000000053000000000000
#0555b:00000000000000000000001300000000
#05552:00000000000000000000001300000000
#05558:00000000000000530000000000000000
#05555:0000006300000000
#02852:1300000000000000000000000000000000000000002300000000000000000000
#02857:0000000000000000002300000000000000000000002300000000000000000000
#0285b:00006300000000630000000000000000
#02856:00000000000000630000000000000000
#0245b:13000000000000000053000000000000
#02452:13
#03252:13
#0325b:0013000000000000
#05252:13
#0525b:0013000000000000
#05652:13
#05658:0013000000000000
#0445b:13
#0365b:13
#03652:0013000000000000
#0485b:13
#04852:0013000000000000
#06055:0013000000000000
#0605b:13
#01252:13
#0575b:53
#05752:0063000000000000
#00452:12
#0505b:6300000000630000
#05052:00530000
#05057:0053
#05056:0000006300000000
#05858:5300005300000000
#05855:00630000
#05852:0063
#0585b:0000000000530000
#06255:6300006300000000
#06258:00530000
#0625b:0053
#06252:0000000000630000
#06452:5300005300000000
#06456:00000023000000000000000000000000
#0645b:0000006300000000
#03456:63
#03458:00535300
#0345b:0000006300630000
#03452:00535300
#03455:0000006300630000
#0405b:63
#01952:53
#01955:0023000000000000
#01958:0023000000000000
#0195b:63
#06555:0000000000000000000000530000000000000000000000000000000000000000
#06552:00000023
#06658:0063000000000000
#0665b:00000000000000000000002300000000
#06755:0000000000000063
#06758:0000000000000053
#0685b:0023000000000023
#06852:0023000000000023
#06855:0000006300000000
#06858:0000006300000000
#07154:53
#07159:63
#0705b:00002300000000000000002300000000
#07052:00002300000000000000002300000000
#07054:0000006300000000
#07059:0000005300000000
#06954:0000000000000063
#06959:0000000000000053
#06952:0000000000230000
#0695b:0000000000230000
#06955:0000006300000000
#06958:0000005300000000
#02552:00000000000000000013000000000000
#0255b:13
#02158:53
#01755:63
#02958:13
#02952:00000000000000000000006300000000
#03358:53
#0335b:00000023000000000000000000000000
#03857:53
#03855:00636300
#03852:0000005300530000
#0385b:00636300
#03858:0000005300530000
#04155:00000000000000530000000000000000
#04252:53
#04258:53
#0425b:0000005300000000
#05452:6300000000530000
#0545b:00530000
#05457:0000005300000000
#05456:0053
#06355:00000053000000530000000000000000
#06358:00000000006300000000000000000000
#0305b:13
#03152:00000000000000530000000000000000
#03755:63
#03752:00000023000000000000000000000000
#0205b:0063000000000000
#02058:00230000
#01652:0053000000000000
#01655:00230000
#0535b:00530000
#06152:63
#0615b:0053000000000000
#02355:63
#02352:0023000000000000
#02358:00000000000000000023000000000000
#02652:00000000000000000063000000000000
#02655:53
#02758:0000000000000053
#0003a0:12000000320000320032000032003200
#001380:22
#001341:12000000320000320032000032003200
#002361:22
#0023a0:12000000320000320032000032003200
#0033c0:22
#003341:12000000320000320032000032003200
#004321:22
#008321:13000000330000330033000023000000
#0093b1:13000000330000330033000023000000
#010321:13000000330000330033000023000000
#0123b1:1323000000000000
#012381:0000132300000000
#012381:0000000000001323
#013321:1323000000000000
#013351:0000132300000000
#013351:0000000000001323
#0143b1:13
#014381:0023000000000000
#0143b1:00130000
#014381:0000002300000000
#014381:00000013
#0143b1:0000000000000023
#015321:13
#015351:0023000000000000
#015321:00130000
#015351:0000002300000000
#015351:00000013
#015321:0000000000000023
#016321:0013002300000000
#016351:00330000
#017351:13
#017321:00230000
#018381:0013230000000000
#018350:0000132300000000
#019320:13000000330033335323000000000000
#019350:0053000000000000
#019330:0000000000000000000000000053005300530000000000000000000000000000
#0193b1:13000000330033335323000000000000
#019381:0053000000000000
#0193a1:0000000000000000000000000053005300530000000000000000000000000000
#0203b1:0013002300000000
#020391:00000033000000000000000000000000
#020381:00330000
#021381:13
#0213b1:00230000
#022351:0013230000000000
#022380:0000132300000000
#023350:13230000
#023320:0053000000000000
#023380:00000000000000000013000000000000
#0233b0:00000023
#0243b0:00000000000000000013000000000000
#024380:00000023
#025350:13
#025320:00530023000000000000000000000000
#025380:00000000000000000013000000000000
#0253b0:0000000000532300
#026350:13
#026320:00000023000000000000000000000000
#026320:00000000000000000013000000000000
#026350:00000023
#027380:0000000000000013
#0283b0:23
#0283b0:00001300000000330000000000002300
#028370:0000000000000000335300000000000000000000005300000000000000000000
#028380:00000000003300000000333300000000
#028390:00000000000033000033000033000000
#0283a0:00000000000000003300000000330000
#028361:00000000000000130000000000002300
#028351:00000000000000003300000000330000
#028341:00000000000000000033000033000000
#028331:00000000000000000000333300000000
#028321:0000000000000000000000000000000000000000005300000000000000000000
#0293b1:00130000
#029381:0000002300000000
#029321:00000000000000000000001300000000
#029331:00000033
#029341:00000000000000000000000000330000
#029351:0000000000000033
#029361:00000000000000000000000000000033
#030361:23
#030321:00130000
#030351:0000002300000000
#0303b1:00000000000000000000000000130000
#0303a1:0000000000000033
#030391:00000000000000000000000000000033
#031381:23
#031321:00000000000000133333333333330000
#031351:0000000000000023
#033381:13333300333300000000000000000000
#0333b1:00000033000000000000000000000000
#033371:0000002300000000
#034361:13
#034321:00333323
#034351:0000003300330000
#034380:00133323
#0343b0:0000003300330000
#034350:0000000000000013
#035350:23
#0353b1:1323000000000000
#035320:0013230000000000
#037350:13333300333300000000000000000000
#037320:00000033000000000000000000000000
#037360:0000002300000000
#038370:13
#0383b0:00333323
#038380:0000003300330000
#038351:00133323
#038321:0000003300330000
#0403b1:13
#040371:00000000000000530053005300530053
#040381:0000000053535353
#041381:3353530000000000
#041371:00530053000000000000000000000000
#042381:33
#0423b1:0000003300000000
#043381:23
#040340:00000000000000130053005300530053
#040350:0000000053535353
#041350:33005300530000330000000000000000
#041340:00530053000000000000000000000000
#042320:33
#042350:0000003300000000
#043350:23
#048350:00000000000000000000001300230000
#049320:0013
#049340:00000000000000000033000000000000
#049350:0000000000230000
#0503b0:13
#050370:00230000
#050321:00132300
#050361:0000003300000000
#050370:0013
#0503b0:0000000000330000
#050380:00000000000000000000000000230000
#051380:0013230000000000
#051380:00000000000000130000000000000000
#0513b0:00000000000000000000002300000000
#051321:00000000000000000013000000000000
#051351:00000000000000000000002300000000
#0533b1:00130000
#053381:0000002300000000
#054321:13
#054361:00230000
#0543b0:00132300
#054370:0000003300000000
#054361:0000000013000023
#054321:0000000000330000
#055351:0000001300000000
#055321:00000000000000000033332300000000
#055380:00000000000000130000000000000000
#0553b0:00000000000000000033332300000000
#0573b0:13
#057380:0023000000000000
#057321:0013000000000000
#057351:00230000
#058381:13
#0583b1:00230000
#058350:00130000
#058320:0000002300000000
#058381:0000001300000000
#0583b1:0023
#058320:0013
#058350:0000000000230000
#0583b1:0000000000130000
#058371:00000000000000000000000000230000
#0593b1:00000000000000130023000000000000
#061321:13
#061351:0023000000000000
#0613b0:0013000000000000
#061380:00230000
#062350:13
#062320:00230000
#062381:00130000
#0623b1:0000002300000000
#062350:0000001300000000
#062320:0023
#0623b1:0013
#062381:0000000000230000
#062320:0000000000130000
#062360:00000000000000000000000000230000
#063350:00000013000000000000000000000000
#063320:00000000002300000000000000000000
#063381:00000000001300000000000000000000
#0633b1:00000000000000230000000000000000
#063350:00000000000000130000000000000000
#063320:00000000000000000023000000000000
#064320:1300005300000000
#064360:00000053000000000000000000000000
#064350:0000000000535353
#064340:00000000000000000000005300530053
#065350:5300000053000000530000330000000000000000000000000000000000000000
#065340:00530053000000000000000000000000
#065320:0000000000003333
#066340:33000053005300530053005300530053
#066350:0033535353535353
#067350:5353230000000000
#067340:00530053000000000000000000000000
#0643b1:0000001300000000
#064381:0000000000535353
#064391:00000000000000000000005300530053
#065381:5353530000000000
#065391:00530053000000000000000000000000
#066381:0033000000000000
#0663b1:00000000000000000000005300000000
#067381:00230000
#067321:0000001300000000
#067351:0000000000003333
#068321:0053000000000053
#068351:0000003300000000
#069351:0000003300000000
#069321:0000000000530000
#069341:0000000000000033
#070321:00005300000000000000005300000000
#070341:0000003300000000
#071341:53
#072351:23
#0673b0:0000001300000000
#067380:0000000000003333
#0683b0:0053000000000053
#068380:0000003300000000
#069380:0000003300000000
#0693b0:0000000000530000
#069390:0000000000000033
#0703b0:00005300000000000000005300000000
#070390:0000003300000000
#071390:53
#072380:23
