This file was generated by Ched 2.6.4.0.
#TITLE ""
#ARTIST ""
#DESIGNER ""
#DIFFICULTY 0
#PLAYLEVEL
#SONGID ""
#WAVE ""
#WAVEOFFSET 0
#JACKET ""
#REQUEST "ticks_per_beat 480"
#00002: 4
#BPM01: 136
#00008: 01
#TIL00: ""
#HISPEED 00
#MEASUREHS 00
#02415:0000133300000013
#02418:00000013
#0241f:11
#0241b:23
#02414:00000000000000330000000000000000
#02413:0033
#02615:0000133300000013
#02612:13
#0261b:13
#02618:00000013000000000000000013000000
#02614:00000000000000330000000000000000
#02613:0033
#0271b:13000000000000130000000000000000
#02712:00000013000000000000000000000000
#02718:0000000000000000130000000000000000003300331333003300000000000000
#02715:0000001300000000
#04318:00000013
#0431b:00130000
#04312:0013
#04315:0000000000000013
#01915:1300003300000013
#01912:0013000000000000
#01918:00000013
#01914:0000000000000000331300000000000000000000000000000000000000000000
#01916:00000000000000130000000000000000
#01815:00000000130000130000000013000000
#01818:00001300000000000013000000000000
#0181b:0000001300000013
#02515:00000013000000000000000013000000
#0251b:13
#02518:0000133300000013
#02512:13
#02519:00000000000000330000000000000000
#03918:00001300002300000000000000130000
#03915:00000023000000000000000013000013
#0391b:00000000000000130000001300000000
#03912:00000000000000000013000000000000
#04615:00130013
#04612:1313
#04618:0023000000230000
#0461b:0000002300000023
#01718:00000013
#01715:000000000000000000000000330013000000330000330000000000000000000000000000000000000000130000000000
#01712:13
#00412:0000000000000013
#00415:22000000000000130013000000000000
#00418:00131313
#00518:0000000013001313
#00515:00000000000000130013000000000000
#0051b:13130000
#01618:00000000000000000000001300000000
#01615:0013000000001300
#01612:000000000000000000000000330000001300330000330000000000000000000000000000000000000000000000000000
#0161b:0000000000000013
#05818:00000000000000000000000000130013
#05815:0000130000000013
#05812:23000000000033133300000000000000
#05915:1300130000000013
#05918:00001300000013000000000000130000
#05912:00000000000000140000000000000000
#0591a:00000000000000000014000000000000
#05914:00000000000000000000001400000000
#00019:12000000320000320032000032003200
#00215:12000000320000320032000032003200
#00312:12
#00313:00000000320000320032000032003200
#0061b:0000000000000013
#00618:00000000000000130013000000000000
#00615:00131313
#00612:13
#00715:0000000013001313
#00718:00000000000000130013000000000000
#00712:13130000
#01212:0000130000000023
#01215:00000000000000130013000013000000
#01218:0000002300230000
#0121b:0023000000000000
#01210:41
#02812:00001300000000000033003300333300
#02815:00000000130000130000000000000000
#02818:0000001300000000
#03116:0014
#0311a:14003400340034340034003400343400
#04212:0000001400000000
#04215:14
#04112:00000000000000140000000000000000
#04418:00130013
#0441b:2313
#04412:0023000000230000
#04415:0000002300000023
#04410:41
#0451b:1313
#04518:00130013
#04512:0023000000230000
#04515:0000002300000023
#04712:1313
#04715:00130013
#0471b:0000002300000023
#04718:0023000000230000
#04815:00000000130000000000000000130013
#04818:0000001300000013
#0481b:0013000000000000
#04812:23000000000000240000000000000000
#04816:00000000000000000024000000000000
#0481a:00000000000000000000002400000000
#05115:13130000
#05118:0000001300000000
#0511b:0013000000000000
#05114:00000000000000240000000000000000
#05415:13000000000033133300000000000013
#05418:0000000000000013
#05412:00130000
#05518:1300001300000000
#05515:0013000000000000
#0551b:00000023000000330033330000000000
#05512:00000000002300000000000000000000
#06015:00000000001300000000000000000000
#06018:00130000
#0601b:2300001300000000
#06012:00002300000000240000002400000000
#0601a:00000000000000000024000000000000
#06215:00000000000000000000000000000013
#06212:00000000000000000000000000130000
#06218:23000000000033133300000000001300
#0621b:00130000
#0631b:13
#06312:0013000000000000
#06314:00000000001400000000000000000000
#06318:00000014000000000000000000000000
#0631a:00000000000000140034343434343434
#06317:0000000000000000000000000000000000000000000000140000000000000000
#06617:0014000000000000
#06618:34
#06517:0000001400000000
#0651a:00000014
#06519:0000000000000034
#07116:00000014000000000000000000000000
#07012:0000001400000000
#06812:0000001400000000
#06816:1400000000000014
#06912:0000001400000000
#06916:0000000000000014
#0011c:12
#0011b:00000000320000320032000032003200
#04918:13001313
#04915:0013001300000013
#04912:00130000
#0491b:0000000000130000
#05012:23000000000033133300000000000000
#05015:0000130000000013
#05018:00000000000000000000000000130013
#0531b:0013000000000000
#05318:00000000130000000000001300130013
#05315:0000001300001313
#0531a:00000000000000240000000000000000
#05312:00000000000000000024000000000000
#05715:0013001300000013
#05712:00130000
#05718:00001313
#0571b:0000000000130000
#03218:00000000130000000000000000130013
#03215:0013001300000013
#0321a:24000000000000240000000000000000
#03216:00000000000000000024000000000000
#03212:00000000000000000000002400000000
#0321f:21
#03515:00130000
#03518:1300001300000000
#0351b:0013000000000013
#03513:00000000000000000033003300000000
#03618:0013131300000013
#03615:00000000001300000000000000130013
#03612:24000000000000240000000000000000
#0361a:00000000000000000000002400000000
#03616:00000000000000000024000000000000
#03315:13001313
#03318:0013001300000013
#0331b:00130000
#03312:0000000000130000
#03310:41
#03418:00000000000000130000000000000000
#0341b:0000133333000000
#03415:0000000000000013
#0371b:13
#03718:0013001300001313
#03715:00000000130000000000001300130013
#03712:00000000000000140000000000000000
#0371a:00000000000000000014000000000000
#0381b:00000000000000130000000000000000
#03818:0000133333000000
#0131b:1300130000000023
#01318:00000000000000130013000013000000
#01315:0000002300230000
#01312:0023000000000000
#0151b:1300130000000023
#01518:00000000000000130013000013000000
#01515:0000002300230000
#01512:0023000000000000
#01412:1300130000000023
#01415:00000000000000130013000013000000
#01418:0000002300230000
#0141b:0023000000000000
#0301b:0000001300000000
#03015:0013000000000000
#03018:00000000130000000024000000000000
#03014:00000000000000240000002400000000
#05615:0000001300000000
#05612:23000000130000000000002400000000
#05618:00000000001300000000000000000000
#05616:00000000000000000024000000000000
#0561a:00000000000000240000000000000000
#0561b:0023000000000000
#05610:41
#05218:0000001300000000
#0521b:23130000
#05215:00000000001300000000000000000000
#05212:00001300000000240000000000000000
#0521a:00000000000000000000002400000000
#05216:00000000000000000024000000000000
#07212:0000130000000013
#07215:00000000000000130013000013000000
#0721b:0013000000000000
#07218:0000001300130000
#0731b:1300130000000013
#07318:00000000000000130013000013000000
#07312:0013000000000000
#07315:0000001300130000
#07412:1300130000000023
#07415:00000000000000130013000013000000
#07418:0000002300230000
#0741b:0023000000000000
#0751b:13130000
#07518:00000000000000130013000013000000
#07515:0000002300230023
#07512:0023000000000000
#02318:1300003300000013
#0231b:0013000000000000
#02315:00000013
#02319:0000000000000000331300000000000000000000000000000000000000000000
#02317:00000000000000130000000000000000
#02218:00000000130000130000000013000000
#02215:00001300000000000013000000000000
#02212:0000001300000013
#02115:00000013
#02118:000000000000000000000000330013000000330000330000000000000000000000000000000000000000130000000000
#0211b:13
#02110:41
#02015:00000000000000000000001300000000
#02018:0013000000001300
#0201b:000000000000000000000000330000001300330000330000000000000000000000000000000000000000000000000000
#02012:0000000000000013
#0291b:00000013000000000000000000003333
#02918:00000000000013000000001300000000
#02915:00000000130000000013000000000000
#02912:00000000000000130000000000000000
#0291a:00000000000000000000000000330000
#06112:00001300000000240000000000000000
#06115:00000000130000000000001300130013
#06118:0000001300001313
#0611a:00000000000000000024000000000000
#0081a:24
#00819:00240000
#00818:0024
#00817:00000024
#00913:00240000
#00914:0024
#00915:00000024
#00912:24
#0111a:24
#01118:00240000
#01114:0024000000000000
#01116:00000000000024343434343434343434
#01019:00240000
#01018:0024
#01017:00000024
#0101a:24
#01012:0000000000000024
#04015:00000000000000240000000000000000
#0641a:0000002400000000
#06410:41
#06712:0000002400000000
#06716:0000000000003434
#0245b:13
#02452:00000000000000000013000000000000
#02455:00630000
#01952:0023000000000000
#01955:63
#01954:0000000000000000006300000000000000000000000000000000000000000000
#01956:00000000000000230000000000000000
#0445b:13
#01752:53
#01755:000000000000002300000000000000000000000000000000
#01655:0063000000000000
#01652:002300
#00059:62
#00255:52
#0255b:00000000000000000013000000000000
#02558:00530000
#02655:00630000
#02652:00000000000000000013000000000000
#0275b:00000000000000630000000000000000
#02758:0000000000000000000000000000000000000000002300000000000000000000
#03156:0024
#0315a:54
#04252:0000005400000000
#04255:64
#04152:00000000000000540000000000000000
#04055:00000000000000640000000000000000
#05558:0000005300000000
#0635a:00000000000000540000000000000000
#06357:0000000000000000000000000000000000000000000000240000000000000000
#06657:0054000000000000
#06557:0000006400000000
#0655a:00000024
#07156:00000024000000000000000000000000
#07052:0000005400000000
#06852:0000006400000000
#06856:6400000000000024
#06952:0000005400000000
#06956:0000000000000054
#0645a:0000006400000000
#07252:14
#06752:0000005400000000
#00352:22
#0015c:22
#05052:53000000000000230000000000000000
#05055:00630000
#05455:53000000000000230000000000000000
#05452:00530000
#05852:53000000000000230000000000000000
#05855:00630000
#03458:00000000000000230000000000000000
#0345b:00530000
#0325a:14
#03652:14
#0385b:00000000000000230000000000000000
#03858:00630000
#00455:12
#02855:00000000000000530000000000000000
#02952:13
#02958:00000000000000000000006300000000
#04852:13
#0485b:0013000000000000
#0605b:13
#06052:0013000000000000
#0565b:0013000000000000
#05652:13
#0525b:13
#05252:0013000000000000
#02358:53
#0235b:0023000000000000
#02359:0000000000000000005300000000000000000000000000000000000000000000
#02357:00000000000000230000000000000000
#0215b:63
#02158:000000000000002300000000000000000000000000000000
#02058:0053000000000000
#0205b:002300
#0305b:13
#06258:53000000000000230000000000000000
#0625b:00630000
#01254:18
#000390:12000000320000320032000032003200
#0013c0:32
#0013b0:00000000320000320032000032003200
#002390:22
#002351:12000000320000320032000032003200
#003321:32
#003331:00000000320000320032000032003200
#004351:22
#011361:00000000000014343434343434343434
#012341:28
#016351:00001300000000000023000000000000
#016321:000000000000000000000000330000005300330000330000000000000000000000000000000000000000000000000000
#017321:13000000000000000023000000000000
#017351:000000000000000000000000330053000000330000330000000000000000000000000000000000000000000000000000
#019351:1300003300000000
#019321:0053000000000000
#019341:0000000000000000335300000000000000000000000000000000000000000000
#019361:00000000000000330000000000000000
#019331:00000000000000000023000000000000
#020381:00001300000000000023000000000000
#0203b1:000000000000000000000000330000005300330000330000000000000000000000000000000000000000000000000000
#0213b1:13000000000000000023000000000000
#021381:000000000000000000000000330053000000330000330000000000000000000000000000000000000000000000000000
#023381:1300003300000000
#0233b1:0053000000000000
#023391:0000000000000000335300000000000000000000000000000000000000000000
#023371:00000000000000330000000000000000
#0233a1:00000000000000000023000000000000
#024351:0000133300000000
#024341:00000000000000330000000000000000
#024331:0033
#024321:00000000000000000023000000000000
#025381:0000133300000000
#025391:00000000000000330000000000000000
#0253b1:00000000000000000023000000000000
#026351:0000133300000000
#026341:00000000000000330000000000000000
#026331:0033
#026321:00000000000000000023000000000000
#0273b1:00000000000000130000000000002300
#027381:0000000000000000000000000000000000003300335333003300000000000000
#028351:00000000000000130000000000000000
#028321:00000000000000000033003300333300
#029321:23
#029381:00000000000000000000001300000000
#0293a1:00000000000000000000000000330000
#0293b1:00000000000000000000000000003333
#0303b1:23
#0303a1:00000000000000000000000000143434
#0313a1:34003400340034340034003400343400
#031361:0054
#0323a1:24
#0343b1:1300333333230000
#034381:00000000000000530000000000000000
#035351:00000000000000130000000000000000
#035331:00000000000000000033003300000000
#035321:00000000000000000000000000230000
#038381:1300333333230000
#0383b1:00000000000000530000000000000000
#038351:00000000000000000000000000130000
#038341:0000000000000033
#038331:00000000000000000000000000000033
#039321:23
#040381:13
#0403b1:00230000
#040351:00000000000000140000000000000000
#041321:00000000000000340000000000000000
#042351:34
#042321:0000003400000000
#043351:24
#050321:13000000000033533300000000000000
#050351:0000330000230000
#051341:00000000000000140000002400000000
#051321:00000000000000000034000000000000
#051381:00000000000000000000000000130000
#051391:0000000000000033
#0513a1:00000000000000000000000000000033
#0523b1:23
#052351:00000000000000000000000000130000
#052341:0000000000000033
#052331:00000000000000000000000000000033
#053321:23
#054351:13000000000033533300000000000000
#054321:0000330000230000
#055381:0000001300000000
#0553b1:00000000000000330033332300000000
#055351:00000000000000000000000000130000
#055341:0000000000000033
#055331:00000000000000000000000000000033
#056321:23
#056381:00000000000000000000000000130000
#056391:0000000000000033
#0563a1:00000000000000000000000000000033
#0573b1:23
#058321:13000000000033533300000000000000
#058351:0000330000230000
#060381:00000000000000000000000000130000
#060391:0000000000000033
#0603a1:00000000000000000000000000000033
#0613b1:23
#062381:13000000000033533300000000000000
#0623b1:0000330000230000
#0633a1:00000000000000140034343434343434
#063371:0000000000000000000000000000000000000000000000540000000000000000
#0643a1:24
#0643a1:0000001400000000
#065371:0000003400000000
#0653a1:00000034
#065391:0000000000000034
#066381:34
#066371:0034000000000000
#0673a1:00240000
#067321:0000001400000000
#067361:0000000000003434
#068361:3400000000000054
#068321:0000003400000000
#069321:0000003400000000
#069361:0000000000000034
#070321:0000003400000000
#071361:00000054000000000000000000000000
#072321:24
