This file was generated by Ched 2.6.4.0.
#TITLE ""
#ARTIST ""
#DESIGNER ""
#DIFFICULTY 0
#PLAYLEVEL
#SONGID ""
#WAVE ""
#WAVEOFFSET 0
#JACKET ""
#REQUEST "ticks_per_beat 480"
#00002: 4
#BPM01: 136
#00008: 01
#TIL00: ""
#HISPEED 00
#MEASUREHS 00
#01612:00001200000000000000001200000000
#01618:00000012
#0161c:00120000
#01614:0000120012000012
#01616:0000001200000000
#0161a:00001200000000120000000000001200
#02416:0000130000000013
#02412:1300001300001300
#02415:00000000000000130000000000000000
#0241b:23000000130000000013000000001300
#02417:00000013
#02418:0013
#0241f:11
#02718:0000000000131613
#02712:00000013000000000000001600001300
#0271b:00000000000013130013000000000000
#02716:13000000000000130000000000000000
#02715:00000000000000000000000000130000
#02717:00130000
#03115:00001300001300000000000000000000
#03112:00000013000000000000000000140000
#03118:00130000130000130000140000000000
#0311b:1300001300000000
#0311a:0014
#03116:00000000000000000014000014000000
#03114:00000000000000000000001400001400
#03212:00001800130000000023000000130000
#03215:00000000001300000000000000000013
#03218:0000001300000013
#0321b:00000000000000130000000000000000
#03217:00000000000000000013000000000000
#03216:28000000000000230000002300000000
#0321f:21
#03219:0000000033330000
#03312:00000000001300001400000000000000
#0331a:00000000000014000000000000000014
#03316:00000000000000140000000000000000
#03317:00000000000000000014000000000000
#03318:00000000130000000000001400000000
#03313:0000000000140000
#03315:00000013000000000000000000001400
#03319:00000000000000000000000000140000
#03314:00000014
#0331b:1313000000000000
#03310:41
#03515:00000000130000000026130000260000
#03518:00000000001300000000002600000000
#03512:00001300000013261300000000001300
#0351b:13000000000000000000000000000013
#03516:1414000000000000
#0431b:0000000000000000000000130000000000000000130000000000000013000000
#04312:13000000000000130000000013000000
#04316:00001300000000000013000013001300
#04317:13130000
#00817:00130000
#0081b:13000000000000130000000000001300
#00812:24242424
#00916:13000000000000130000000000001300
#00912:00130000
#0091a:24242424
#01716:12000000000000000012000000120000
#01718:0012000012001212
#0171c:12
#01712:00120000
#0171a:0000001200000000
#01714:00000000000000120000000000000000
#0301b:1300001300000000
#03012:00000000001300000000002500130000
#03018:00000000000000000000000000000013
#03015:1300000000000013
#03019:0013000013000000
#03014:00000013000000000025000000000000
#03017:0000130000130000
#03016:00000000000000250000000000000000
#0721a:00000000140000120000000000000000
#0721c:00000000000000000012000000001200
#07218:00000012
#07212:00120014
#07216:1400001214120012
#0041b:23000000000000130013000000001300
#00412:00130013
#00416:2213
#0051b:00000000000000130000000013000000
#00516:13130000
#00512:13001313
#00515:00000000000000000016000000001300
#00518:0000000000000013
#0181c:00001200000012000000001200000000
#01816:00001200000000120000000012000000
#01812:0000120000000012
#01819:0012
#01818:00120000
#01817:0000000000000012
#02916:14000014140014000000001300000000
#02919:00000013
#02914:00000000000000000000000000130000
#02917:0000000000000013
#02912:00000000140000000014000000000013
#0291a:14000000000000140014000000000000
#04415:00000000130000130013000000000000
#0441b:0000000000131300
#04417:0000000000001313
#04418:0013
#04412:1323002300230023
#04410:41
#04615:00000000000000160000130000000000
#04612:13002300000000000016000013002300
#04617:0000000000000013
#0461b:0000132300231300
#04618:0013
#05915:00001300000013000000160000000013
#05918:00000013001300000000000000001300
#0591b:13001300000000130000001300130000
#05912:13000000130000000013000000000000
#05916:00000000000000000000001300000000
#05815:00000000000000000000000000000013
#05818:0000000000000013
#0581b:00000000000023000000000000130000
#05812:23
#05817:2300000000230000
#05819:00232300
#02314:00000000000000120000000000001200
#02318:0012000012001200
#0231a:0000001200000012
#02312:12
#0231c:12
#02316:0012000000000000
#02515:00000000000023130023000000000000
#02518:00000000000013230013000000000000
#02516:00000014000000000000000013000000
#02512:0000130000000013
#0251b:00130013
#02517:1300000000000013
#0261b:0000131300001300
#02618:00000000000000130000000000000000
#02615:0013
#02616:13000014000000000000000013001300
#02612:00000000130000000013000000001300
#03412:1313
#03417:0013000000130000
#0341b:0000001300130000
#03416:1400131300000014
#04815:00001900130000000026000000001300
#04818:00000000001300001300002600000013
#0481b:00000000000013000000130000130000
#04812:29000000000000260000000000000000
#04915:00130000130000130000130000000013
#04912:13000000001300000000000013000000
#04918:00001300000013000000001300001300
#0491b:00000013000000001313000000130000
#0511b:0000131300000000
#05116:00000000001300230000000000000000
#05115:0000000000000013
#05112:00000000000000000013000000000013
#05118:00000000000000000000000000130000
#05117:00000000000000000023000000000000
#05012:23000000000000000000230000130013
#05017:2300000000000013
#05014:00232300
#05016:0000002300000000
#0561b:13000000130000001300000000000013
#05615:00000000001300000000000000001300
#05618:00000000000013000000130000130000
#05612:280013001300002c0029002600000000
#05616:0028000000000000
#05610:41
#00612:13000000000000130013000000001300
#0061b:13130013
#00617:0013
#00712:00000000000000130000000013000000
#00717:13130000
#0071b:13001313
#00715:00000000000000000016000000001300
#00718:0000000000000013
#02816:00001400141400141400141400141400
#02812:23000014000000000014000000000000
#0281a:0000001400001400
#0281b:23
#04017:13130000
#04016:000000000000000000000000000000000000000000000000000000000000000000000000000000000000000000000000000000000000000000000000000000000000000000000000000000000000000000000000000000000000000000000000000000000000000000000000000000000000000000000000000000000000000000000000000000000000000000000000000000000000000000000000000000000000000000000000000000000000000000000000000000000000000000000000000000000000000000000000000000000000000000000000000000000000000000000000000000000000000000000000000000000000000000000000000000000000000000000000000000000000000000000000000000000000000000000000000000000000000000000000000000000000000000000000000000000000000000000000000000000000000000000000000000000000000000000000000000000000000000000000000000000000000000000000000000000000000000000000000000000000000000000000000000000000000000000000000000000000000000000000000000000000000000000000000000000000000000000000000000000000000000000000000000000000000000000000000000000000000000000000000000000000000000000000000000000000000000000000000000000000000000000000000000000000000000000000000000000000000000000000000000000000000000000000000000000000000000000000000000000000000000000000000000000000000000000000000000000000000000000000000000000000000000000000000000000000000000000000000000000000000000000000000000000000000000000000000000000000000000000000000000000000000000000000000000000000000000000000000000000000000000000000000000000000000000000000000000000000000000000000000000000000000000000000000000000000000000000000000000000000000000000000000000000000000000000000000000000000000000000000000000000000000000000000000000000000000000000000000000000000000000000000000000000000000000000000000000000000000000000000000000000000000000000000000000000000000000000000000000000000000000000000000000000000000000000000000000000000000000000000000000000000000000000000000000000000000000000000000000000000000000000000000000000000000000000000000000000000000000000000000000000000000000000000000000000000000000000000000000000000000000000000000000000000000000000000000000000000000000000000000000000000000000000000000000000000000000000000000000000000000000000000000000000000000000000000000000000000000000000000000000000000000000000000000000000000000000000000000000000000000000000000000000000000000000000000000000000000000000000000000000000000000000000000000000000000000000000000000000000000000000000000000000000000000000000000000000000000000000000000000000000000000000000000000000000000000000000000000000000000000000000000000000000000000000000000000000000000000000000000000000000000000000000000000000000000000000000000000000000000000000000000000000000000000000000000000000000000000000000000000000000000000000000000000000000000000000000000000000000000000000000000000000000000000000000000000000000000000000000000000000000000000000000000000000000000000000000000000000000000000000000000000000000000000000000000000000000000000000000014140000000000000000000000000000000000000000000000000000000000000000000000000000000000000000000000000000000000000000000000000000000000000000000000000000000000000000000000000000000000000000000000000000000000000000000000000000000000000000000000000000000000000000000000000000000000000000000000000000000000000000000000000000000000000000000000000000000000000000000000000000000000000000000000000000000000000000000000000000000000000000000000000000000000000000000000000000000000000000000000000000000000000000000000000000000000000000000000000000000000000000000000000000000000000000000000000000000000000000000000000000000000000000000000000000000000000000000000000000000000000000000000000000000000000000000000000000000000000000000000000000000000000000000000000000000000000000000000000000000000000000000000000000000000000000000000000000000000000000000000000000000000000000000000000000000000000000000000000000000000000000000000000000000000000000000000000000000000000000000000
#04012:00000000000000130000000000000000
#0401b:00000000000000130000000000000000
#0551b:13000000000013000033330000000000
#05512:00001300002900000033330000130000
#05515:00000029000000130000000000001300
#05518:00000000000000130000000000000013
#05416:23000000000000000000000000000013
#0541b:2300000000230013
#05419:00232300
#05417:0000002300000000
#05715:00000000001300000013000013000000
#05718:00000000000013001300000000130000
#0571b:00002300130000130000001300000013
#05712:2300000000130013
#05716:0023000000000000
#05717:23
#00012:12000000000000120012000000001200
#00016:00120012
#00018:12
#0011c:00000000000000120012000000001200
#00118:00120012
#00116:12
#00216:00000000000000120012000000001200
#00212:00120012
#0021c:12
#00318:00000000000000120012000000001200
#0031c:00120012
#00312:12
#01112:2400000000000000000000000000001c
#01113:000024000000000000000000001a2a00
#01114:00000000240000000000001828000000
#01115:00000000000000000016260000000000
#01116:00000000000000142400000000000000
#01118:00240000
#0111a:24
#01119:0024000000000000
#01117:0000002200000000
#02119:00000000000000000000000000120000
#02116:0012000012001200
#02114:0000001200000000
#0211a:00000000000000120000000000000000
#02118:12000000000000000012000000000000
#02112:12
#0211c:00120000
#02110:41
#02212:00001200000012000000001200000000
#02218:00001200000000120000000012000000
#02214:0000000000000012
#02215:0012
#02216:00120000
#0221a:0000000000000012
#0221c:00120000
#01017:00130000
#0101b:13000000000000130000000000001300
#01012:24242424
#01016:0000000000000024
#01215:00000000130000130013000013000000
#0121b:0013130000131300
#01218:0013
#01212:2c23002300230023
#01210:41
#01316:13130013
#0131b:13131313
#01315:00000000000000130013000000000000
#01312:0013
#01318:0023002300230023
#01417:13130013
#01412:13131313
#01418:00000000000000130013000000000000
#0141b:0013
#01415:0023002300230023
#01518:13000000130000130013000013000000
#01512:1300130000131300
#01515:0013
#0151b:0023002300230023
#03918:13000000000000001300000000130000
#03912:00130029000000130000000013000000
#0391b:00001300000000130000001300000013
#03915:00000000002900000013000000001300
#03718:00000000001300001600001300001300
#0371b:13330033000013000000000013000000
#03712:00001300000000160016000000000013
#03715:13000000130000000000000000130000
#03717:0013000000000000
#0381b:1313
#03816:0013000000130000
#03812:0000001300130000
#03817:0000131300000000
#03815:13000000000000000000000000130013
#03818:0000000000000013
#04518:00000000130000130013000000000000
#04512:0000000000131300
#04516:0000000000001313
#04515:0013
#0451b:1323002300230023
#04715:00000000000000161300000000000000
#04718:00000000000000000016130000000000
#04716:0000000000000013
#0471b:1323000000001323
#04712:0000132300231300
#05218:00000000130000260000000000001300
#05215:29000000001300001326000000000013
#05212:00001900000013000000132600130000
#0521b:00000013000000000000000000000000
#05312:00000013000013000029000000130000
#05317:00130000
#0531b:13000000000000000000001300000000
#05315:00001300000000290000000000001300
#05318:00130000000000000000000013000013
#06015:00000000000013000029130000130000
#06018:00000000001300000000002600001300
#06012:130028001300002c1300000000000013
#0601b:0013130000000000
#06016:28
#0611b:00130000130000000000000000000000
#06118:13000000001300160000000000000000
#06115:1313001316000000
#06112:00000013000000000016001300000000
#06117:00000013
#06114:00000000000000000000000000130000
#06119:0000000000000013
#06116:00000000000000000000000000000013
#06315:00000000000000000000001300000013
#06318:1300000000130013
#06312:00000013000000130013000000130000
#0631b:00001300001300000000000013000000
#06316:00000014001400140000000000000000
#0621b:2300000000000013
#06215:00000000000000000000000000000013
#06212:00000000000023000000000000130000
#06214:00232300
#06216:2300000000230000
#0201c:00001200000012000000001200000000
#02016:0012001200001200
#02012:00120000
#0201a:00000000000000000000000000000012
#02018:00000000120000120000000000000000
#02014:0000000000000012
#0361b:00000000130000000023000000130000
#03618:00000000001300000000000000000013
#03615:0000001300000013
#03616:00001800000000000013000000000000
#03612:28000000000000130000000000000000
#03617:00000000000000230000002300000000
#03614:0000000033330000
#04116:00000000130000000013000000000000
#0411b:0000130000130000
#04117:00000013
#04119:0000000000000013
#04112:24000000000000130000000013000000
#04114:0000000000000013
#04216:13130000
#0421b:13000000000000130000000013000000
#04217:00001300000000000013000013001300
#04212:0000000000000000000000130000000000000000130000000000000013000000
#07314:00000000000000120000000000000000
#07312:12000000140000000012000000001200
#07316:14001412
#0731c:00120000
#0731a:00000014
#07318:0012001200120012
#0681b:0000001300000000
#06815:0000000000000014
#06817:13
#06812:13131313
#0691b:000013000013
#06916:000000000013000000000013
#06912:13131313
#06918:0000003300000033
#0701b:0000001300000000
#07012:13131313
#01917:12000000000000130000000000001200
#01912:0000130000000012
#01915:0000131313000000
#0191a:00000000000000130000000000000000
#01918:0000001313000000
#01916:00000000000000000013000000000000
#01913:00000000000000000013000000000000
#0191c:12
#06416:00000013000000000000000000000000
#06412:2300001300000000
#06417:0000000000000013
#0641b:13131313
#06410:41
#06512:0000001300000000
#06516:00000013
#0651b:13131313
#06514:0000000000000033
#06612:3313000000000000
#06617:00000000000000000000001300000000
#0661b:13131313
#06717:00000000000000000013000000000000
#06712:00001313
#0671b:1300132300000000
#06719:0000000000000033
#07115:0015000000000000
#07112:13131313
#0741a:00000000140000120000000000000000
#0741c:12000000000000000012000000001200
#07418:00000012
#07412:00120014
#07416:1422002214220022
#07514:00000000000000120000000000000000
#07512:12000000140000000012000000001200
#07516:14001412
#0751c:00120000
#0751a:00000014
#07518:0022002200220022
#02852:13
#0285b:13
#0045b:63000000000000000063000000000000
#00452:00630000
#00456:12
#00556:53630000
#02452:33000063
#0245b:43
#02456:0000000000000063
#02555:00000000000000000033000000000000
#02558:00000000000000000043000000000000
#02552:13
#02557:6300000000000053
#0255b:00000053
#03452:5353
#03457:0023000000530000
#03456:00530000
#0345b:0000005300000000
#03252:0038000000000000
#03256:48
#0325b:00000000000000630000000000000000
#03257:00000000000000000023000000000000
#04855:0049000000000000
#04852:39
#05652:38
#05656:0048000000000000
#00652:63000000000000000053000000000000
#0065b:00530000
#00757:63530000
#0235c:62
#02352:62
#02356:0022000000000000
#02358:0022000000000000
#04057:63
#04056:000000000000000000000000000000000000000000000000000000000000000000000000000000000000000000000000000000000000000000000000000000000000000000000000000000000000000000000000000000000000000000000000000000000000000000000000000000000000000000000000000000000000000000000000000000000000000000000000000000000000000000000000000000000000000000000000000000000000000000000000000000000000000000000000000000000000000000000000000000000000000000000000000000000000000000000000000000000000000000000000000000000000000000000000000000000000000000000000000000000000000000000000000000000000000000000000000000000000000000000000000000000000000000000000000000000000000000000000000000000000000000000000000000000000000000000000000000000000000000000000000000000000000000000000000000000000000000000000000000000000000000000000000000000000000000000000000000000000000000000000000000000000000000000000000000000000000000000000000000000000000000000000000000000000000000000000000000000000000000000000000000000000000000000000000000000000000000000000000000000000000000000000000000000000000000000000000000000000000000000000000000000000000000000000000000000000000000000000000000000000000000000000000000000000000000000000000000000000000000000000000000000000000000000000000000000000000000000000000000000000000000000000000000000000000000000000000000000000000000000000000000000000000000000000000000000000000000000000000000000000000000000000000000000000000000000000000000000000000000000000000000000000000000000000000000000000000000000000000000000000000000000000000000000000000000000000000000000000000000000000000000000000000000000000000000000000000000000000000000000000000000000000000000000000000000000000000000000000000000000000000000000000000000000000000000000000000000000000000000000000000000000000000000000000000000000000000000000000000000000000000000000000000000000000000000000000000000000000000000000000000000000000000000000000000000000000000000000000000000000000000000000000000000000000000000000000000000000000000000000000000000000000000000000000000000000000000000000000000000000000000000000000000000000000000000000000000000000000000000000000000000000000000000000000000000000000000000000000000000000000000000000000000000000000000000000000000000000000000000000000000000000000000000000000000000000000000000000000000000000000000000000000000000000000000000000000000000000000000000000000000000000000000000000000000000000000000000000000000000000000000000000000000000000000000000000000000000000000000000000000000000000000000000000000000000000000000000000000000000000000000000000000000000000000000000000000000000000000000000000000000000000000000000000000000000000000000000000000000000000000000000000000000000000000000000000000000000000000000000000000000000000000000000000000000000000000000000000000000000000000000000000000000000000000000000000000000000000000000000000000000000000000000000000000000000000000000000000000000000000024240000000000000000000000000000000000000000000000000000000000000000000000000000000000000000000000000000000000000000000000000000000000000000000000000000000000000000000000000000000000000000000000000000000000000000000000000000000000000000000000000000000000000000000000000000000000000000000000000000000000000000000000000000000000000000000000000000000000000000000000000000000000000000000000000000000000000000000000000000000000000000000000000000000000000000000000000000000000000000000000000000000000000000000000000000000000000000000000000000000000000000000000000000000000000000000000000000000000000000000000000000000000000000000000000000000000000000000000000000000000000000000000000000000000000000000000000000000000000000000000000000000000000000000000000000000000000000000000000000000000000000000000000000000000000000000000000000000000000000000000000000000000000000000000000000000000000000000000000000000000000000000000000000000000000000000000000000000000000000000000
#04052:00000000000000530000000000000000
#0405b:00000000000000630000000000000000
#00156:52
#00352:62
#00058:52
#0025c:52
#01252:1c
#0125b:00530053
#01852:00220000
#01856:0062000000000000
#02258:0052000000000000
#0225c:00220000
#02158:00000000000000000052000000000000
#02152:52
#02156:0022000000000000
#01756:00000000000000000062000000000000
#0175c:62
#01758:0022000000000000
#01356:63630063
#01457:53530053
#01552:63630063
#02758:0000000000000053
#02756:00000000000000130000000000000000
#0275b:00000000000000130000000000000000
#02956:24240000
#0295a:14
#0305b:13
#03055:13
#0385b:6363
#03856:0023000000630000
#03852:0000006300000000
#03857:00630000
#0375b:63
#03757:0023000000000000
#03752:00000000000000000016000000000000
#05156:00000000000000530000001300000000
#05157:00000000000000000053000000000000
#0515b:00000000000000000000001300000000
#05152:00000000000000000053000000000000
#03154:0000000000000024
#02656:53
#0265b:13
#05252:0039000000000000
#05255:49
#05357:00630000
#05555:00000000000000630000000000000000
#05558:00000000000000630000000000000000
#05552:00000000000000000000001300000000
#0555b:00000000000000000000001300000000
#06158:63
#0615b:00230000000000000000000000000000
#06155:0053000000000000
#06152:00000023000000000016000000000000
#06356:00000000000000640000000000000000
#06352:00000033000000000000000000000000
#0635b:00000000004300000000000000000000
#05956:00000000000000000000002300000000
#0595b:00000000000000530000000000000000
#03656:00004800000000000023000000000000
#03652:38000000000000530000000000000000
#04452:33
#0415a:44
#04152:34
#04257:0023000000000000
#0425b:63
#04256:00630000
#04252:0000000000000000000000230000000000000000000000000000000000000000
#04352:53
#04356:0023000000000000
#04357:00530000
#0435b:0000000000000000000000230000000000000000000000000000000000000000
#05756:0063000000000000
#0675b:0000005300000000
#06757:00000000000000000023000000000000
#0725a:14
#07256:14
#0685b:0000006300000000
#06855:0000000000000024
#06857:63
#0695b:000063000063
#06956:000000000023000000000023
#0705b:0000006300000000
#0085b:13
#01952:00230000
#01955:0000235363000000
#0195a:00000000000000230000000000000000
#01957:62000000000000230000000000000000
#01958:0000005363000000
#01956:00000000000000000023000000000000
#01953:00000000000000000023000000000000
#0195c:62
#06457:0000000000000023
#06452:6300006300000000
#06456:00000023000000000000000000000000
#06552:0000006300000000
#06556:00000063
#06652:0063000000000000
#06657:00000000000000000000002300000000
#07155:0025000000000000
#06056:48
#06052:0038000000000000
#000380:12
#0003c0:00520000
#0013c0:22
#001361:12
#001321:00520000
#002321:22
#0023c0:12
#002380:00520000
#003380:22
#003321:12
#003361:00520000
#004361:22
#0043b0:13
#004360:00230000
#004321:00130000
#004361:00000000000000230000000000000000
#0043b1:00000000000000000013000000000000
#004371:00000023
#005361:13
#0053b1:00230000
#005360:00130000
#005320:00000000000000230000000000000000
#006320:13
#006370:00230000
#0063b1:00130000
#006371:00000000000000230000000000000000
#006321:00000000000000000013000000000000
#006361:00000023
#007371:13
#007321:00230000
#007370:00130000
#0073b0:00000000000000230000000000000000
#008370:00000000000000000013000023000000
#009320:00000000000000000013000023000000
#010370:00000000000000000013000023000000
#0123b0:00130000
#012370:0000002300000000
#0123b0:00000013
#012370:0000000000000023
#013360:13
#013320:0023000000000000
#013360:00130000
#013320:0000002300000000
#013360:00000013
#013320:0000000000000023
#014370:13
#0143b0:0023000000000000
#014370:00130000
#0143b0:0000002300000000
#014370:00000013
#0143b0:0000000000000023
#015320:13
#015360:0023000000000000
#015320:00130000
#015360:0000002300000000
#015320:00000013
#015360:0000000000000023
#016380:00000000000000000012002200000000
#0173c0:12220000
#017380:0052000000000000
#017360:00000000000000000012000000000000
#017320:00000022
#018360:0012002200000000
#018320:00320000
#018360:00000000000000000012000000000000
#018320:00000000000000000000002200000000
#019370:12000000000000330000000022000000
#019320:00330000
#019350:0000003333000000
#019330:00000000000000000033000000000000
#0193c1:12000022
#019351:00330000
#019381:0000003333000000
#0193a1:00000000000000330000000000000000
#019361:00000000000000000033000000000000
#020361:00000000000000000012002200000000
#021321:12220000
#021361:0052000000000000
#021381:00000000000000000012000000000000
#0213c1:00000022
#021361:0000000000000012
#022361:22
#022381:0012002200000000
#0223c1:00320000
#022381:00000000000000000012000000000000
#0223c1:00000000000000000000002200000000
#0233c1:12220000
#023381:0052000000000000
#023320:12220000
#023360:0052000000000000
#023360:00000000000000000012000022000000
#024320:00000013
#024360:0000000000000033
#025320:23
#025371:13
#0253b1:00000023000000000000000000000000
#0253b1:00000013
#025371:0000000000000033
#0263b1:23
#026360:13
#026320:00000023000000000000000000000000
#0273b0:13
#027370:00000023000000000000000000000000
#027320:00130000
#027360:0000002300000000
#027380:0000000000000013
#0273b0:00000000000000000000000000000053
#0283b0:23
#029360:14
#029320:00000024000000000000000000000000
#029360:00140000
#0293a0:0000002400000000
#031340:0000000000000014
#032360:28
#0323b0:00000000000000130000002300000000
#032390:0000000033330000
#032370:00000000000000000033000000000000
#034320:13230000
#034370:0053000000000000
#034361:00132300
#0343b1:0000003300000000
#034320:0000000013000023
#034370:0000000000330000
#036320:00000000000000130000002300000000
#036340:0000000033330000
#036360:00000000000000000033000000000000
#0373b0:13330033230000000000000000000000
#037370:0033000000000000
#0383b0:13230000
#038360:0053000000000000
#038371:00132300
#038321:0000003300000000
#0383b0:00000000000000001300000000230000
#038360:0000000000330000
#040370:13
#040320:00230000
#040320:00000000000000130000000000000000
#040360:00000054
#041320:24
#0403b1:00000000000000130000000000000000
#040361:000000000000000000000000000000000000000000000000000000000000000000000000000000000000000000000000000000000000000000000000000000000000000000000000000000000000000000000000000000000000000000000000000000000000000000000000000000000000000000000000000000000000000000000000000000000000000000000000000000000000000000000000000000000000000000000000000000000000000000000000000000000000000000000000000000000000000000000000000000000000000000000000000000000000000000000000000000000000000000000000000000000000000000000000000000000000000000000000000000000000000000000000000000000000000000000000000000000000000000000000000000000000000000000000000000000000000000000000000000000000000000000000000000000000000000000000000000000000000000000000000000000000000000000000000000000000000000000000000000000000000000000000000000000000000000000000000000000000000000000000000000000000000000000000000000000000000000000000000000000000000000000000000000000000000000000000000000000000000000000000000000000000000000000000000000000000000000000000000000000000000000000000000000000000000000000000000000000000000000000000000000000000000000000000000000000000000000000000000000000000000000000000000000000000000000000000000000000000000000000000000000000000000000000000000000000000000000000000000000000000000000000000000000000000000000000000000000000000000000000000000000000000000000000000000000000000000000000000000000000000000000000000000000000000000000000000000000000000000000000000000000000000000000000000000000000000000000000000000000000000000000000000000000000000000000000000000000000000000000000000000000000000000000000000000000000000000000000000000000000000000000000000000000000000000000000000000000000000000000000000000000000000000000000000000000000000000000000000000000000000000000000000000000000000000000000000000000000000000000000000000000000000000000000000000000000000000000000000000000000000000000000000000000000000000000000000000000000000000000000000000000000000000000000000000000000000000000000000000000000000000000000000000000000000000000000000000000000000000000000000000000000000000000000000000000000000000000000000000000000000000000000000000000000000000000000000000000000000000000000000000000000000000000000000000000000000000000000000000000000000000000000000000000000000000000000000000000000000000000000000000000000000000000000000000000000000000000000000000000000000000000000000000000000000000000000000000000000000000000000000000000000000000000000000000000000000000000000000000000000000000000000000000000000000000000000000000000000000000000000000000000000000000000000000000000000000000000000000000000000000000000000000000000000000000000000000000000000000000000000000000000000000000000000000000000000000000000000000000000000000000000000000000000000000000000000000000000000000000000000000000000000000000000000000000000000000000000000000000000000000000000000000000000000000000000000000000000000000000000000054000000000000000000000000000000000000000000000000000000000000000000000000000000000000000000000000000000000000000000000000000000000000000000000000000000000000000000000000000000000000000000000000000000000000000000000000000000000000000000000000000000000000000000000000000000000000000000000000000000000000000000000000000000000000000000000000000000000000000000000000000000000000000000000000000000000000000000000000000000000000000000000000000000000000000000000000000000000000000000000000000000000000000000000000000000000000000000000000000000000000000000000000000000000000000000000000000000000000000000000000000000000000000000000000000000000000000000000000000000000000000000000000000000000000000000000000000000000000000000000000000000000000000000000000000000000000000000000000000000000000000000000000000000000000000000000000000000000000000000000000000000000000000000000000000000000000000000000000000000000000000000000000000000000000000000000000000000000000000000000000
#0413a1:24
#0423b1:13230000
#042371:0053000000000000
#042360:00000000130000230000000000000000
#042320:0000000000000000000000530000000000000000000000000000000000000000
#043320:13230000
#043360:0053000000000000
#043371:00000000130000230000000000000000
#0433b1:0000000000000000000000530000000000000000000000000000000000000000
#044361:13
#0443b1:0023000000000000
#0443b1:00130000
#044361:0000002300000000
#045371:13
#045321:0023000000000000
#045321:00130000
#045371:0000002300000000
#0463b1:13
#046361:0023000000000000
#046371:00130000
#046321:0000002300000000
#047321:13
#047371:0023000000000000
#047361:00130000
#0473b1:0000002300000000
#050371:130000000000000000000000000000000000000000000000000000000000000000000000000000000000000000000000000000000000000000000000000000000000000000000000000000000000000000000000000000000000000000000000000000000000000000000000000000000000000000000000000000000000000000000000000000000000000000000000000000000000000000000000000000000000000000000000000000000000000000000000000000000000000000000000000000000000000000000000000000000000000000000000000000000000000000000000000000000000000000000053000000000000000000000000000000000000000000000000000000000000000000000000000000000000000000000000000000000000000000000000000000000000000000000000000000000000000000000000000000000000000000000000000000000000000000000000000000000000000000000000000000000000000000000000000000000000000000000000000000000000000000000000000000000000000000000000000000000000000000000000000000000000000000000000000000000000000000000000000000000000000000000000000000000000000000000000000000000000000000000000000000000000000000000000000000000000000000000000000000000000000000000000000000000000000000000000000000000000000000000000000000000000000000000000000000000000000000000000000000000000000000000000000000000000000000000000000000000000000000000000005300000000000000000000000000000000000000000000000000000000000000000000000000000000000000000000000000000000000000000000000000000000000000000000000000000000000000000000000000000000000000000000000000000000000000000000000000000000000000000000000000000000000000000000000000000000000000000000000000000000000000000000000000000000000000000000000000000000000000000000230000000000000000000000000000000000000000000000000000000000000000000000000000000000000000000000000000000000000000000000000000000000000000000000000000000000000000000000000000000000000000000000000000000000000000000000000000000000000000000000000000000000000000000000000000000000000000000000000000000000000000000000000000000000000000000000000000000000000000000000
#050381:0000330000330000
#050391:000000000000000000000000000000000000000000000000000000000000000000000000000000000000000000000000000000000000000000000000000000000000000000000000000000000000000000000000000000000000000000000000000000000000000000000000000000000000000000000000000000000000000000000000000000000000000000000000000000000000000000000000000000000000000000000000000000000000000000000000000000000000000000000000000000000000000000000000000000000000000000000000000000000000000000000000000000000000000000000000005300000000000000000000000000000000000000000000000000000000000000000000000000000000000000000000000000000000000000000000000000000000000000000000000000000000000000000000000000000000000000000000000000000000000000000000000000000000000000000053000000000000000000000000000000000000000000000000000000000000000000000000000000000000000000000000000000000000000000000000000000000000000000000000000000000000000000000000000000000000000000000000000000000000000000000000000000000000000000000000005300000000000000000000000000000000000000000000000000000000000000000000000000000000000000000000000000000000000000000000000000000000000000000000000000000000000000000000000000000000000000000000000000000000000000000000000000000000000000000053000000000000000000000000000000000000000000000000000000000000000000000000000000000000000000000000000000000000000000000000000000000000000000000000000000000000000000000000000000000000000000000000000000000000000000000000000000000000000000000000000000000000000000000000000000000000000000000000000000000000000000000000000000000000000000000000000000000000000000000000000000000000000000000000000000000000000000000000000000000000000000000000000000000000000000000000000000000000000000000000000000000000000000000000000000000000000000000000000000000000000000000000000000000000000000000000000000000000000000000000000000000000000000000000000000000000000000000000000000000000000000000000000000000000000000000000000000000000000000000000
#0503a1:0000003333000000
#0503b1:000000000000000000000000000000000000000000000000000000000000000000000000000000000000000000000000000000000000000000000000000000000000000000000000000000000000000000000000000000000000000000000000000000000000000000000000000000000000000000000000000000000000000000000000000000000000000000000000000000000000000000000000000000000000000000000000000000000000000000000000000000000000000000000000000000000000000000000000000000000000000000000000000000000000000000000000000000000000000000000000000000000000000000000000000000000000000000000000000000000000000000000000000000000000000000000000000000000000000000000000000000000000000000000000000000000000000000000000000000000000000000000000000000000000000000000000000000000000000000000000005300000000000000000000000000000000000000000000000000000000000000000000000000000000000000000000000000000000000000000000000000000000000000000000000000000000000000000000000000000000000000000000000000000000000000000000000000000000000000000053000000000000000000000000000000000000000000000000000000000000000000000000000000000000000000000000000000000000000000000000000000000000000000000000000000000000000000000000000000000000000000000000000000000000000000000000000000000000000000000000000000000000000000000000000000000000000000000000000000000000000000000000000000000000000000000000000000000000000000000000000000000000000000000000000000000000000000000000000000000000000000000000000000000000000000000000000000000000000000000000000000000000000000000000000000000000000000000000000000000000000000000000000000000000000000000000000000000000000000000000000000000000000000000000000000000000000000000000000000000000000000000000000000000000000000000000000000000000000000000000000000000000000000000000000000000000000000000000000000000000000000000000000000000000000000000000000000000000000000000000000000000000000000000000000000000000000000000000000000000000000000000000000000000000000000000000000000000000000000000000
#0513b1:13
#051371:0023000000000000
#051320:0013000000000000
#051360:00230000
#051360:00000000000000130000002300000000
#051320:00000000000000000053000000000000
#051371:00000000000000000013000000000000
#0513b1:00000000000000000000002300000000
#053371:00130000
#0533b1:0000002300000000
#054361:130000000000000000000000000000000000000000000000000000000000000000000000000000000000000000000000000000000000000000000000000000000000000000000000000000000000000000000000000000000000000000000000000000000000000000000000000000000000000000000000000000000000000000000000000000000000000000000000000000000000000000000000000000000000000000000000000000000000000000000000000000000000000000000000000000000000000000000000000000000000000000000000000000000000000000000000000000000000000000000053000000000000000000000000000000000000000000000000000000000000000000000000000000000000000000000000000000000000000000000000000000000000000000000000000000000000000000000000000000000000000000000000000000000000000000000000000000000000000000000000000000000000000000000000000000000000000000000000000000000000000000000000000000000000000000000000000000000000000000000000000000000000000000000000000000000000000000000000000000000000000000000000000000000000000000000000000000000000000000000000000000000000000000000000000000000000000000000000000000000000000000000000000000000000000000000000000000000000000000000000000000000000000000000000000000000000000000000000000000000000000000000000000000000000000000000000000000000000000000000000005300000000000000000000000000000000000000000000000000000000000000000000000000000000000000000000000000000000000000000000000000000000000000000000000000000000000000000000000000000000000000000000000000000000000000000000000000000000000000000000000000000000000000000000000000000000000000000000000000000000000000000000000000000000000000000000000000000000000000000000000000000000000000000000000000000000000000000000000000000000000000000000000000000000000000000000000000000000000000000000230000000000000000000000000000000000000000000000000000000000000000000000000000000000000000000000000000000000000000000000000000000000000000000000000000000000000000000000000000000000000000000000000000000000000000000000000000000000000000000000
#054351:0000330000330000
#054341:000000000000000000000000000000000000000000000000000000000000000000000000000000000000000000000000000000000000000000000000000000000000000000000000000000000000000000000000000000000000000000000000000000000000000000000000000000000000000000000000000000000000000000000000000000000000000000000000000000000000000000000000000000000000000000000000000000000000000000000000000000000000000000000000000000000000000000000000000000000000000000000000000000000000000000000000000000000000000000000000005300000000000000000000000000000000000000000000000000000000000000000000000000000000000000000000000000000000000000000000000000000000000000000000000000000000000000000000000000000000000000000000000000000000000000000000000000000000000000000053000000000000000000000000000000000000000000000000000000000000000000000000000000000000000000000000000000000000000000000000000000000000000000000000000000000000000000000000000000000000000000000000000000000000000000000000000000000000000000000000005300000000000000000000000000000000000000000000000000000000000000000000000000000000000000000000000000000000000000000000000000000000000000000000000000000000000000000000000000000000000000000000000000000000000000000000000000000000000000000053000000000000000000000000000000000000000000000000000000000000000000000000000000000000000000000000000000000000000000000000000000000000000000000000000000000000000000000000000000000000000000000000000000000000000000000000000000000000000000000000000000000000000000000000000000000000000000000000000000000000000000000000000000000000000000000000000000000000000000000000000000000000000000000000000000000000000000000000000000000000000000000000000000000000000000000000000000000000000000000000000000000000000000000000000000000000000000000000000000000000000000000000000000000000000000000000000000000000000000000000000000000000000000000000000000000000000000000000000000000000000000000000000000000000000000000000000000000000000000000000
#054331:0000003333000000
#054321:000000000000000000000000000000000000000000000000000000000000000000000000000000000000000000000000000000000000000000000000000000000000000000000000000000000000000000000000000000000000000000000000000000000000000000000000000000000000000000000000000000000000000000000000000000000000000000000000000000000000000000000000000000000000000000000000000000000000000000000000000000000000000000000000000000000000000000000000000000000000000000000000000000000000000000000000000000000000000000000000000000000000000000000000000000000000000000000000000000000000000000000000000000000000000000000000000000000000000000000000000000000000000000000000000000000000000000000000000000000000000000000000000000000000000000000000000000000000000000000000005300000000000000000000000000000000000000000000000000000000000000000000000000000000000000000000000000000000000000000000000000000000000000000000000000000000000000000000000000000000000000000000000000000000000000000000000000000000000000000053000000000000000000000000000000000000000000000000000000000000000000000000000000000000000000000000000000000000000000000000000000000000000000000000000000000000000000000000000000000000000000000000000000000000000000000000000000000000000000000000000000000000000000000000000000000000000000000000000000000000000000000000000000000000000000000000000000000000000000000000000000000000000000000000000000000000000000000000000000000000000000000000000000000000000000000000000000000000000000000000000000000000000000000000000000000000000000000000000000000000000000000000000000000000000000000000000000000000000000000000000000000000000000000000000000000000000000000000000000000000000000000000000000000000000000000000000000000000000000000000000000000000000000000000000000000000000000000000000000000000000000000000000000000000000000000000000000000000000000000000000000000000000000000000000000000000000000000000000000000000000000000000000000000000000000000000000000000000000000000000
#055351:00000000000000130000000000000000
#055321:00000000000000000033332300000000
#055380:00000000000000130000000000000000
#0553b0:00000000000000000033332300000000
#057360:0013000000000000
#057320:00230000
#058320:130000000000000000000000000000000000000000000000000000000000000000000000000000000000000000000000000000000000000000000000000000000000000000000000000000000000000000000000000000000000000000000000000000000000000000000000000000000000000000000000000000000000000000000000000000000000000000000000000000000000000000000000000000000000000000000000000000000000000000000000000000000000000000000000000000000000000000000000000000000000000000000000000000000000000000000000000000000000000000000053000000000000000000000000000000000000000000000000000000000000000000000000000000000000000000000000000000000000000000000000000000000000000000000000000000000000000000000000000000000000000000000000000000000000000000000000000000000000000000000000000000000000000000000000000000000000000000000000000000000000000000000000000000000000000000000000000000000000000000000000000000000000000000000000000000000000000000000000000000000000000000000000000000000000000000000000000000000000000000000000000000000000000000000000000000000000000000000000000000000000000000000000000000000000000000000000000000000000000000000000000000000000000000000000000000000000000000000000000000000000000000000000000000000000000000000000000000000000000000000000005300000000000000000000000000000000000000000000000000000000000000000000000000000000000000000000000000000000000000000000000000000000000000000000000000000000000000000000000000000000000000000000000000000000000000000000000000000000000000000000000000000000000000000000000000000000000000000000000000000000000000000000000000000000000000000000000000000000000000000000230000000000000000000000000000000000000000000000000000000000000000000000000000000000000000000000000000000000000000000000000000000000000000000000000000000000000000000000000000000000000000000000000000000000000000000000000000000000000000000000000000000000000000000000000000000000000000000000000000000000000000000000000000000000000000000000000000000000000000000000
#058330:0000330000330000
#058340:000000000000000000000000000000000000000000000000000000000000000000000000000000000000000000000000000000000000000000000000000000000000000000000000000000000000000000000000000000000000000000000000000000000000000000000000000000000000000000000000000000000000000000000000000000000000000000000000000000000000000000000000000000000000000000000000000000000000000000000000000000000000000000000000000000000000000000000000000000000000000000000000000000000000000000000000000000000000000000000000005300000000000000000000000000000000000000000000000000000000000000000000000000000000000000000000000000000000000000000000000000000000000000000000000000000000000000000000000000000000000000000000000000000000000000000000000000000000000000000053000000000000000000000000000000000000000000000000000000000000000000000000000000000000000000000000000000000000000000000000000000000000000000000000000000000000000000000000000000000000000000000000000000000000000000000000000000000000000000000000005300000000000000000000000000000000000000000000000000000000000000000000000000000000000000000000000000000000000000000000000000000000000000000000000000000000000000000000000000000000000000000000000000000000000000000000000000000000000000000053000000000000000000000000000000000000000000000000000000000000000000000000000000000000000000000000000000000000000000000000000000000000000000000000000000000000000000000000000000000000000000000000000000000000000000000000000000000000000000000000000000000000000000000000000000000000000000000000000000000000000000000000000000000000000000000000000000000000000000000000000000000000000000000000000000000000000000000000000000000000000000000000000000000000000000000000000000000000000000000000000000000000000000000000000000000000000000000000000000000000000000000000000000000000000000000000000000000000000000000000000000000000000000000000000000000000000000000000000000000000000000000000000000000000000000000000000000000000000000000000
#058350:0000003333000000
#058360:000000000000000000000000000000000000000000000000000000000000000000000000000000000000000000000000000000000000000000000000000000000000000000000000000000000000000000000000000000000000000000000000000000000000000000000000000000000000000000000000000000000000000000000000000000000000000000000000000000000000000000000000000000000000000000000000000000000000000000000000000000000000000000000000000000000000000000000000000000000000000000000000000000000000000000000000000000000000000000000000000000000000000000000000000000000000000000000000000000000000000000000000000000000000000000000000000000000000000000000000000000000000000000000000000000000000000000000000000000000000000000000000000000000000000000000000000000000000000000000000005300000000000000000000000000000000000000000000000000000000000000000000000000000000000000000000000000000000000000000000000000000000000000000000000000000000000000000000000000000000000000000000000000000000000000000000000000000000000000000053000000000000000000000000000000000000000000000000000000000000000000000000000000000000000000000000000000000000000000000000000000000000000000000000000000000000000000000000000000000000000000000000000000000000000000000000000000000000000000000000000000000000000000000000000000000000000000000000000000000000000000000000000000000000000000000000000000000000000000000000000000000000000000000000000000000000000000000000000000000000000000000000000000000000000000000000000000000000000000000000000000000000000000000000000000000000000000000000000000000000000000000000000000000000000000000000000000000000000000000000000000000000000000000000000000000000000000000000000000000000000000000000000000000000000000000000000000000000000000000000000000000000000000000000000000000000000000000000000000000000000000000000000000000000000000000000000000000000000000000000000000000000000000000000000000000000000000000000000000000000000000000000000000000000000000000000000000000000000000000000
#0593b0:00000000000000130000000000000000
#059370:00000000000000000023000000000000
#059360:00000000000000000000001300000000
#059320:00000000000000000000000000230000
#061380:1323000000000000
#0613b0:00530000000000000000000000000000
#061351:0013230000000000
#061321:00000053000000000000000000000000
#0623b1:130000000000000000000000000000000000000000000000000000000000000000000000000000000000000000000000000000000000000000000000000000000000000000000000000000000000000000000000000000000000000000000000000000000000000000000000000000000000000000000000000000000000000000000000000000000000000000000000000000000000000000000000000000000000000000000000000000000000000000000000000000000000000000000000000000000000000000000000000000000000000000000000000000000000000000000000000000000000000000000053000000000000000000000000000000000000000000000000000000000000000000000000000000000000000000000000000000000000000000000000000000000000000000000000000000000000000000000000000000000000000000000000000000000000000000000000000000000000000000000000000000000000000000000000000000000000000000000000000000000000000000000000000000000000000000000000000000000000000000000000000000000000000000000000000000000000000000000000000000000000000000000000000000000000000000000000000000000000000000000000000000000000000000000000000000000000000000000000000000000000000000000000000000000000000000000000000000000000000000000000000000000000000000000000000000000000000000000000000000000000000000000000000000000000000000000000000000000000000000000000005300000000000000000000000000000000000000000000000000000000000000000000000000000000000000000000000000000000000000000000000000000000000000000000000000000000000000000000000000000000000000000000000000000000000000000000000000000000000000000000000000000000000000000000000000000000000000000000000000000000000000000000000000000000000000000000000000000000000000000000230000000000000000000000000000000000000000000000000000000000000000000000000000000000000000000000000000000000000000000000000000000000000000000000000000000000000000000000000000000000000000000000000000000000000000000000000000000000000000000000000000000000000000000000000000000000000000000000000000000000000000000000000000000000000000000000000000000000000000000000
#0623a1:0000330000330000
#062391:000000000000000000000000000000000000000000000000000000000000000000000000000000000000000000000000000000000000000000000000000000000000000000000000000000000000000000000000000000000000000000000000000000000000000000000000000000000000000000000000000000000000000000000000000000000000000000000000000000000000000000000000000000000000000000000000000000000000000000000000000000000000000000000000000000000000000000000000000000000000000000000000000000000000000000000000000000000000000000000000005300000000000000000000000000000000000000000000000000000000000000000000000000000000000000000000000000000000000000000000000000000000000000000000000000000000000000000000000000000000000000000000000000000000000000000000000000000000000000000053000000000000000000000000000000000000000000000000000000000000000000000000000000000000000000000000000000000000000000000000000000000000000000000000000000000000000000000000000000000000000000000000000000000000000000000000000000000000000000000000005300000000000000000000000000000000000000000000000000000000000000000000000000000000000000000000000000000000000000000000000000000000000000000000000000000000000000000000000000000000000000000000000000000000000000000000000000000000000000000053000000000000000000000000000000000000000000000000000000000000000000000000000000000000000000000000000000000000000000000000000000000000000000000000000000000000000000000000000000000000000000000000000000000000000000000000000000000000000000000000000000000000000000000000000000000000000000000000000000000000000000000000000000000000000000000000000000000000000000000000000000000000000000000000000000000000000000000000000000000000000000000000000000000000000000000000000000000000000000000000000000000000000000000000000000000000000000000000000000000000000000000000000000000000000000000000000000000000000000000000000000000000000000000000000000000000000000000000000000000000000000000000000000000000000000000000000000000000000000000000
#062381:0000003333000000
#062371:000000000000000000000000000000000000000000000000000000000000000000000000000000000000000000000000000000000000000000000000000000000000000000000000000000000000000000000000000000000000000000000000000000000000000000000000000000000000000000000000000000000000000000000000000000000000000000000000000000000000000000000000000000000000000000000000000000000000000000000000000000000000000000000000000000000000000000000000000000000000000000000000000000000000000000000000000000000000000000000000000000000000000000000000000000000000000000000000000000000000000000000000000000000000000000000000000000000000000000000000000000000000000000000000000000000000000000000000000000000000000000000000000000000000000000000000000000000000000000000000005300000000000000000000000000000000000000000000000000000000000000000000000000000000000000000000000000000000000000000000000000000000000000000000000000000000000000000000000000000000000000000000000000000000000000000000000000000000000000000053000000000000000000000000000000000000000000000000000000000000000000000000000000000000000000000000000000000000000000000000000000000000000000000000000000000000000000000000000000000000000000000000000000000000000000000000000000000000000000000000000000000000000000000000000000000000000000000000000000000000000000000000000000000000000000000000000000000000000000000000000000000000000000000000000000000000000000000000000000000000000000000000000000000000000000000000000000000000000000000000000000000000000000000000000000000000000000000000000000000000000000000000000000000000000000000000000000000000000000000000000000000000000000000000000000000000000000000000000000000000000000000000000000000000000000000000000000000000000000000000000000000000000000000000000000000000000000000000000000000000000000000000000000000000000000000000000000000000000000000000000000000000000000000000000000000000000000000000000000000000000000000000000000000000000000000000000000000000000000000000
#063361:00000000000000140000000000000000
#0633a1:00000000000000000024000000000000
#064321:1300003300000000
#064361:00000053000000000000000000000000
#064371:0000000000000053
#065321:0000003300000000
#065361:00000033
#065341:0000000000000033
#066321:3333000000000000
#066371:00000000000000000000005300000000
#067321:0000002300000000
#0673b0:0000001300003300
#067370:00000000000000000053000000000000
#067390:0000000000000033
#068370:33
#0683b0:00000053000033000000000000000000
#068350:0000000000000054
#0693b0:000053000053
#069380:0000003300000033
#069360:000000000053000000000053
#0703b0:0000003300000000
#071350:0055000000000000
#0723a0:24
