This file was generated by Ched 2.6.4.0.
#TITLE ""
#ARTIST ""
#DESIGNER ""
#DIFFICULTY 0
#PLAYLEVEL
#SONGID ""
#WAVE ""
#WAVEOFFSET 0
#JACKET ""
#REQUEST "ticks_per_beat 480"
#00002: 4
#BPM01: 136
#00008: 01
#TIL00: ""
#HISPEED 00
#MEASUREHS 00
#0081a:14
#00814:0014
#00918:14
#00912:0014
#0101a:14
#01014:0014
#01118:14
#01112:0014
#0121a:14140000
#01214:00001414
#01210:41
#0161a:14
#01614:00140000
#01618:0014
#01612:00000014
#01412:14140000
#01418:00001414
#0171a:14
#01714:00140000
#01812:14
#01818:00140000
#01814:0014
#0181a:00000014
#01912:14
#01918:00140000
#0201a:14
#02014:00140000
#02018:0014
#02012:00000014
#02118:14
#02114:00140000
#02110:41
#02212:14
#02218:00140000
#02214:0014
#0221a:00000014
#02314:14
#02318:00140000
#0281a:1414
#02814:00140014
#02918:1414
#02912:00140014
#0301a:14343400
#03112:14343400
#03214:00140000
#03218:0014
#03212:00000014
#0321a:24
#0321f:21
#03318:14
#03312:00140000
#03316:0014
#0331a:00000014
#03310:41
#03818:14
#0381a:0000001400000000
#03914:14
#03912:0000001400000000
#04018:14
#0401a:00000000000000340000000000000000
#04314:00140000
#04318:0014
#04312:00000014
#0441a:14140000
#04414:00001414
#04410:41
#04518:14140000
#04512:00001414
#0461a:14140000
#04614:00001414
#04718:14140000
#04712:00001414
#0241f:11
#05914:0000001400000000
#05912:14
#0591a:0000001400000000
#05918:14
#05818:0000001400000000
#0581a:14
#05812:0000001400000000
#05814:14
#0571a:00000014
#05714:0014
#05718:00140000
#05712:14
#0561a:24000014
#05616:0014
#05612:00140000
#05610:41
#04918:00000014
#04912:0014
#04916:00140000
#0491a:14
#04814:00000014
#0481a:0014
#04812:00140000
#04818:24
#03618:00140000
#03614:0014
#0361a:00000014
#03612:24
#03714:14
#0371a:00140000
#03716:0014
#03712:00000014
#05118:0000001400000000
#0511a:14
#05014:0000001400000000
#05012:14
#03414:14
#03412:0000001400000000
#03518:14
#0351a:0000001400000000
#05314:00000014
#0531a:0014
#05316:00140000
#05312:14
#05514:0000001400000000
#05512:14
#05418:0000001400000000
#0541a:14
#05218:00000014
#05212:0014
#0521a:00140000
#05214:24
#06318:0000001400000000
#0631a:14
#06312:0000001400000000
#06314:14
#06214:0000001400000000
#06212:14
#0621a:0000001400000000
#06218:14
#06112:00000014
#06118:0014
#06114:00140000
#0611a:14
#06012:24000014
#06016:0014
#0601a:00140000
#07418:14
#07412:00000014
#0741a:0014
#07414:00140000
#0751a:14343434
#07312:14343400
#0721a:00000014
#07212:0014
#07218:00140000
#06812:14
#06814:0000001400000000
#0641a:0000001400000000
#06410:41
#06518:0000001400000000
#0661a:14
#06912:0000001400000000
#07012:0000001400000000
#07014:14
#0131a:00343400
#01512:00343400
#0411a:00000000000000340000000000000000
#0421a:3400003400000000
#0305a:54
#03152:64
#0325a:14
#03858:64
#0385a:0000002400000000
#03954:54
#03952:0000002400000000
#04058:54
#05954:0000002400000000
#05952:64
#0595a:0000002400000000
#05958:64
#05858:0000002400000000
#0585a:54
#05852:0000002400000000
#05854:54
#0565a:14
#04858:14
#03652:14
#05158:0000002400000000
#0515a:54
#05054:0000002400000000
#05052:64
#03454:54
#03452:0000002400000000
#03558:64
#0355a:0000002400000000
#05554:0000002400000000
#05552:64
#05458:0000002400000000
#0545a:54
#05254:14
#06358:0000002400000000
#0635a:54
#06352:0000002400000000
#06354:54
#06254:0000002400000000
#06252:64
#0625a:0000002400000000
#06258:64
#06052:14
#0755a:64
#07352:54
#06852:54
#06854:0000006400000000
#0645a:0000005400000000
#06558:0000005400000000
#0665a:54
#06952:0000005400000000
#07052:0000005400000000
#07054:64
#0003a0:14
#001380:34
#0023a0:34
#003380:24
#004320:14
#005340:34
#006320:34
#007340:24
#0133a0:14343400
#013380:00000024
#015320:14343400
#015340:00000024
#017380:00001424
#019340:00001424
#0213a0:00001424
#023320:00001424
#0243a0:14
#024390:00340000
#024380:0024
#025320:14
#025330:00340000
#025340:0024
#026380:14
#026390:00340000
#0263a0:0024
#027340:14
#027330:00340000
#027320:0024
#0303a0:14343400
#030380:00000024
#031320:14343400
#031340:00000024
#034340:14000024
#034320:0000005400000000
#035380:14000024
#0353a0:0000005400000000
#038380:14000024
#0383a0:0000005400000000
#039340:14000024
#039320:0000005400000000
#040380:14
#0403a0:00000000000000340000000000000000
#0413a0:00000000000000340000000000000000
#0423a0:3400003400000000
#0433a0:24
#050320:14000024
#050340:0000005400000000
#0513a0:14000024
#051380:0000005400000000
#0543a0:14000024
#054380:0000005400000000
#055320:14000024
#055340:0000005400000000
#0583a0:14000024
#058380:0000005400000000
#058341:14000024
#058321:0000005400000000
#059321:14000024
#059341:0000005400000000
#059380:14000024
#0593a0:0000005400000000
#062320:14000024
#062340:0000005400000000
#062381:14000024
#0623a1:0000005400000000
#0633a1:14000024
#063381:0000005400000000
#063340:14000024
#063320:0000005400000000
#0643a0:1400003400000000
#065380:0000003400000000
#0663a0:34
#067380:24
#067320:0014
#068320:34
#068340:0000003400000000
#069320:0000003400000000
#070340:34
#070320:0000003400000000
#072340:24
#073320:14343400
#073340:00000024
#0753a0:14343434
#075380:0000000000000024
