This file was generated by Ched 2.6.4.0.
#TITLE ""
#ARTIST ""
#DESIGNER ""
#DIFFICULTY 0
#PLAYLEVEL
#SONGID ""
#WAVE ""
#WAVEOFFSET 0
#JACKET ""
#REQUEST "ticks_per_beat 480"
#00002: 4
#BPM01: 188
#00008: 01
#TIL00: ""
#HISPEED 00
#MEASUREHS 00
#00018:14000014
#00214:14000014
#00418:14
#00414:00000014
#00518:0014
#0121a:14
#01210:41
#0131a:14
#01512:14
#07014:14
#11214:14
#11518:14
#11612:14
#00118:0014
#00314:0014
#01412:14
#01618:14
#01718:14
#01914:14
#01814:14
#0651a:14
#06614:14
#06718:14
#06812:14
#06918:14
#07118:14
#10412:14
#1041a:00000014
#10514:0014
#1061a:14
#10612:00000014
#10718:0014
#10814:14
#1081a:00000014
#10810:41
#10912:0014
#11318:14
#11414:14
#1171a:14
#11812:14
#00614:14
#00618:00000014
#00714:0014
#0081a:14
#00814:00000014
#0091a:0014
#01012:14
#01018:00000014
#01112:0014
#02812:2616
#02810:41
#02918:1616
#03218:2616
#03312:1616
#04812:0016
#04818:26
#04918:16
#04912:0016
#05018:16
#05010:41
#07418:1616
#07410:41
#09312:0016
#09318:26
#09418:16
#09412:0016
#09518:16
#09510:41
#07312:2616
#0731f:21
#07518:0016
#07512:16
#07812:1616
#07718:2616
#07912:0016
#07918:16
#11018:14
#11012:00000014
#1111a:0014
#0561f:11
#10118:0026
#0203a0:14
#0213a0:00340000
#0223a0:0024
#024320:14
#025320:24
#0263a0:14
#0273a0:24
#030320:1636
#031320:26
#034380:1636
#035380:26
#036340:14
#037340:24
#038380:14
#039380:24
#040320:14
#041320:34
#042320:34
#043320:24
#044380:14
#045380:24
#046340:14
#047340:24
#051320:14
#052320:00240000
#0533a0:0014
#0543a0:00000024
#056320:14
#057320:00340000
#058320:0024
#0603a0:14
#0613a0:24
#062320:14
#063320:24
#076320:1626
#080380:1626
#081320:14
#082320:24
#0833a0:14
#0843a0:24
#085340:14
#086340:34
#087340:34
#088340:24
#0893a0:14
#0903a0:24
#091320:14
#092320:24
#096320:14000024
#0973a0:0014
#0983a0:34000024
#099320:0014
#100320:34000024
#101380:0016
#102380:36000026
#1193a0:1400000000000024
