This file was generated by Ched 2.6.4.0.
#TITLE ""
#ARTIST ""
#DESIGNER ""
#DIFFICULTY 0
#PLAYLEVEL
#SONGID ""
#WAVE ""
#WAVEOFFSET 0
#JACKET ""
#REQUEST "ticks_per_beat 480"
#00002: 4
#BPM01: 188
#00008: 01
#TIL00: ""
#HISPEED 00
#MEASUREHS 00
#0561f:11
#05616:0000121200000000
#05614:0000000000121200
#04712:1323001300001300
#04718:0000000013000013
#04715:0000000000130000
#04612:2300132300132300
#04515:0000000000000013
#0451b:1323001323002300
#09218:1323000013000013
#09212:00000013
#09215:0000000000130000
#0921b:0000001300000000
#02615:00000013
#0261b:13
#02618:0000000000000023
#08512:0000140000130000
#0851b:0000000000000013
#08517:0000000000130000
#0851a:1400001400000000
#08516:0014000000000013
#08617:00130000000000001300000000000000
#08616:00130024
#08612:00130000000000000000000000000000
#07812:0000131300000000
#0781b:0000000000130000
#07814:1313000000000000
#07818:0024000000000013
#07815:00000013
#07816:0000002400000000
#0741b:0000131300000000
#07419:1313000000000000
#07412:0000000000130000
#07415:0000000000000013
#07418:00000013
#07416:0000002400000000
#07414:0024000000000000
#07410:41
#11918:13130013
#11912:0013000000000013
#11915:0000001300130000
#1191b:0013
#1171b:1300000000000013
#11712:0000001300000000
#11718:0000000000130000
#11715:00000000000000000033000013000000
#11812:0000130000130000
#11815:0013001300000013
#1181b:00000013
#11818:1313
#11618:0000001300000013
#11615:00130013
#1161b:2313
#11612:2313000000000000
#11515:13130013
#1151b:0013000000000013
#11518:0000001300130000
#11512:0013
#11312:1300000000000013
#1131b:0000001300000000
#11315:0000000000130000
#11318:00000013
#1141b:0000130000130000
#11418:0013001300000013
#11412:00000013
#11415:1313
#11215:0000001300000013
#11218:00130013
#11212:2313
#1121b:2313000000000000
#05914:0000120000120000
#05916:0012000012000000
#05918:00120000
#0591a:0000001200001200
#05814:0000000000000012
#0581a:1212
#05816:0000001200000000
#05818:00000012
#05718:0012120012120000
#0571a:0000000000000012
#06315:0013
#06318:0013
#06218:00130000
#06212:13
#1031a:0013000000000000
#10319:0000130000130013
#1031b:1313
#10317:00000013
#1021a:0000001300001300
#10212:14
#10215:0014
#1021b:1313
#10219:00130000
#0881a:0000001400001400
#08816:0014000000000014
#08812:00000014
#08818:0000000000130000
#08815:0013
#08716:0014000000000000
#0871a:2400002400240000
#08712:0000242400000024
#09418:0000130000130013
#09415:1300002300001300
#0941b:0023000000000000
#09315:0000001300002300
#09318:0013000023000000
#0931b:2300000000000023
#09312:2300230000000023
#09018:0000000000000013
#09012:0000001323000000
#09015:1323000000002300
#0901b:00230000
#0911b:2300000000132300
#09118:0000132300000000
#09112:23
#09116:0000000000000023
#10114:0013000000000000
#10112:00130000
#10116:1324
#10119:0000000000130013
#10117:00000013
#1011b:0013
#10014:0000001300000000
#10012:23130013
#10016:0013
#10018:13
#1001b:0000000000130000
#09919:0013000000000000
#09914:0000000000130013
#09916:00000013
#09912:0013
#0991b:00130000
#09917:13
#09819:0000001300000000
#09815:13
#09812:0000000000130000
#0981b:13130013
#09817:0013
#09714:0013000000000000
#09719:0000000000130013
#09717:00000013
#0971b:0013
#09716:00130000
#09712:13
#09614:0000001300000000
#0961b:13
#09618:0000000000130000
#09616:00130000
#09612:29001313
#07912:1300000000000013
#0791b:1300000013000013
#07918:0013001300130000
#07915:00130013
#07512:0000130000000013
#0751b:1300000013000013
#07515:0000001300001300
#07518:0013000000130000
#08016:0013000000000000
#0801b:0000001300000000
#08015:00001313
#08018:0000000000130013
#07617:0013000000000000
#07612:0000001300000000
#07618:00001313
#07615:0000000000130013
#07317:0000000000001313
#07315:1313000013000000
#07318:0000131300000000
#0731f:21
#0731a:2424
#07312:0000240000000024
#07716:0000000000001313
#07718:1313000013000000
#07715:0000131300000000
#07712:2424
#0771a:0000240000000024
#0601b:13131313
#07012:13131313
#0691b:13131313
#08412:000000000000000000130000000000000000000014000000
#08415:1323000000000000
#08416:000014
#0841a:0014
#08215:0000000000000013
#0821b:0000001323000000
#08218:1323000000002300
#08212:00230000
#08312:2300000000132300
#08315:0000132300000000
#08317:0000000000000023
#0831b:23
#0811b:2300000000132300
#08118:0000132300000000
#08116:0000000000000023
#08112:23
#04316:0014000000000000
#04318:0000001300130013
#04315:00001313
#04117:00130000
#04116:00130000000000001300000000000000
#0411a:00000024
#0401b:0000000000130000
#04012:0000000000000013
#0401a:00140000
#04016:0000001400000000
#0391b:1323001300000000
#0391a:000000000014
#03916:000014
#03912:0014
#03718:0000000000000013
#03712:1323001323002300
#0381b:2300132300132300
#03612:2300132300132300
#11118:0000000000000013
#11114:0000000000130000
#11116:0013
#11115:00130000
#11112:0013000000000000
#1111b:13131313
#11015:0000001300001300
#11012:1313
#1101b:13131313
#10914:0000000000130013
#10916:00000013
#10912:0013000013000000
#10915:00130000
#1091b:13131313
#10815:00000013
#10812:2313
#10814:0000001300000000
#10816:00130000
#1081b:23131313
#10810:41
#10715:0000000000000013
#10719:0000000000130000
#10717:0013
#10718:00130000
#1071b:0013000000000000
#10712:13131313
#10618:0000001300001300
#1061b:1313
#10612:13131313
#10519:0000000000130013
#10517:00000013
#1051b:0013000013000000
#10518:00130000
#10512:13131313
#10418:00000013
#1041b:0013
#10419:0000001300000000
#10417:00130000
#10412:24131313
#1041a:24
#01515:00001300130000000000130000130000
#01518:00000013000013000000000013001300
#0151b:1313
#01512:1313
#04812:1300130000000013
#04815:0000001300001300
#0481b:1300000000000013
#04818:0013000013000000
#0341b:1313
#03418:0013001300130000
#03412:0000000000000013
#03415:00130013
#03516:0013000013000000
#03514:00000013
#03517:0000000000000013
#03519:0000000000130000
#0351b:0000001300000000
#0301b:0000130000000013
#03012:13000013
#03018:0000001300130000
#03015:0013000013000000
#03117:0013000013000000
#03119:00000013
#03116:0000000000000013
#03114:0000000000130000
#03112:0000001300000000
#0181b:1300001300000000
#01817:00000000000000000013000000000000
#01812:1300001300000000
#01815:0013000000001300
#01818:0000130000000013
#01718:0000131300001300
#01715:1300000000130013
#01318:1300000000130013
#01315:0000131300001300
#01415:00130013
#01412:1300001300000000
#01418:0013000000130013
#0141b:1313
#09515:13
#09510:41
#04915:1300001300130013
#0491b:0013000000000000
#04918:00130013
#05012:13
#0501b:13
#05010:41
#03218:00001313
#03212:2300000013001313
#0321b:23130000
#03215:00130000
#06112:00131313
#02116:0012000012000000
#02114:0000000000000012
#02218:1200001200000000
#02214:12
#02216:00000012
#05415:0013000000001300
#0541b:00130000
#05515:0013000013000000
#05518:0000001300000000
#0551b:13
#05318:1300000023000013
#05312:00000013
#05315:0023
#05218:0000130000130000
#05215:0000000000000013
#05212:0013
#05112:26000013
#05118:2600000000130000
#05115:0000001300000000
#0511b:00130000
#03315:0000000000130013
#03318:0000001300001300
#02918:0000000000130013
#02915:0000001300001300
#0281b:2300000013001313
#02815:00001313
#02812:23130000
#02818:00130000
#02810:41
#0251b:23131313
#02316:00000012
#02318:0012000000000000
#00915:0013000000001300
#00918:1300130000000013
#0091b:0013
#00912:0000000000130000
#01118:0013000013000013
#01115:1300000000130000
#01112:00130000
#0101b:13001313
#01012:13000013
#01018:00130000
#01015:0000001300000000
#00815:00130000
#00812:2300001300001300
#00818:0013
#0081b:23000013
#00518:0013000000001300
#00515:1300130000000013
#00512:0013
#0051b:0000000000130000
#00715:0013000013000013
#00718:1300000000130000
#0071b:00130000
#00612:13001313
#0061b:13000013
#00615:00130000
#00618:0000001300000000
#00418:00130000
#0041b:2300001300001300
#00415:0013
#00412:23000013
#02412:23131313
#0201a:0000000000121200
#02016:00000012
#02018:00120000
#0191b:13131313
#01912:13131313
#01918:0000001300000013
#01915:0013000000130000
#01618:0000130000000013
#01615:0013001300001300
#0161b:2313
#01612:2313
#01215:0000130000000013
#01218:0013001300001300
#01212:2313
#0121b:2313
#01210:41
#00317:0012000000120012
#00315:0012
#0031a:12120000
#00115:00000012
#00117:0012000000120000
#00119:0012
#00114:12120000
#0021a:00000012
#00214:00000012
#00218:12121200
#00215:0000001200000000
#00212:12
#00014:00000012
#0001a:00000012
#00016:12121200
#00019:0000001200000000
#0001c:12
#08917:0000000000000023
#08912:24000023
#0891a:24
#0441b:00230023
#04412:00230000
#06818:0000002200000000
#06812:00220000
#06814:0022000000000000
#06816:22
#0661b:0000002200000000
#06619:00220000
#06617:0022000000000000
#06615:22
#06719:0000002200000000
#06713:00220000
#06715:0022000000000000
#06717:22
#0651c:0000002200000000
#0651a:00220000
#06518:0022000000000000
#06516:22
#04212:2400000000000024
#04216:0000002400240000
#0421a:00240000
#02712:0024240000000000
#0271a:0024240000000000
#08756:0024000000140014
#08752:1400005400000054
#0875a:6400001400640000
#0945b:0063004300000000
#09452:0033000000000000
#09458:00230000
#09455:23
#09352:1300530033000053
#0935b:6300430000000013
#09355:0000002300000000
#09358:0023000000000000
#0865b:00000013
#08656:00630064
#08657:00230000000000005300000000000000
#08652:00230000000000000000000000000000
#08952:00140000
#0895a:00140000
#0495b:0063004300000000
#04952:0033000000000000
#04955:23
#04958:00230000
#04852:1300530033000053
#0485b:6300430000000013
#04855:0000002300000000
#04858:0023000000000000
#05558:00000013
#05555:0013000013000000
#0545b:00130013
#05452:0013
#05355:00131300
#05358:1300000013000013
#05252:00130000
#0525b:13
#05258:0000000000130000
#03352:0000001300000000
#0335b:0013000000000000
#0295b:0000001300000000
#02952:0013000000000000
#07856:0000001400000000
#07858:0014000000000000
#07852:0000002300000000
#08357:0000000000000053
#0415a:00000064
#04157:00530000
#04156:00230000000000006300000000000000
#09156:0000000000000063
#0735a:1414
#07352:0000140000000014
#07355:0023
#07456:0000001400000000
#07454:0014000000000000
#0745b:0000002300000000
#07752:1414
#0775a:0000140000000014
#07758:0023
#04252:5400000000000054
#04256:0000006400540000
#10156:0064
#1085b:13
#10852:13
#1045a:14
#10452:14
#10052:13
#10058:53
#1005b:0000000000230000
#09652:19
#0965b:63
#09658:0000000000230000
#0325b:13
#03252:1300000000000013
#03258:0013
#03255:00130000
#05158:16
#05152:16000013
#05155:0000001300000000
#0445b:00130000
#04452:00130000
#02852:13
#0285b:1300000000000013
#02855:0013
#02858:00130000
#0255b:13
#02452:13
#00852:13
#0045b:13
#0855b:0000000000000063
#08557:0000000000530000
#0855a:64
#08556:0024000000000063
#1175b:63
#11752:0000005300000000
#11852:00530000
#11855:0000002300000000
#11352:53
#1135b:0000006300000000
#1145b:00630000
#11458:0000002300000000
#06355:0023
#06358:0023
#05956:0062
#05954:0000000000220000
#05958:00520000
#0595a:0000002200000000
#08856:0024000000000000
#0795b:63
#07958:0023000000000000
#07952:0000000000000053
#08056:0023000000000000
#0755b:0000000000000063
#07657:0023000000000000
#06252:53
#04356:0024000000000000
#0405b:0000000000630000
#04052:0000000000000053
#09855:63
#09852:0000000000230000
#10252:54
#10255:0024
#0345b:63
#03458:0023000000000000
#03452:0000000000000053
#03556:0023000000000000
#0305b:0000000000000063
#03157:0023000000000000
#0185b:0000006300000000
#01857:00000000000000000023000000000000
#01852:53
#01855:0023000000000000
#01758:0000005300000000
#01755:63
#01358:53
#01355:0000006300000000
#01455:00630000
#01452:0000002300000000
#09555:23
#05052:23
#0505b:23
#0003c0:0012000000000000
#0003b0:003200000000
#0003a0:000000000032000000000000000000000000000000000000
#000390:00220000
#0003a0:0000000000000012
#000390:000000000000000000000032
#000380:000000000000000000000000000000000000000000000032
#001370:22
#002320:0012000000000000
#002330:003200000000
#002340:000000000032000000000000000000000000000000000000
#002350:00220000
#002340:0000000000000012
#002350:000000000000000000000032
#002360:000000000000000000000000000000000000000000000032
#003370:22
#003390:00000012
#0033a0:000000000000000000000000000000000000003200000000
#0033b0:000000000032
#0033c0:0000000000000022
#004350:0013000000000000
#004340:003300000000
#004330:000000000033000000000000000000000000000000000000
#004320:00230000
#004380:0000000000000013
#004390:000000000000000000000033
#0043a0:000000000000000000000000000000000000000000000033
#0053b0:23
#0063b0:0013000000000000
#0063a0:003300000000
#006390:000000000033000000000000000000000000000000000000
#006380:00230000
#006320:0000000000000013
#006330:000000000000000000000033
#006340:000000000000000000000000000000000000000000000033
#007350:23
#0073b0:00000013
#0073a0:000000000000000000000000000000000000003300000000
#007390:000000000033
#007380:0000000000000023
#008380:0013000000000000
#008390:003300000000
#0083a0:000000000033000000000000000000000000000000000000
#0083b0:00230000
#008350:0000000000000013
#008340:000000000000000000000033
#008330:000000000000000000000000000000000000000000000033
#009320:23
#010320:0013000000000000
#010330:003300000000
#010340:000000000033000000000000000000000000000000000000
#010350:00230000
#0103b0:0000000000000013
#0103a0:000000000000000000000033
#010390:000000000000000000000000000000000000000000000033
#011380:23
#011320:00000013
#011330:000000000000000000000000000000000000003300000000
#011340:000000000033
#011350:0000000000000023
#013380:13
#0133b0:00230000
#013350:0000001300000000
#013320:0000000000230000
#014350:00132300
#014320:0000005300000000
#017350:13
#017320:00230000
#017380:0000001300000000
#0173b0:0000000000230000
#018320:13230000
#018350:0053000000000000
#0183b0:0000001300002300
#018370:00000000000000000053000000000000
#020340:12220000
#020360:0000001200220000
#0213a0:00122200
#021380:0000000000120022
#0223a0:00001222
#022340:0000000000000012
#023340:0022000000000000
#023360:00122200
#023381:00001222
#0243b1:13333333
#024391:0033003300330033
#0253b1:23
#025320:13333333
#025340:0033003300330033
#026320:23
#026350:0000000013535353535353535353535323000000000000000000000000000000
#026340:00000000000000000053005300530053005300530053005300530053005300530000000000000000000000000000000000000000000000000000000000000000
#026381:0000000000000000000000000000000013535353535353532300000000000000
#026391:00000000000000000000000000000000000000000000000000000000000000000053005300530053005300530053005300000000000000000000000000000000
#028351:0000000000000013
#029321:5323000000000000
#029380:0013000000000000
#0293b0:0000532300000000
#0303b0:1323000000000000
#030320:0000132300000000
#0303b0:0000000000000013
#031370:0053000000000000
#0313b0:0000002300000000
#032380:0000000000000013
#0333b0:5323000000000000
#033351:0013000000000000
#033321:0000532300000000
#0343b1:13230000
#034381:0053000000000000
#034321:0000000000000013
#035361:0053000000000000
#035321:0000002300000000
#0363b1:13
#036371:0000000000003333
#0373b1:00330023
#037371:0033
#038321:13
#038361:0000000000003333
#039321:0000002300000000
#040321:14
#040361:00240000
#0403b1:0000000000130000
#040371:0000000000000023
#040320:0000000000000013
#041360:00530000000000000000000000000000
#041320:00230000
#041371:00130000
#0413b1:0023
#041360:0013
#041320:00000023
#0413a1:00000014
#042361:24
#042320:14
#042360:00240000
#042360:0000001400000000
#042320:0000000000240000
#042361:0000000000140000
#0423a1:0000000000000024
#042320:0000000000000014
#043360:0054000000000000
#043320:0000002400000000
#0443b0:13230000
#044321:13230000
#044361:0000000000001333
#045321:00330023
#045361:0033
#0463b1:13
#046371:0000000000003333
#0473b1:0000002300000000
#0483b1:13230000
#048381:0053000000000000
#048320:00132300
#048350:0000005300000000
#048320:0000000000000013
#049350:53
#049320:0023000000000000
#0493b1:0013002300000000
#049381:00530000
#050321:13000000000000000000005600000000
#051321:26
#0503b0:13
#050380:00000000000000000000005600000000
#051380:26
#051380:00000013
#0523b0:23
#052351:13
#052321:00230000
#053321:13
#053351:00230000
#0533b0:00130000
#053380:0023
#054350:00130000
#054320:0023
#054381:0013
#0543b1:00000023
#0553b1:0013
#055381:00000023
#055320:00000013
#056350:23
#0563a1:1200000000322200
#056381:0000323200000000
#057341:0000120000000032
#057361:0000000032320000
#058341:22
#058341:0012
#058361:0000000000522200
#0583a1:0000000000000012
#059381:5222000000000000
#059381:00122200
#0593a1:0000005200000000
#059360:00001222
#059340:0000000000520000
#060320:13333333
#060340:0033003300330033
#061320:23
#0613b1:13333333
#061391:0033003300330033
#0623b1:23
#062320:13
#062350:00230000
#062350:0000001300000000
#063350:0053
#064320:26
#062381:0013
#063381:0053
#064381:26
#071371:12
#072321:002c
#073351:0013
#073321:00000023
#0743b1:0000001300000000
#074381:0000000000230000
#075321:13
#075351:0023000000000000
#075381:00130000
#0753b1:0000002300000000
#0753b1:0000000000000013
#076371:0053000000000000
#0763b1:0000002300000000
#077381:0013
#0773b1:00000023
#078321:0000001300000000
#078351:0000000000230000
#0793b1:13230000
#079381:0053000000000000
#079321:0000000000000013
#080361:0053000000000000
#080321:0000002300000000
#081321:13
#081361:00000023
#081361:0000000000000013
#082321:0023000000000000
#082321:00130023
#082361:0033
#0833b1:13
#083371:00000023
#083371:0000000000000013
#0843b1:0000002300000000
#0853a1:14240000
#085361:0054000000000000
#085371:0000000000130000
#0853b1:0000000000000033
#086371:00530000000000000000000000000000
#0863b1:00230000
#085360:0000000000000013
#086320:00530000000000002300000000000000
#086360:00330000
#086371:0013
#0863b1:00000023
#086360:00000014
#087320:24
#0873a1:14240000
#087361:0054000000000000
#087321:0000001400000000
#087361:0000000000240000
#0873a0:0000000000140000
#087360:0000000000000024
#087321:0000000000000014
#088361:0054000000000000
#088321:0000002400000000
#089321:14240000
#0893a0:14240000
#089370:0000000000000013
#0903b0:0023000000000000
#0903b0:00130023
#090370:0033
#091320:13
#091360:00000023
#091360:0000000000000013
#092320:0000002300000000
#0933b0:13230000
#093380:0053000000000000
#093321:00132300
#093351:0000005300000000
#093321:0000000000000013
#094351:53
#094321:0023000000000000
#0943b0:0013002300000000
#094380:00530000
#095350:13
#095320:00000000000000000000005900000000
#096320:29
#0963b1:13
#096381:0000000000530000
#0973b1:00230000
#097321:0013
#098351:33
#098321:0000000000530000
#099361:00230000
#0993b1:0013
#100381:33
#1003b1:0000000000530000
#101371:00230000
#101361:0014
#101321:00000000000000000000000000000054
#102321:34
#102351:0054
#104321:24
#104381:0000000000000013
#104391:000000000000000000000033
#1043a1:000000000000000000000000000000000000000000000033
#1053b1:23
#1063b1:0013000000000000
#1063a1:003300000000
#106391:000000000033000000000000000000000000000000000000
#106381:00230000
#106381:0000000000000013
#106391:000000000000000000000033
#1063a1:000000000000000000000000000000000000000000000033
#1073b1:23
#1073b1:00000013
#1073a1:000000000000000000000000000000000000003300000000
#107391:000000000033
#107381:0000000000000023
#108351:0000000000000013
#108341:000000000000000000000033
#108331:000000000000000000000000000000000000000000000033
#109321:23
#110321:0013000000000000
#110331:003300000000
#110341:000000000033000000000000000000000000000000000000
#110351:00230000
#110351:0000000000000013
#110341:000000000000000000000033
#110331:000000000000000000000000000000000000000000000033
#111321:23
#111321:00000013
#111331:000000000000000000000000000000000000003300000000
#111341:000000000033
#111351:0000000000000023
#113321:13
#113361:0000002300000000
#1133b0:0000001300000000
#113380:0000000000230000
#1143b0:00132300
#114380:0000005300000000
#1173b0:13
#117370:0000002300000000
#117321:0000001300000000
#117351:00000000000000000033230000000000
#118321:00132300
#118351:0000005300000000
