This file was generated by Ched 2.6.4.0.
#TITLE ""
#ARTIST ""
#DESIGNER ""
#DIFFICULTY 0
#PLAYLEVEL
#SONGID ""
#WAVE ""
#WAVEOFFSET 0
#JACKET ""
#REQUEST "ticks_per_beat 480"
#00002: 4
#BPM01: 188
#00008: 01
#TIL00: ""
#HISPEED 00
#MEASUREHS 00
#00016:12121200
#0001a:0012001200000000
#00018:00000012
#00014:0000000000000012
#00116:00001212
#00118:1200120000120000
#00114:0012000000000000
#01218:0013001300000013
#01215:00131300
#0121b:23
#01212:23
#01210:41
#01315:13000013
#01318:0000000000000013
#0131b:0000001300000000
#01412:1313
#0141b:0013000000000000
#01415:00130000
#01918:0000000000000012
#01917:00000013000000000000000000000000
#02018:00000012
#02015:0000323200000000
#06918:13130000
#06915:00001313
#07018:13130000
#07015:00001313
#00615:0000001300000000
#0061b:0000130000000013
#00612:0013000000001300
#00618:1313
#00515:1300000000130013
#00518:00001313
#00512:00130000
#0051b:0013000000000000
#00412:0013000000001300
#0041b:0013
#00415:0000001300000000
#00418:2300130000000013
#02318:00120012
#02316:0012
#02612:1300131300000000
#0261b:1300131300000000
#02812:00000013
#02818:0000000013000013
#02815:00130000
#0281b:23
#02810:41
#0301b:13
#03018:0013001300001300
#03015:0000130000130013
#03012:0013
#05916:00120012
#05918:0012
#05816:0000001200000000
#05818:12
#11215:0013000000001300
#11218:0000130000000013
#11212:2300001300000000
#1121b:2313
#07418:00000013
#07412:0000000000000013
#07414:13
#07415:0000130000130000
#07419:0024000000000000
#0741a:0000002400000000
#07410:41
#0751b:1313
#07518:0013000000130000
#07515:00130013
#07512:0000001300000013
#03112:00130000000000001300000000000000
#03115:00000013
#0311b:0000001300000013
#03118:0000000000130000
#0151b:13
#01518:0013000013000013
#01512:0000001300130000
#01515:00130013
#10412:00130013
#10418:0000001300000000
#10415:0013
#1041b:00000013
#10416:24
#10515:1300000000000013
#10518:0013000000001300
#10512:0000130000130000
#1051b:0013
#10612:13130013
#10618:13000013
#1061b:0000001300000000
#10615:0013
#10715:1300000000000013
#10712:0000130000130000
#1071b:0013000013000000
#10718:00000013
#1031a:14
#10216:14
#04116:00130000
#0411a:00000024
#04012:0000000000130000
#04017:13
#07313:00000013
#07315:0013000000000000
#07314:0000001300000000
#0731a:24
#07319:00240000
#07318:0000000024000024
#0731f:21
#08815:00140000000000001300000000000000
#0881b:0000000000130000
#08818:0000001300000013
#08812:00000013
#11312:00000013
#1131b:0000001300000013
#11315:13
#11415:13
#11418:0013000000000000
#11416:0013
#11412:00130000
#11512:0013
#11518:0000130000130000
#11515:0013000000001300
#1151b:13
#08517:13
#08512:0000000000130000
#08516:0000000000000013
#00218:12121200
#00214:0012001200000000
#00216:00000012
#0021a:0000000000000012
#00318:00001212
#00316:1200120000120012
#0031a:0012000000000000
#00715:1300130000130000
#00718:0013000013000013
#00712:00000013
#01018:0000001300000000
#01012:0000130000000013
#0101b:0013000000001300
#01015:1313
#00918:1300000000130013
#00915:00001313
#0091b:00130000
#00912:0013000000000000
#0081b:0013000000001300
#00812:0013
#00818:0000001300000000
#00815:2300130000000013
#01118:1300130000130000
#01115:0013000013000013
#0111b:00000013
#01615:0013001300000013
#01618:00131300
#01612:23
#0161b:23
#01718:13000013
#01715:0000000000000013
#01712:0000001300000000
#0181b:1300000000000013
#01812:0000001300000000
#02116:0012000000000000
#02119:0000000032320000
#02216:12
#02218:0000001200000000
#02215:0000000000003232
#02418:0000000000000013
#02415:00130000
#02412:13
#02915:0013000000130013
#0291b:0000001300000000
#02918:00000013
#0321b:00000013
#03215:0000000013000013
#03218:00130000
#03212:23
#03418:0000001300000013
#03412:0013
#0341b:0000000000130000
#03415:13000013
#0351b:00130000000000001300000000000000
#03518:00000013
#03512:0000001300000013
#03515:0000000000130000
#03318:0013000000130013
#03312:0000001300000000
#03315:00000013
#03615:00000013
#0361b:13
#03818:00000013
#04315:00000013
#0431b:0000001300000013
#04312:0013
#04318:0000000000130000
#03712:0000000000000013
#04715:0000001300130013
#04718:00001313
#0481b:1313
#04815:00130000
#04812:00000013
#04818:0000000000000013
#04912:0013000000000000
#04918:0000001300001300
#04915:0000000000130013
#05112:00130000
#05118:0000001300000000
#05115:2900000000130000
#0511b:00000013
#05215:1313
#05218:00130000
#0521b:0000000000130000
#05212:0000000000000013
#05318:13
#05315:0000130000000013
#0531b:00000013
#05312:0023
#05418:0013000013000000
#05412:00130000
#05415:00000013
#05518:13000013
#05512:0013000000000000
#0551b:0000001300000000
#05515:0013
#05516:0000000000000012
#05616:00000012
#0561f:11
#05718:0012000000000000
#06015:0000000000000013
#06018:00130000
#0601b:13
#0631b:0013
#06312:0013
#0621b:13130000
#06212:13130000
#07615:00130000000000001300000000000000
#0761b:0000000000130000
#07618:0000001300000013
#07612:00000013
#07815:00000013
#0781b:0000000000000013
#07819:13
#07818:0000130000130000
#07813:0024000000000000
#07812:0000002400000000
#07918:0000001300001300
#07912:1313
#07915:0000000000130000
#0791b:0000000000000013
#0771a:00000013
#07718:0013000000000000
#07719:0000001300000000
#07712:24
#07713:00240000
#07714:0000000024000024
#08018:00130000000000001300000000000000
#08012:0000000000130000
#08015:0000001300000013
#0801b:00000013
#08118:00130000
#0811b:2300000000000023
#08115:00000023
#08316:00000013000000000000000000000000
#08315:0000000000000023
#08318:00000023
#08412:00130000000000000000000000000000
#08612:00130000
#0861a:00000024
#08915:00130000
#08912:2300000000000023
#08918:00000023
#09117:00000013000000000000000000000000
#09118:0000000000000023
#09115:00000023
#0921b:00130000000000000000000013000000
#09212:0000000000130000
#09218:0013
#09215:0000001300000013
#04418:00000013
#04412:13
#04615:00000013
#0451b:0000000000000013
#09415:0023000000130013
#09418:0000002300001300
#09518:13
#09510:41
#09612:13
#09616:0000000000130000
#0981b:0000000000130000
#09817:13
#0971b:0013
#10012:0000000000130000
#10016:13
#09912:0013
#1081b:23130013
#10815:0000001300000000
#10818:0013
#10812:23000013
#10810:41
#10918:1300000000000013
#10915:0013000000001300
#1091b:0000130000130000
#10912:0013
#1101b:13130013
#11015:13000013
#11012:0000001300000000
#11018:0013
#11118:1300000000000013
#1111b:0000130000130000
#11112:0013000013000000
#11115:00000013
#11618:0013000000001300
#11615:0000130000000013
#1161b:2300001300000000
#11612:2313
#1171b:00000013
#11712:0000001300000013
#11718:13
#11818:13
#11815:0013000000000000
#11817:0013
#1181b:00130000
#1191b:0013
#11915:0000130000130000
#11918:0013000000001300
#11912:1300000000000013
#02719:0024240000000000
#02713:0024240000000000
#1011a:0024
#09318:23
#0931b:0000000023000023
#09312:00230023
#08712:0000240000000024
#08716:0000002400000000
#04217:0000002400000000
#04212:0000240000000024
#08212:0000000000000023
#0901b:0000000000000023
#06615:00220000
#06618:0022000000000000
#0661a:0000002200000000
#06613:22
#06516:00220000
#06519:0022000000000000
#0651b:0000002200000000
#06514:22
#06818:00220000
#06815:0022000000000000
#06813:0000002200000000
#0681a:22
#06719:00220000
#06716:0022000000000000
#06714:0000002200000000
#0671b:22
#05010:41
#00458:13
#02858:0000000013000013
#02855:00130000
#0285b:13
#05155:19
#05352:0013
#0135b:0000006300000000
#01452:0023
#01455:00630000
#03152:00230000000000000000000000000000
#03055:0000000000000063
#10456:14
#10852:13
#1085b:13
#1035a:24
#1015a:0064
#10256:54
#04156:00630000
#0415a:00000064
#04052:0000000000530000
#04057:53
#0735a:14
#07359:00140000
#07358:0000000014000014
#09358:13
#0935b:0000000013000013
#09352:00130000
#0865a:00000064
#08652:00530000
#08756:1400005400000000
#08752:0000000000000054
#0875a:0000000000140000
#08855:00240000000000000000000000000000
#1135b:0000006300000000
#08557:53
#08552:0000000000530000
#08556:0000000000000063
#00855:13
#01255:0063
#01752:0000005300000000
#01658:0053
#0185b:6300000000000063
#01852:0000005300000000
#01957:00000023000000000000000000000000
#02455:00230000
#02452:53
#0265b:0000006300000000
#02652:0000005300000000
#02955:0013000000000000
#0295b:0000001300000000
#03255:0000000013000013
#03258:00130000
#03252:13
#0355b:00230000000000000000000000000000
#03458:0000000000000053
#03455:63
#03358:0013000000000000
#03352:0000001300000000
#04257:0000005400000000
#04252:0000000000000054
#0365b:63
#03752:0000000000000053
#0485b:1313
#04855:00130000
#04858:0000000000000013
#04952:0013000000000000
#04958:0000001300000000
#06058:00230000
#0605b:63
#0635b:0023
#06352:0023
#07459:0014000000000000
#0745a:0000001400000000
#07655:00230000000000000000000000000000
#07552:0000000000000053
#08058:00230000000000000000000000000000
#0795b:0000000000000063
#07952:53
#07752:14
#07753:00140000
#07754:0000000014000014
#07853:0014000000000000
#07852:0000001400000000
#0815b:63
#08158:00230000
#08356:00000023000000000000000000000000
#08355:0000000000000063
#08252:0000000000000053
#08452:00230000000000000000000000000000
#08955:00230000
#08952:53
#09157:00000023000000000000000000000000
#09158:0000000000000053
#0925b:00230000000000000000000000000000
#0905b:0000000000000063
#04452:53
#0455b:0000000000000063
#09455:0013000000000000
#09458:0000001300000000
#09558:23
#09652:53
#09656:0000000000230000
#0985b:0000000000230000
#09857:53
#0975b:0063
#10052:0000000000230000
#10056:63
#09952:0053
#11456:0023
#11452:00530000
#11752:0000005300000000
#11857:0023
#1185b:00630000
#012350:0013
#012320:00000023
#0133b0:0000001300000000
#013380:0000000000230000
#014350:00130023
#014320:0053
#016380:0013
#0163b0:00000023
#017320:0000001300000000
#017350:0000000000230000
#0183b0:13
#018380:00230000
#018320:0000001300000000
#018350:00000023
#0183b0:0000000000000013
#019370:00000053000000000000000000000000
#0193b0:0023
#020340:12
#020350:0000323200000000
#020360:0000000000220000
#0213a0:00120000
#021390:0000000032320000
#021380:0000000000000022
#022360:0012
#022350:0000000000003232
#023340:0022000000000000
#024320:1323
#024350:00530000
#025350:13
#025320:00230000
#025380:0013
#0253b0:00000023
#026320:0000001300000000
#026350:0000000000000023
#0263b1:0000001300000000
#026381:0000000000000023
#030351:0000000000000013
#031321:00530000000000000000000000000000
#031351:00230000
#034351:13
#034321:00230000
#034381:0000000000000013
#0353b1:00530000000000000000000000000000
#035381:00230000
#0363b1:13
#036371:0023
#036381:0000000000000013
#0373b1:00330023
#037381:0033
#037321:0000000000000013
#038361:0023
#038351:0000000000000013
#039321:00230000
#0393b1:0013
#039391:000033
#039371:000000000033
#040371:33
#0403b1:0000002300000000
#040321:0000000000130000
#040361:0000000000000033
#041361:00330000
#041321:0023
#0413a1:00000014
#042371:24
#042371:0000001400000000
#0423a1:0000000000240000
#042321:0000000000000014
#043361:00240000
#044321:13
#044361:0023
#044351:0000000000000013
#045321:00330023
#045351:0033
#0453b1:0000000000000013
#046371:0023
#046381:0000000000000013
#0473b1:00230000
#050381:13
#050351:00000000000000000000005900000000
#051351:29
#056381:1200000000220000
#0563a1:0000323200000000
#057361:0000120000000022
#057341:0000000032320000
#0583a1:0012
#058381:0000000000003232
#0593a1:0022000000000000
#0603b1:1323
#060381:00530000
#0613b1:13
#061381:00230000
#061321:0013
#061351:00000023
#0623b1:0000001300000000
#0633b1:0053
#064381:26
#062320:0000001300000000
#063320:0053
#064320:26
#071360:14
#072320:002c
#075320:0000000000000013
#076350:00530000000000000000000000000000
#076320:00230000
#079320:13
#079350:00230000
#0793b0:0000000000000013
#080380:00530000000000000000000000000000
#0803b0:00230000
#0813b0:1323
#081380:00530000
#0813b0:0000000000000013
#082380:00330023
#0823b0:0033
#082320:0000000000000013
#083360:00000053000000000000000000000000
#083320:0023
#083350:0000000000000013
#084320:00530000000000000000000000000000
#084350:00230000
#0843b0:0013
#084390:000033
#084370:000000000033
#085370:33
#0853b0:0000002300000000
#085320:0000000000130000
#085360:0000000000000033
#086320:00330000
#086360:0023
#0863a0:00000014
#087360:24
#087360:0000001400000000
#0873a0:0000000000240000
#087320:0000000000000014
#088350:00540000000000000000000000000000
#088320:00240000
#089320:1323
#089350:00530000
#089320:0000000000000013
#090350:00330023
#090320:0033
#0903b0:0000000000000013
#091370:00000053000000000000000000000000
#0913b0:0023
#091380:0000000000000013
#0923b0:00530000000000000000000000000000
#092380:00230000
#095380:13
#095350:00000029
#096320:13
#096360:0000000000530000
#097320:00230000
#0973b0:0013
#098370:33
#0983b0:0000000000530000
#099370:00230000
#099320:0013
#100360:33
#100320:0000000000530000
#101360:00230000
#1013a0:0014
#102360:34
#1033a0:54
#104360:24
#1133b0:0000001300000000
#113380:0000000000230000
#114320:00130023
#114360:0053
#117320:0000001300000000
#117350:0000000000230000
#1183b0:00130023
#118370:0053
