This file was generated by Ched 2.6.4.0.
#TITLE ""
#ARTIST ""
#DESIGNER ""
#DIFFICULTY 0
#PLAYLEVEL
#SONGID ""
#WAVE ""
#WAVEOFFSET 0
#JACKET ""
#REQUEST "ticks_per_beat 480"
#00002: 4
#BPM01: 188
#00008: 01
#TIL00: ""
#HISPEED 00
#MEASUREHS 00
#00018:14
#00014:00000014
#00214:14
#00218:00000014
#0041a:1414
#00412:00000014
#00414:00140000
#0051a:0014
#00512:00140000
#00518:14
#0121a:1414
#01214:00140014
#01210:41
#01318:1414
#01312:00140014
#01512:00140000
#01518:1414
#07018:1414
#07014:00140014
#11214:14
#11218:00140000
#11212:0014
#1121a:00000014
#11512:14
#11518:00140000
#11514:0014
#11912:00000014
#1191a:14
#11914:00140000
#11918:0014
#00118:0014
#00314:0014
#00612:1414
#0061a:00000014
#00618:00140000
#00712:0014
#0071a:00140000
#00714:14
#00818:1414
#00814:00000014
#00812:00140000
#00918:0014
#00914:00140000
#0091a:14
#01014:1414
#01018:00000014
#0101a:00140000
#01114:0014
#01118:00140000
#01112:14
#01414:00140014
#0141a:1414
#01612:1414
#01618:00140014
#01714:1414
#0171a:00140014
#0191a:00140000
#01914:1414
#01818:00140014
#01812:1414
#02812:00140000
#02818:0014
#02814:00000014
#0281a:24
#02810:41
#0291a:14
#02912:00140000
#02918:0014
#02914:00000014
#0301a:14
#03014:00140000
#03018:0014
#03012:00000014
#0321a:00140000
#03214:0014
#03218:00000014
#03212:24
#03312:14
#0331a:00140000
#03314:0014
#03318:00000014
#03412:14
#03418:00140000
#03414:0014
#0341a:00000014
#04714:00000014
#04718:0014
#0651a:14
#06618:14
#06714:14
#06812:14
#02412:14
#02414:0000001400000000
#0251a:14
#02518:0000001400000000
#02612:14
#02615:00000000000000140000000000000000
#03118:14
#0311a:00140000
#03514:14
#03512:00140000
#0361a:14
#0601a:14
#06018:0000001400000000
#06112:14
#06114:0000001400000000
#0621a:14
#06217:0014
#0631a:14
#0691a:1414
#06912:00140014
#07118:14
#10412:14
#1041a:00000014
#10418:00140000
#10414:0014
#10512:0014
#10518:00140000
#10514:14
#1061a:14
#10612:00000014
#10614:00140000
#10618:0014
#1071a:0014
#10714:00140000
#10718:14
#10814:14
#10818:00000014
#1081a:00140000
#10812:0014
#10810:41
#10914:0014
#1091a:00140000
#10912:14
#11018:14
#11014:00000014
#11012:00140000
#1101a:0014
#11118:0014
#11112:00140000
#1111a:14
#10215:00000016
#10218:16
#09612:14
#09616:0000000000140000
#0981a:14
#09816:0000000000140000
#10012:14
#10016:0000000000140000
#1131a:00000014
#11312:14
#11318:00140000
#11314:0014
#11414:14
#11418:00140000
#11412:0014
#1141a:00000014
#11618:14
#11614:00140000
#1161a:0014
#11612:00000014
#11712:00000014
#1171a:14
#11714:00140000
#11718:0014
#11818:14
#11814:00140000
#1181a:0014
#11812:00000014
#03714:1414
#03718:00140014
#04314:00000014
#04318:0014
#03814:14
#0441a:14
#04514:1414
#04518:00140014
#04614:14
#07316:00140000
#0731a:0014
#07314:00000014
#07312:24
#0731f:21
#0741a:14
#07416:00140000
#07412:0014
#07418:00000014
#07410:41
#07514:14
#0751a:00140000
#07512:0014
#07518:00000014
#07716:00140000
#07712:0014
#07718:00000014
#0771a:24
#07812:14
#07816:00140000
#0781a:0014
#07814:00000014
#07918:14
#07912:00140000
#0791a:0014
#07914:00000014
#08018:00140000
#0801a:14
#07614:00140000
#07612:14
#0911a:0000001400000000
#09118:14
#08114:0000001400000000
#08112:14
#09216:00000014
#09212:0014
#08218:1414
#08214:00140014
#08914:0000001400000000
#08912:14
#0831a:0000001400000000
#08318:14
#08814:0014
#08818:00000014
#09018:1414
#09014:00140014
#09414:00000014
#0941a:0014
#09416:00140000
#09412:14
#09318:00000014
#09312:0014
#09316:00140000
#0931a:24
#04812:00140000
#04818:0014
#04814:00000014
#0481a:24
#0491a:14
#04912:00140000
#04918:0014
#04914:00000014
#0561f:11
#10118:0026
#04118:00340000
#08612:00340000
#09510:41
#05010:41
#02452:54
#02454:0000002400000000
#0255a:64
#02558:0000002400000000
#02652:54
#02655:00000000000000240000000000000000
#03158:54
#0315a:00240000
#03554:64
#03552:00240000
#0365a:64
#0605a:64
#06058:0000002400000000
#06152:54
#06154:0000002400000000
#0625a:64
#06257:0024
#0635a:64
#10255:00000026
#10258:66
#09652:54
#09656:0000000000240000
#0985a:64
#09856:0000000000240000
#10052:54
#10056:0000000000240000
#02752:00140000
#06456:14
#03854:64
#0445a:64
#04654:64
#08058:00240000
#0805a:64
#07654:00240000
#07652:54
#0915a:0000002400000000
#09158:54
#08154:0000002400000000
#08152:54
#08954:0000002400000000
#08952:54
#0835a:0000002400000000
#08358:54
#0203a0:14
#020390:0000003400000000
#020380:00000024
#021320:00140000
#021330:0000000000340000
#022340:24
#0223a0:0014
#022390:0000000000000034
#023380:00340000
#023390:0034
#0233a0:00000024
#024320:14000024
#024340:0000005400000000
#0253a0:14000024
#025380:0000005400000000
#026320:1400000000000034
#026350:00000000000000540000000000000000
#027320:0034240000000000
#031380:1424
#0313a0:00540000
#035340:1424
#035320:00540000
#0363a0:14
#036380:00000024
#038340:14
#038320:0000000000003434
#039320:00240000
#0393a0:0014
#040380:34
#0403a0:0000000000340034
#041380:00342400
#041340:00000014
#042340:34
#042320:0000003400000034
#043340:00240000
#0443a0:14
#044380:00000024
#046340:14
#046320:0000000000003434
#047320:00240000
#050380:14000024
#051320:14
#051330:0000003400000000
#051340:00000034
#052340:24
#0523a0:00140000
#052390:0000000000340000
#053380:34240000
#053340:0014
#053330:0000000000000034
#054320:00342400
#054380:00000014
#055390:0034000000000000
#0553a0:00003424
#056320:14
#056330:0000003400000000
#056340:00000024
#0573a0:00140000
#057390:0000000000340000
#058380:24
#058320:0014
#058330:0000000000000034
#059340:00340000
#059330:0034
#059320:00000024
#0603a0:14000024
#060380:0000005400000000
#061320:14000024
#061340:0000005400000000
#0623a0:14
#062370:0054
#0633a0:34
#064360:24
#076320:1424
#076340:00540000
#0803a0:1424
#080380:00540000
#081320:14000024
#081340:0000005400000000
#083380:1400000000003434
#0833a0:0000005400000000
#084380:00240000
#084340:0014
#085320:34
#085340:0000000000340034
#086320:00342400
#0863a0:00000014
#0873a0:34
#087380:0000003400000034
#0883a0:00240000
#089320:14000024
#089340:0000005400000000
#091380:1400000000003434
#0913a0:0000005400000000
#092380:00240000
#095380:14000024
#096320:14
#096360:0000000000540000
#097320:00240000
#0973a0:0014
#0983a0:34
#098360:0000000000540000
#0993a0:00240000
#099320:0014
#100320:34
#100360:0000000000540000
#101320:00240000
#101380:0016
#102380:36
#102350:00000056
#103380:0026
