This file was generated by Ched 2.7.0.0.
#TITLE ""
#ARTIST ""
#DESIGNER ""
#DIFFICULTY 0
#PLAYLEVEL
#SONGID ""
#WAVE ""
#WAVEOFFSET 0
#JACKET ""
#REQUEST "ticks_per_beat 480"
#00002: 4
#BPM01: 148
#00008: 01
#TIL00: ""
#HISPEED 00
#MEASUREHS 00
#0011a:14
#00214:14
#00318:14
#00412:14
#0051a:14
#00614:14
#00718:14
#00812:14
#00918:14
#01014:14
#01118:14
#01214:14
#0131a:14
#01310:41
#01414:14
#01518:14
#01612:14
#01718:14
#01814:14
#01918:14
#02014:14
#02912:0016
#03018:16
#03012:0016
#03318:1616
#03412:1616
#03718:0016
#03812:16
#03818:0016
#04112:1616
#04218:1616
#04518:0016
#04512:26
#04510:41
#04612:16
#04618:0016
#04712:16
#05112:14
#05218:14
#05314:14
#0541a:14
#05512:14
#0551f:00110000
#05618:14
#05714:14
#0581a:14
#06718:16
#06712:0016
#06710:0000004100000000
#06818:16
#07012:0016
#07112:16
#07118:0016
#07218:16
#07518:16
#07512:0016
#07618:16
#07612:0016
#07812:0016
#07810:41
#07918:16
#07912:0016
#08018:16
#0821a:0014
#08314:0014
#02818:0026
#06612:26
#0661f:0000002100000000
#07412:0026
#02210:0000000000000041
#03210:0000000000000041
#0213a0:14
#0223a0:24
#023340:14
#024340:24
#025380:14
#026380:24
#027320:14000000000000003400003400003400
#028320:0034240000000000
#028380:0000000016363626
#031380:1626
#032320:1626
#035380:1626
#036320:1600000036363626
#039320:1626
#040380:1626
#043320:1626
#044380:1626
#047380:0000000016000036
#048380:0000003600003600
#050380:26
#059320:14
#060340:34
#061320:34
#062340:34
#063320:34
#064320:24
#0653a0:1424
#066320:1636362600000000
#068320:0016
#069320:26
#069380:0016
#070380:26
#072320:0016
#073320:26
#073380:0016
#074380:26
#077380:1636
#078380:26
#080320:00001636
#081320:3600363600000000
#082320:26
#084380:0014
#085380:0000003400000000
#086380:0034343400003400
#087380:0034342400000000
