This file was generated by Ched 2.7.0.0.
#TITLE ""
#ARTIST ""
#DESIGNER ""
#DIFFICULTY 0
#PLAYLEVEL
#SONGID ""
#WAVE ""
#WAVEOFFSET 0
#JACKET ""
#REQUEST "ticks_per_beat 480"
#00002: 4
#BPM01: 148
#00008: 01
#TIL00: ""
#HISPEED 00
#MEASUREHS 00
#00018:0000000014142600
#00014:00000000000000000014001400000000
#08713:0014140000000000
#08719:0014140000000000
#08712:0000002600000000
#08718:0000002600000000
#0011b:00130000
#00112:26000000130000000000001300000000
#00115:00000000000013001300000000130000
#00118:00000000000000130013000000000000
#00318:00001300000013001300000000140000
#00315:00000000000000130013000000000000
#00312:16130000
#0031b:00000000130000000000001300000000
#00416:00000014
#0041a:0014001400240024
#00414:00000014000000140000000000000000
#00418:00141400
#00412:00000000001400000000240000002400
#00218:00000000000000000000001300001300
#00215:00000000000000000000000000130000
#00212:0013
#01212:0000001300000000
#01215:00000000000000001300000000130013
#01218:0000000000130000
#0121b:0000000000001313
#02015:0000002300001300
#02018:0000002300130000
#02012:1300000000000014
#0201a:0000000000000014
#0201b:13
#0211b:0013000013000013
#02118:00130013
#02115:0000001300130000
#02112:0000000013000013
#02212:0013000000000014
#02216:00130000
#0221a:0000000000000014
#02217:1300001300000000
#02218:00000013
#02215:0000000000130000
#02210:0000000000000041
#02412:0000000000130013
#02415:00000013
#02418:0000000000000013
#0241b:0013000000000000
#02417:00130000
#02416:1300001300000000
#02519:0013000000130000
#0251a:00131300
#0251b:0000001300000000
#02518:00000013
#02516:0000001300000000
#02517:0000000000000013
#02612:0013000000000013
#02613:00130013
#02614:0000001300130000
#02615:0013
#0261b:0000001300000000
#0131b:13130000
#01318:00000000000000000000001300001300
#01315:00000013
#01317:0013
#01312:0013
#01316:00130000
#01310:41
#02716:0013000024000000
#0271b:0013000000000000
#02712:0000130000000024
#02717:00130000
#0271a:00000000000000000000002400000000
#02916:00140000000014000000000013000000
#0291b:00000013
#02912:0000240000000013
#02917:0000000000000013
#0291a:0024
#03012:0013000000000013
#03016:0000130000130000
#0301b:0000130000130000
#03017:0013000000000013
#03019:00000013
#03014:00000013
#0311a:00140000
#03117:0013000000000013
#03112:0013000014000013
#03116:1300001400141300
#0311b:13000013
#03216:0013001300000000
#03212:0000130013000023
#03215:0000000000130000
#03218:00000013
#0321b:0000000000000023
#03210:0000000000000041
#03512:0000140000000013
#0351a:00140000
#0351b:0013
#03518:0000000000130000
#03515:00000013
#03517:0000000000000013
#03616:0013130000000000
#03618:00000013
#03615:00000000000000000000000000130000
#03612:0000000013130024
#0361b:0000000013130000
#0361a:0000000000000024
#04312:0000140013000013
#0431b:0000000000000013
#0431a:00140000
#04315:0000000000130000
#04318:00000013
#04413:0000000000001414
#04412:00001400000000000000140000140000
#04414:00000000000000000000000000000014
#04419:0000000014140000
#0441a:00000000000014000014000000001400
#04418:00000000000000000000001400000000
#04416:00140000
#04415:0014
#0471b:0000130000000023
#04718:0000000000130000
#04715:00001313
#04712:0000130000000023
#04812:00000000000023000000130000160000
#04813:0000000000002616
#04814:00000000000000000000000000000016
#0481b:0000132300002300
#05012:1313130000001400
#0501b:1313130000000000
#05018:0000001300130000
#05015:00000000000000130013000000000000
#0501a:00000014
#0511b:1300001300000013
#05112:1300000013000013
#05115:0000130000130000
#05118:00130013
#05215:0013000000130000
#05212:0000130013000013
#05218:1300001300001300
#0521b:0000130013000013
#05712:0013130013000013
#0571b:0000130000000013
#05715:0000000000130000
#05718:00000013
#05812:00130013
#05817:00000013
#0581b:0013130013000013
#05816:0000000000000013
#0561b:0000130013000013
#05612:0000130013000013
#05618:0013000000130000
#05615:1300001300001300
#05912:0013000000130000
#05916:0000001300000013
#05914:00130000
#05919:00000013
#05917:0013000000000000
#0591b:0000001300000023
#06014:0000131300000000
#0601b:0013000000000013
#06019:0000131300000000
#06012:0013
#06015:0000000000130013
#06018:00000013
#0611b:0000000000130013
#06118:0000001300001300
#06115:0000130000000013
#06112:0013001300000000
#0621b:0000000000130000
#06218:0013001300001300
#06215:0000130000000013
#06212:0000001300000000
#0631b:0013000000001300
#06319:0000130000130000
#06317:0000001313000013
#06412:0013001300000000
#06415:00130000
#06417:0000001300000000
#0641b:0000000000130013
#06418:00000013
#06416:0000000000000013
#06512:0013001300000000
#0651b:0000131300000000
#03312:0013230000130000
#03319:00000013
#0331b:0000000000000013
#03316:0000000013000013
#03317:0000230000130000
#03314:00000013
#07712:0000001300130013
#0771b:00130000
#07717:0000001300000013
#07716:00130000
#07719:00000013
#07812:14
#07816:0014001400001300
#0781a:00140000
#0781b:00000013
#07810:41
#0861a:0024002400140000
#08614:1400000000140000
#08616:00140000
#08612:0024002400002400
#08618:00000024
#0451b:00130013
#04516:00130000
#04517:1413
#04512:0013
#04519:0000000000000013
#04514:0000000000000013
#04510:41
#04612:13
#04619:0013001300001300
#0461b:0000130000000013
#04614:0013001300000000
#04617:0000000000130000
#04912:00160000001600000016000000000000
#04913:1616161616160000
#04914:00000016000000160000001600000000
#01918:0000000000130013
#01915:0013000000001313
#01912:00131300
#0191b:00131300
#02312:0013000013000013
#02315:00130013
#02318:0000001300130000
#0231b:0000000013000013
#01112:0000130000000013
#0111b:0000130000000013
#01115:00001313
#01118:0000000000130000
#0531b:00001300130000000000001300000000
#05318:0013
#05315:00000000000000000013000000000000
#05312:00000000000000000000001300000000
#05412:0013000000001300
#0541b:00001300000000000013000000001300
#05418:00000000130013000000001300000000
#05415:00000000001300130000130000000000
#05416:0000000000000013
#05517:13
#05518:0000130000130000
#0551b:0000000013000013
#05515:00130013
#05512:0000001300000013
#0551f:00110000
#0721a:00000014
#07212:00000014
#0721b:0013001300000000
#07217:00130000
#00715:00130000
#00718:00130000
#00712:00000013
#00716:0000000000000013
#0071b:0000000000000013
#00717:00000013
#00617:0000000000000013
#00612:1300000000000013
#00619:00000013
#00616:0000000000130000
#00618:0013001300000000
#00615:00130000
#0061b:13
#00614:00000013
#00912:1313
#0091b:13000000130000000000001300000000
#00914:0000000000000013
#00916:00130013
#00917:0013
#00815:0000001300130013
#00818:00130013
#0081b:0013000013000000
#00812:0013
#00515:00000000000000000000001300001300
#00518:00000013
#00516:0013
#0051b:0013
#00512:00130000
#00517:00130000
#07615:00000013
#07618:00000013
#07614:00130000
#07612:0000001300000000
#07616:0013000000000000
#08212:00130013
#0821b:00130013
#08218:0000000026000013
#08215:00000000000000000000000000000013
#08216:0014000000000000
#08213:13
#0821a:13
#08415:00000013000013000000130000001300
#08418:00000000001300001600000000000013
#0841b:13000013
#08412:00000013
#08318:13000000001300000000000000000000
#0831b:00000013000000000000000000000000
#08315:00130000000000000000000000000000
#08515:13
#08512:00000013000000000000140000001400
#08518:00130000000000000000001400000014
#08514:00000000001400000000000014000000
#0851a:00000000000000000000000000140000
#07912:1300001300130013
#07917:13
#07915:00130013
#07918:00000013000000001300000000000000
#0791b:0000001300130013
#0801b:0000001300131300
#08018:00000000130000000000000000000013
#08015:1313000000000000
#08012:0000000000131300
#08115:1300131300000000
#08118:0013001300000000
#08114:00000013
#08119:00000013
#08116:0000000000000014
#08112:0013000000000000
#0811b:00130000
#01016:0000000000000013
#0101b:1300001300000013
#01014:00000013
#01012:1300000000130000
#01018:00130000
#01015:0013000000000000
#01019:00000013
#01518:00130000
#01515:00130000
#0151b:00000013
#01517:0000000000000013
#01512:0000000000000013
#01516:00000013
#01416:0000000000000013
#0141b:1300000000000013
#01414:00000013
#01417:0000000000130000
#01415:0013001300000000
#01418:00130000
#01412:13
#01419:00000013
#0171b:1313
#01712:13000000130000000000001300000000
#01719:0000000000000013
#01717:00130013
#01716:0013
#01618:0000001300130013
#01615:00130013
#01612:0013000013000000
#0161b:0013
#01817:0000000000000013
#01812:1300001300000013
#01819:00000013
#0181b:1300000000130000
#01815:00130000
#01818:0013000000000000
#01814:00000013
#02815:0000000013131300
#02818:00000000000000000013001300130000
#02812:0024240000000024
#0281a:0024240000000024
#03412:0013001300000000
#03416:00130000
#0341b:0000000000130013
#03417:00000013
#03716:00140000000014000000000000001300
#03712:00002413
#0371b:0000000000000013
#03717:00000013
#0371a:00240000
#0381b:0013000000000013
#03817:0000130000130000
#03812:0000130000130000
#03816:0013000000000013
#03814:00000013
#03819:00000013
#03912:13140013
#03916:0013001400140013
#0391a:0014
#03917:13000013
#0391b:0013000000000013
#04017:0013001300000000
#0401b:0000130013000023
#04018:0000000000130000
#04015:00000013
#04012:0000000000000023
#0411b:0013230000130000
#04114:00000013
#04112:0000000000000013
#04117:0000000013000013
#04116:0000230000130000
#04119:00000013
#0421b:0013001300000000
#04217:00130000
#04212:0000000000130013
#04216:00000013
#06615:00130000
#06618:00000000001300000000000000000000
#0661b:1313000000000000
#06612:1313002400002400
#06616:00000000000000000014000000001400
#0661a:0000002400000000
#0661f:0000002100000000
#06712:0000001300130000
#06716:00130013
#0671b:00130013
#06717:0000001300130000
#0671a:24
#06710:0000004100000000
#0681a:00000014
#06817:0000001300130000
#06816:0013000013000014
#0681b:0013000013000000
#06819:00130000
#06814:00130000
#06812:0000001300130000
#06912:1400001300001300
#06916:0014130000130013
#0691b:00130000
#06917:0000001300000000
#07012:1300002300132300
#07015:0013000000000000
#07018:00130000
#07017:00000023
#0701b:0000002300000000
#07112:0013000000130013
#07119:00130000
#0711b:0000001300000000
#07117:0013000000000000
#07114:00130000
#07116:2300001300001300
#07419:0000141400000000
#0741a:00001400001400000000000000000000
#07418:00000000000000140000000000000000
#07412:00140000000014000000000013000000
#07417:14000013
#07413:1414000000000000
#07414:00000014000000000000000000000000
#07415:0014
#07516:13
#0751b:1313
#07512:00130013
#07514:0000001300130013
#07519:0000001300130013
#07312:0000001300000014
#07316:00000014
#0731a:0000000000140000
#0731b:1300001300000000
#07318:0013000000000000
#07315:00130000
#00352:16
#00355:00000000000000000053000000000000
#02052:2300000000000014
#02055:0000001300000000
#02058:0000001300000000
#0205b:23
#0205a:0000000000000014
#02252:0053000000000014
#02256:00230000
#02257:23
#0225a:0000000000000014
#0135b:13
#02757:00530000
#02756:0014
#0275a:00000000000000000000001400000000
#02752:0000000000000014
#02956:00240000000024000000000000000000
#02952:00543400
#0295a:00440000
#03052:0053001300000000
#03056:00230000
#0305b:00230000
#03057:0000001300000000
#0315a:00140000
#03152:0000000014000013
#03157:0000000000000013
#03557:0000000000000053
#03656:00130000
#0365b:00130000
#0365a:0000000000000044
#03652:0000000000000064
#04453:0000000000006464
#04452:00000000000000000000000000240000
#04454:00000000000000000000000000000024
#04459:0000000054540000
#0445a:00000000000000000024000000000000
#04458:00000000000000000000002400000000
#05052:00000014
#0505a:00000014
#0565b:0000000000000063
#05655:23
#0605b:0000000000000013
#06155:0000000000000013
#06158:0000001300000000
#06255:0000000000000053
#06252:0000001300000000
#06357:0000000000000053
#06452:0000005300000000
#0645b:0000000000000063
#06552:0000005300000000
#0655b:0000006300000000
#06555:00000013
#06558:00000013
#07852:14
#07856:0014001400000000
#0785a:00140000
#00058:00000016
#00152:16
#00158:00000000000000000053000000000000
#00452:0000000000000014
#0045a:0000000000000014
#0285a:0000140000000054
#02852:0000140000000034
#0485b:0000006300001300
#04852:00000000000013000000000000260000
#04853:0000000000005656
#04854:00000000000000000000000000000026
#03252:0000000013000013
#0325b:0000000000000053
#03257:0013
#08258:0016
#08652:0000001400001400
#08658:00000014
#0865a:0000001400000000
#08752:0000001600000000
#08758:0000001600000000
#04553:14
#04557:14
#04556:00530000
#04552:0053
#01958:0000000000000053
#01955:0000000000000063
#0215b:0000000000000063
#0335b:0000000013000013
#03352:00130000
#03357:00530000
#01152:0000000000000053
#0115b:0000000000000063
#0465b:0000000000000013
#04656:0000000000000013
#04752:0000000000000063
#0475b:0000000000000013
#05356:00130000
#0535b:00000000130000000000006300000000
#05352:00000000000000000000005300000000
#05355:0000000000000013
#05358:0000000000000013
#05752:0000000000000053
#0575b:00630000
#05852:00530000
#05856:0000000000000013
#0585b:0000000000000013
#00752:0013
#0075b:0013
#00755:00530000
#00758:00630000
#00756:0000000000000053
#00952:13
#0095b:13
#00658:0000005300000000
#07655:00000053
#07658:00000063
#07652:0000001300000000
#07657:0000001300000000
#07757:0000006300000000
#07752:13
#0775b:13
#08458:0016
#0845b:53
#08055:0063000000000000
#08052:0000001300000000
#0795b:0000000000000023
#08155:0000005300000000
#08158:0000006300000000
#0105b:0000006300000000
#01558:00630000
#01555:00530000
#01557:0000000000000063
#0155b:0013
#01552:0013
#0175b:13
#01752:13
#01455:0000006300000000
#01852:0000005300000000
#0245b:0063000000000000
#02457:00230000
#02456:23
#02452:0000000000000053
#02352:0000000000000053
#02556:0000002300000000
#02557:0000000000000053
#0265b:0000002300000000
#03452:0000001300000000
#03457:0000001300000000
#0345b:0000000000000013
#03456:0000000000000013
#03756:00240000000024000000000000000000
#0375a:00644400
#03752:00340000
#0385b:0063001300000000
#03857:00230000
#03852:00230000
#03856:0000001300000000
#03952:00140000
#0395a:0014
#03956:0000000000000013
#0395b:0000000000000013
#0405b:0000000013000013
#04056:0013
#04052:0000000000000063
#04152:0000000013000013
#0415b:00130000
#04156:00630000
#0425b:0000001300000000
#04252:0000000000000013
#04256:0000001300000000
#04257:0000000000000013
#0435b:0000000000000013
#04352:0000000000000013
#05252:0000000000000053
#05258:23
#05158:00530000
#0515b:0000002300000053
#05456:0000000000000023
#05452:00000053
#05557:13
#05555:00630000
#05552:0000002300000063
#0595b:0000005300000013
#05956:0000000000000053
#06656:00000000000000000024000000002400
#06652:0000003400005400
#0665a:0000005400004400
#06752:3400000000530013
#06756:00000023
#0675b:00000023
#06757:0000000000000013
#0685a:00000014
#06952:1400001300000000
#06957:0000001300000000
#07052:1300001300001300
#07057:13000053
#0705b:0000005300000000
#0715b:1300001300000000
#07152:0000000000000013
#07157:0000000000000013
#0725b:0000001300000000
#07256:0000001300000000
#07459:0000545414000000
#0745a:00000000002400000000000000000000
#07458:00000000000000240000000000000000
#07457:00000063
#07453:6464000000000000
#07452:00240000000000000000000000000000
#07454:00000024000000000000000000000000
#07455:0014
#0755b:63
#0735b:0000001300000000
#07352:0000001300000000
#00252:0053
#08355:00530000000000000000000000000000
#08558:00530000000000000000000000000000
#04953:5656565656560000
#04952:00260000002600000026000000000000
#04954:00000026000000260000002600000000
#001380:00000000000000000013000000000000
#0013b0:00000000000000000000002300000000
#001380:0000000000000013
#002380:23
#002321:1323000000000000
#002380:0013230000000000
#002351:0000132300000000
#0023b0:0000001323000000
#002321:0013
#002351:00000000000000000000002300000000
#003351:00000000000000000013000000000000
#003321:00000000000000000000002300000000
#003341:0000000000000014
#004341:0024000000000000
#006381:0000001300000000
#0063b1:0000000000230000
#007351:00130000
#007321:0023
#007380:00130000
#0073b0:0023
#007360:0000000000000013
#008320:0023000000000000
#0103b0:0000001300000000
#010370:0000000000230000
#011320:0000000000000013
#012350:00230000
#0113b1:0000000000000013
#012381:00230000
#014351:0000001300000000
#014321:0000000000230000
#015381:00130000
#0153b1:0023
#015350:00130000
#015320:0023
#015370:0000000000000013
#0163b0:0023000000000000
#018320:0000001300000000
#018360:0000000000230000
#019380:0000000000000013
#0203b0:53
#020380:0033002300000000
#019351:0000000000000013
#020321:53
#020351:0033002300000000
#0213b1:0000000000000013
#022371:53
#0223b1:0023000000000000
#022320:0013002300000000
#022360:00530000
#023320:0000000000000013
#024360:53
#024320:0023000000000000
#0243b1:0013002300000000
#024371:00530000
#024321:0000000000000013
#025361:0000005300000000
#025321:0000000000000023
#025370:0000000000000013
#0263b0:0000005300000000
#026370:0000000000000023
#027370:00130000
#0273b0:0023
#0283a0:0000000000000014
#029360:00540000000000000000000000000000
#0293a0:00240000
#029321:00142400
#029361:0000005400000000
#030321:0013002300000000
#030361:00330000
#0303b0:00130000
#030370:0000002300000000
#0323b0:0013003300000000
#032370:00332300
#0323b0:0000000000000013
#033370:0023000000000000
#033370:00130000
#0333b0:0023
#034370:0013002300000000
#0343b0:00330000
#034360:0000000000130023
#034320:00000033
#035370:0000000000000013
#0363b0:00230000
#036320:0000000000000014
#037360:00540000000000000000000000000000
#037320:00240000
#0373a1:00142400
#037361:0000005400000000
#0383b1:0013002300000000
#038371:00330000
#038320:00130000
#038360:0000002300000000
#040320:0013003300000000
#040360:00332300
#040320:0000000000000013
#041360:0023000000000000
#041360:00130000
#041320:0023
#042360:0013002300000000
#042320:00330000
#042370:0000000000130023
#0423b0:00000033
#044390:0000000014542400
#0443a0:00000000000000000054000000000000
#044380:00000000000000000000005400000000
#044331:0000000000001454
#044321:00000000000000000000000000540000
#044341:00000000000000000000000000000054
#045331:24
#045361:00130023
#045321:0033
#046321:0000000000130000
#046341:00000033
#046361:0000000000000023
#047321:0000000000000013
#048361:00230000
#0483b1:0000001300000000
#048371:0000000000230000
#048331:0000000000001656
#048321:00000000000000000000000000560000
#048341:00000000000000000000000000000056
#049331:5656565656562600
#049321:00560000005600000056000000000000
#049341:00000056000000560000005600000000
#051381:00132300
#0513b1:0000005300000000
#0513b1:0000000000000013
#052381:53
#0523b1:0023000000000000
#052321:0000000000000013
#053361:0033230000000000
#053321:00000000000000000000001300000000
#053351:0000000000000023
#0533b0:00000000000000000000001300000000
#053380:0000000000000023
#054320:00000013
#054360:0000000000000033
#055320:23
#055350:00132300
#055320:0000005300000000
#055320:0000000000000013
#056350:53
#056320:0023000000000000
#0563b0:0000000000000013
#057370:0023000000000000
#0573b0:00130000
#057370:0023
#057320:0000000000000013
#058360:0023000000000000
#058320:00130000
#058360:0023
#0593b0:0000001300000000
#059370:0000000000230000
#059360:0000000000000013
#060320:0023000000000000
#062350:0000000000000013
#063320:0000000000000023
#063371:0000000000000013
#0643b1:0023000000000000
#064321:0000001300000000
#064361:0000000000230000
#0643b1:0000000000000013
#065371:0023000000000000
#065321:0000001300000000
#065351:00000023
#0653b0:0000001300000000
#065380:00000023
#0663a0:0000001400002400
#066360:00000000000000000054000000000000
#066321:00000014
#066361:0000000000000054
#067321:24
#067321:0000000000130023
#067361:00000033
#0673b0:00000013
#067370:0000000000000023
#0693b0:0000000000130033
#069370:00000033
#070370:23
#0703b0:0000001300000000
#070370:0000000000230000
#070370:00000013
#0713b0:23
#071370:0000000000130023
#0713b0:00000033
#072360:0013002300000000
#072320:00330000
#074330:1454240000000000
#074320:00540000000000000000000000000000
#074340:00000054000000000000000000000000
#074391:0000145424000000
#0743a1:00000000005400000000000000000000
#074381:00000000000000540000000000000000
#074371:00000013
#0753b1:33
#075371:00230000
#0763b1:0013000000000000
#076391:00330000
#076371:0000002300000000
#076351:00000013
#077321:23
#076380:00000013
#0773b0:23
#077370:0000001300000000
#0773b0:0000000000230000
#0793b0:0000000000000013
#080380:0023000000000000
#080351:0013000000000000
#080321:0000002300000000
#081351:0000001300000000
#081321:0000000000230000
#081380:0000001300000000
#0813b0:0000000000230000
#083350:00130000000000000000000000000000
#083320:00000023000000000000000000000000
#083350:0000001323000000
#0833b1:0000000013230000
#083350:0000000000132300
#083381:0000000000001323
#083320:0000000000000013
#084320:23
#0843b1:13
#084381:00000023000000000000000000000000
#085381:00130000000000000000000000000000
#0853b1:00000023000000000000000000000000
#085381:0000001400240000
