This file was generated by Ched 2.6.4.0.
#TITLE ""
#ARTIST ""
#DESIGNER ""
#DIFFICULTY 0
#PLAYLEVEL
#SONGID ""
#WAVE ""
#WAVEOFFSET 0
#JACKET ""
#REQUEST "ticks_per_beat 480"
#00002: 4
#BPM01: 148
#00008: 01
#TIL00: ""
#HISPEED 00
#MEASUREHS 00
#08716:0014140000000000
#08712:0000002400000000
#0871a:0000002400000000
#00118:0000141400000000
#00112:2414
#00114:00000000000000000000001400000000
#00518:0000130000000013
#00512:00130013
#0051b:0013
#00515:0013
#00612:13000013
#0061b:0013001300000000
#00615:00130000
#00618:0000000000000013
#00915:0000130000000013
#0091b:00130013
#00912:0013
#00918:0013
#01214:00000013
#01219:00000013
#01218:00000013000000000000000000000000
#01215:00000013000000000000000000000000
#02712:0013130000000000
#0271b:0013130000000000
#02714:0000000024000024
#02718:00000000000000000000002400000000
#04718:00001313
#04715:0000000000130000
#04712:0000130000000024
#0471b:00130000
#0501b:13
#05015:0013000000130000
#05018:00131300
#05012:0000001300001400
#0501a:00000014
#0511b:1300000000000013
#05112:1313
#05114:00130000
#05118:00000013
#05115:0000000000130000
#05119:00130000
#05215:0013000000130013
#05218:00131300
#05212:0000001300000000
#0521b:00000013
#05818:00000014
#05814:0000000000000014
#05618:0013000000130013
#05615:00131300
#0561b:0000001300000000
#05612:00000013
#05715:0000000000130013
#05718:00000013
#06015:00001313
#06018:0000000000130000
#0601b:0000000000000013
#06012:0000000000000013
#06312:0013000000000000
#06318:00130013
#06315:0000001300130000
#0631b:0013
#06415:00130000
#06418:00000013
#06512:0000131300000000
#0651b:0000131300000000
#07718:0000130000000013
#07715:0000001300001300
#07712:14
#0771b:0000000000130000
#04518:0000130000000013
#04512:00130013
#0451b:0013
#04515:0013
#04510:41
#05512:1400000000000013
#05519:00130000
#0551b:0013
#05515:00000013
#05518:0000000000130000
#05514:00130000
#0551a:14
#0551f:00110000
#05415:0000000000130013
#05412:0014000000000000
#0541a:00140000
#05418:00000013
#0111b:0000000000001313
#01118:00130000
#01115:0013
#01112:0000000000001313
#0021a:1414000014000000
#00214:0000141400000000
#00218:00000000000000000000001400000000
#00312:1414
#00314:00000000000000000000001400000000
#00318:0000141400000000
#00418:0013001300000000
#00415:00130000
#00416:00000014
#00412:0000000000240024
#0041a:0000000000240024
#00712:00140000
#0071a:0014
#00714:00000014
#00718:0000000000000014
#00812:0013000000000013
#00818:00130013
#00815:0000001300130000
#0081b:0013
#01018:13130013
#01012:0013000000000013
#01015:0000001300000000
#01918:00130013
#01912:0000000013000013
#01915:0013000000130000
#0191b:0000000000000013
#01312:1313
#0131b:13130013
#01315:0000130000000013
#01318:0013
#01310:41
#02012:0000000000000013
#02015:0000002300000000
#02018:0000002300000000
#0211b:00130000
#02116:0000001300000000
#02114:0000000000130000
#02117:00000013
#02119:0013
#02112:0000000000000013
#02412:0000000000140000
#02416:00000014
#0241a:0000000000000014
#02418:0013000000000000
#02512:0013000000000013
#02518:00130013
#02515:0000001300130000
#0251b:0013
#02215:0013000000130000
#02218:00000013
#0221b:0000000000000013
#02210:0000000000000041
#02818:0026000000130000
#02815:00000013
#0281b:0000000000000023
#02812:00260000
#0291b:0000000000001313
#02915:0000000000001313
#02912:0023
#03018:0013000000001300
#03015:0000130000130000
#03012:0000001300000013
#0301b:0000001300000013
#04615:13130033
#0461b:0013000000003300
#04618:0000001300000000
#04914:00140000
#04918:00140000
#05318:00000000000000000000001400000000
#0531a:0014
#0591b:0013000000000023
#05918:0000001300001300
#05915:0000130000130000
#05912:0000000000000023
#07212:00000013
#07218:00130013
#07215:0013001300000000
#0721b:0000001300000000
#0761a:00000014
#07612:00330000
#07618:00330000
#08014:00000013
#08019:00000013
#0801b:00330000
#08015:00330000
#08112:13
#08118:0013000000000013
#08115:00130013
#0811b:0000001300000000
#08214:0000000000001414
#0821a:0024
#08212:0024
#0831a:14
#08318:00000014000000000000000014001400
#08312:0000000014140000
#08412:14
#08414:00000014000000000000000014001400
#0841a:0014
#0851a:14
#08518:00000014000000000000000013000000
#08515:0000000000130013
#08616:00140000
#08612:0024002400002400
#0861a:0024002400002400
#07812:13000013
#07818:0013000000001300
#07815:00130000
#0781b:0000001300000000
#07810:41
#03318:0000000000001313
#03312:0000000000001313
#0331b:0023
#03418:0013000000001300
#03415:0000130000130000
#03412:0000001300000013
#0341b:0000001300000013
#0351b:0000130000000013
#03515:00130013
#03512:0013
#03518:0000000000130000
#03612:0013130000000023
#03618:0013130000001300
#03615:0000000000130000
#0621a:0000000000140000
#06214:00330014
#06218:0000000000000014
#0311b:0000000000001313
#03115:0000000000001313
#06912:0000141400000013
#0691a:0000141400000000
#06915:0000000000130000
#06918:00000013
#06715:0000000000130013
#06718:0000141400001300
#0671b:0000000000000013
#06712:0000141400000000
#0671a:24
#06710:0000004100000000
#06818:0013001300000000
#06815:00130000
#06812:0000001300001300
#0681b:00000013
#07118:0000000000130013
#07115:00000013
#07112:2400000000000013
#0711a:0000141400000000
#07114:0000141400000000
#06614:0014000000000000
#06618:00140000
#06612:0000002400000000
#0661f:0000002100000000
#07012:00140000
#0701b:13
#0701a:0000002400000000
#0731b:13
#07315:0013000000000000
#07318:00130000
#07312:0000001300000014
#0731a:0000000000140000
#07316:00000014
#0141b:13000013
#01412:0013001300000000
#01418:00130000
#01415:0000000000000013
#01718:0000130000000013
#01712:00130013
#0171b:0013
#01715:0013
#0151a:00140000
#01512:0014
#01518:00000014
#01514:0000000000000014
#0161b:0013000000000013
#01615:00130013
#01618:0000001300130000
#01612:0013
#01815:13130013
#0181b:0013000000000013
#01818:0000001300000000
#02312:00130000
#02317:0000001300000000
#02319:0000000000130000
#02316:00000013
#02314:0013
#0231b:0000000000000013
#0261b:0013000000000013
#02615:00130013
#02618:0000001300130000
#02612:0013
#03712:0000000000001313
#03718:0000000000001313
#0371b:0023
#03815:0013000000001300
#03818:0000130000130000
#0381b:0000001300000013
#03812:0000001300000013
#04015:0013000000001300
#0401b:00130000
#04012:0000001300000000
#04018:0000000013000023
#04115:0000000000001313
#0411b:0000000000001313
#04112:0023
#04215:0013000000001300
#04218:0000130000130000
#0421b:0000001300000013
#04212:0000001300000013
#03912:0000000000001313
#03918:0000000000001313
#04312:0000130000000013
#04318:00130013
#0431b:0013
#04315:0000000000130000
#0441a:0014000000000000
#04416:00140000
#04412:0000001400000000
#07415:00000013
#0741b:00000013
#07512:1300000000130000
#07518:13001313
#0751b:00130000
#07515:0000001300000013
#0791b:1300000000130000
#07915:13001313
#07912:00130000
#07918:0000001300000013
#03218:0013000000001300
#03212:00130000
#0321b:0000001300000000
#03215:0000000013000023
#03210:0000000000000041
#0481a:0000002400002400
#04812:00000024
#0001a:00000024
#06114:00330000
#06119:00000033
#0065b:0000005300000000
#00152:1464
#00154:00000000000000000000006400000000
#05052:00000014
#0505a:00000014
#05658:0000000000000063
#06552:0000005300000000
#0655b:0000006300000000
#06555:00000013
#06558:00000013
#00452:0000000000000014
#0045a:0000000000000014
#02055:0000001300000000
#02058:0000001300000000
#02052:0000000000000053
#02754:0000000014000014
#02758:00000000000000000000001400000000
#0285b:0000000000000053
#02852:00160000
#0825a:0014
#08252:0014
#08652:0000001400001400
#0865a:0000001400001400
#08752:0000001400000000
#0875a:0000001400000000
#02957:00130000
#02952:0013
#01258:00000023000000000000000000000000
#01255:00000023000000000000000000000000
#0115b:0000000000000063
#01152:0000000000000053
#0005a:00000014
#0025a:0054
#00258:00000000000000000000005400000000
#00352:1464
#00354:00000000000000000000006400000000
#01055:0000005300000000
#04954:00240000
#04958:00240000
#0535a:0000000064000014
#05352:00130000
#05358:00000000000000000000005400000000
#0545a:00640000
#0575b:00130000
#05755:0000000000000053
#05852:00130000
#05952:0000000000000053
#0595b:0000000000000063
#06156:0000001300000000
#06157:0000000000000013
#06256:0000001300000000
#0765a:00000014
#07658:0000001300000000
#07652:0000001300000000
#07752:14
#0815b:0000005300000000
#0835a:54
#08358:00000054000000000000000000000000
#08452:64
#08454:00000064000000000000000000000000
#0845a:0014
#0855a:54
#08558:00000054000000000000000000000000
#04852:00000054
#0485a:0000001400006400
#0445a:0000000000000014
#04655:0000000000000013
#0465b:0000000000000013
#0785b:0000001300000000
#06652:0000006400000000
#06656:00000014
#0685b:00000063
#06852:00000053
#0705a:0000006400000000
#07056:00000014
#07458:0000001400000000
#01452:0000006300000000
#01858:0000006300000000
#0195b:0000000000000053
#01952:0000000000000053
#02152:0000000000000053
#02255:0053000000000000
#0225b:0000000000000063
#0235b:0000000000000063
#02458:0063000000000000
#03652:0000000000000063
#03756:00130000
#0375b:0013
#04752:0000000000000014
#05255:0000000000000053
#08055:0000001300000000
#0805b:0000001300000000
#0675a:14
#07152:14
#04152:0013
#0415b:00130000
#04058:0000000000000053
#03255:0000000000000063
#03352:00130000
#0335b:0013
#0003a0:0000000014342400
#000390:00000000000000000034003400000000
#001320:0000000014000024
#001340:00000000000000000000003400000000
#0023a0:0000000014000024
#002380:00000000000000000000003400000000
#003320:0000000014000024
#003340:00000000000000000000003400000000
#0063b0:0000001300000000
#006380:0000000000230000
#010350:0000001300000000
#010320:0000000000230000
#0113b0:0000000000000013
#012380:00000053000000000000000000000000
#0123b0:0023
#011321:0000000000000013
#012351:00000053000000000000000000000000
#012321:0023
#014321:0000001300000000
#014351:0000000000230000
#018381:0000001300000000
#0183b1:0000000000230000
#019321:0000000000000013
#020351:0033002300000000
#0193b0:0000000000000013
#020380:0033002300000000
#020320:0000000000000013
#021360:0023000000000000
#021320:0000000000000013
#022350:0033000000000000
#022320:0000002300000000
#0223b0:0000000000000013
#023370:0023000000000000
#0233b0:0000000000000013
#024380:0033000000000000
#0243b0:0000002300000000
#0283b0:0000000000000013
#029370:00230000
#0313b0:00130000
#031380:0023
#031351:00130000
#031321:0023
#032351:0000000000000013
#033321:0033230000000000
#036321:0000000000000013
#037361:00230000
#039321:00130000
#039351:0023
#039380:00130000
#0393b0:0023
#040380:0000000000000013
#0413b0:0033230000000000
#044380:00001434
#0443a0:0000000000340024
#046320:0000000000130000
#046350:0000000000003323
#046381:0000000000130000
#0463b1:0000000000003323
#048321:00000014
#049341:00540000
#049321:00000024
#0483a0:00000014
#049380:00540000
#0493a0:00000024
#052350:0000000000000013
#053320:0033230000000000
#0533a0:0000000014000024
#053380:00000000000000000000003400000000
#0543a0:00140000
#054360:00000000000000240000000000000000
#056380:0000000000000013
#0573b0:0033230000000000
#057350:0000000000000013
#058320:0033230000000000
#059320:0000000000000013
#060350:00230000
#0593b1:0000000000000013
#060381:00230000
#061321:0013000000000000
#061341:00330000
#061361:0000002300000000
#0613b1:0000000000130000
#061391:00000033
#061371:0000000000000023
#062321:0013000000000000
#062341:00330000
#062361:0000002300000000
#063321:0000000000000013
#064351:0023000000000000
#0643b1:0000001300000000
#064381:0000000000230000
#064321:0000000000000013
#065351:0023000000000000
#065321:0000001300000000
#065351:00000023
#0653b0:0000001300000000
#065380:00000023
#066320:0000001400000000
#066360:00000024
#0683b0:00000013
#069380:23
#068321:00000013
#069351:23
#0703a1:0000001400000000
#070361:0000000000342400
#0743a1:14340000
#074381:0034002400000000
#0763b1:0013000000000000
#076381:0000332300000000
#076350:0013000000000000
#076320:0000332300000000
#080320:0013000000000000
#080350:0000332300000000
#080381:0013000000000000
#0803b1:0000332300000000
#0813b1:0000001300000000
#081381:0000000000230000
#082321:13
#082351:00230000
#0823b0:13
#082380:00230000
#0833a0:1400002400000000
#083380:00000034000000000000000000000000
#084320:1400002400000000
#084340:00000034000000000000000000000000
#0853a0:1400002400000000
#085380:00000034000000000000000000000000
