This file was generated by Ched 2.6.4.0.
#TITLE ""
#ARTIST ""
#DESIGNER ""
#DIFFICULTY 0
#PLAYLEVEL
#SONGID ""
#WAVE ""
#WAVEOFFSET 0
#JACKET ""
#REQUEST "ticks_per_beat 480"
#00002: 4
#BPM01: 148
#00008: 01
#TIL00: ""
#HISPEED 00
#MEASUREHS 00
#00118:00000013000013000000000013001600
#00112:24000000130000000013000000000000
#00115:00001300000000130000000000130000
#0011b:00000000000000001300001300000000
#00416:00000014
#00412:0013001300240024
#00418:00000013000000130000000000000000
#00415:00131300
#0041b:00000000001300000000000000000000
#0041a:0000000000240024
#0051b:0013130000000000
#00516:00131300
#00517:0000001300000013
#00512:0000001300130013
#00515:00000000000000000000001300000000
#00518:00000013
#00619:13000013
#0061b:0013000000000000
#00614:00131313
#00616:0013000000130000
#00617:0000001300000013
#00612:0000001300000013
#00717:0000000000001313
#00712:0000130000001313
#00716:0014140014000000
#0071b:0013000013000000
#0081b:0013130000001300
#00812:00131300
#00819:0000001300130013
#00817:0013
#00814:0000000000130000
#00816:00000013
#00917:1300001300000013
#00912:1400001300130013
#0091b:0013130013000000
#00916:00130000
#00915:00000000000000000000001300000000
#00918:00000013
#0031a:14
#00315:00000013000013000000000013000000
#0031b:00000000130000000013000000000000
#00318:00001300000000130000000000130000
#00312:00000000000000001300001300001600
#01216:0000000000131400
#01214:0000000013000014
#01219:0013
#01217:00130000000013000000000000000000
#01212:00130000000013000000000000000000
#0121b:0000000000130000
#0121a:00000000000000000000000000140000
#01218:00000000000000000000000000000014
#02119:00131313
#02117:0000001300000013
#0211b:0000000000130000
#02116:0013000000130000
#02112:0000001300000013
#02412:0013000000130000
#02414:00000013
#02417:0013000000130000
#02419:00000013
#0241b:0000000000000013
#0251b:0013000000001300
#02519:0000130000130000
#02517:0000001313000000
#02516:0013000000000000
#02512:00000000000000130000000000001300
#02712:0014140000130000
#02718:0014141326000026
#02716:14
#02715:00000000000000130000002600130000
#02916:13
#02917:0000001300130000
#0291b:0000230023001313
#02912:0013230013001300
#0311b:1300000000130000
#03116:00130000140000001400130000000000
#03114:00000013
#03119:00000013
#03117:0000000000000013
#03112:0000000000000013
#0201b:13
#02012:0000002300000013
#02017:0000002300000013
#02016:13
#02018:0000000000130000
#02015:00000013
#01917:0000130000000013
#0191b:0013000000130000
#01912:0000130000000013
#01914:00000013
#01916:00000000000000131300130000000000
#01919:00000013
#03215:0000000000130000
#03218:00000013
#0321b:0013001300000023
#03212:0000130013000023
#03217:00131300
#03216:0000001300000000
#03210:0000000000000041
#03519:0000000000130000
#03513:00000013
#0351b:0013000000000013
#03512:0000130000000013
#03516:0014
#03514:0000000000130000
#0351a:00000013
#03515:13
#03518:00130000000000000000000000000000
#03517:00130000
#04712:1414001300000013
#0471a:0014140000000000
#04714:00001313
#0471b:0000000000130000
#04719:00001313
#04716:14240000
#0511a:14
#05112:14130013
#05117:00130013
#05114:0000000000130000
#05119:0000000000130000
#0511b:0000000000000013
#05116:00000000000000001300000000000013
#05212:0013130000131300
#05214:0013
#05217:00000000000000000000001300000000
#05216:0000000000000013
#0521b:1300001300000013
#05219:0013
#05312:14000000140000000013001300000000
#05316:0014000000000000
#0531b:00000000000013000000001300000000
#05315:00000000000000130000000000000000
#05318:00000000000000001300000000140000
#05314:0000000000000014
#05416:00001300000000000013001300001400
#0541b:0013000000130000
#0541a:00000014
#05412:0000131300000000
#05417:00000000001300130000000000000000
#05715:00000013000000000000130000000000
#05712:0013001300001300
#05717:0000001300000000
#05718:00130013
#05716:0000000000000013
#0571b:0000000000000013
#05815:00000000130000000000001300000013
#05818:00000013000000000000130000001300
#0581b:0013001300001300
#05816:0000001300000000
#05812:00000000000000000000000000130000
#05617:0000000000000013
#0561b:0013130000131300
#05619:0013
#05616:00000000000000000000001300000000
#05612:1300001300000013
#05614:0013
#05917:0012121212121200
#0591b:1313
#05912:00130013
#05919:0000000000000024
#05913:0000000000000024
#06014:0013131300000000
#06019:0013131300000000
#06012:0000000013000014
#06018:0000000000131300
#0601a:0000000000000014
#06015:00000000000000000000001300130000
#0601b:0013
#06316:0013000000001300
#06314:0000130000130000
#06312:0000001313000013
#08618:1300000000140000
#08614:0000000000140000
#08616:00140000
#08612:0024002400002400
#0861a:0024002400002400
#04518:1300130000131300
#04512:00130000
#0451b:0013
#04515:00000000000000001300001300000000
#04516:0014001400000013
#04510:41
#00014:0000000014140000
#00018:00000000000000000014001400000000
#00016:0000000000000014
#0001a:00000024
#00012:00000024
#00212:13130000
#00218:0013001300000000
#00217:0000000000130000
#00219:00000000000000000000000000130000
#0021b:13
#02216:0013000000000013
#0221b:0013000000000013
#02215:0000000000130000
#02218:00000013
#02210:0000000000000041
#02614:0000130000130014
#0261a:0000000000000014
#02612:0013000000001300
#02616:0000001313000000
#02617:0013000000000000
#0261b:00000000000000130000000000000000
#02818:00000000240000000013001300130000
#02815:0000000013131300
#02814:0024000000000000
#02812:0000240000000023
#0281a:0024000000000000
#0281b:0000000000000023
#0301b:0013001300001300
#03016:0013001300001300
#03012:0000130000130013
#03017:0000130000000013
#03317:13
#0331b:0013230000001300
#03316:0000001300140000
#03312:0000230013000013
#03315:00000013
#0341b:0000130000130013
#03416:00130000
#03412:0013000000000013
#03417:0000001300000000
#03414:00000013
#03419:00000013
#03612:0000000013000023
#0361b:0000000013000023
#03618:0000000000131300
#03615:00000000000000000000001300130000
#04612:1300000013130000
#04617:00130000
#0461b:0000001300001313
#04815:00001300000000000013000000000000
#04818:00000013000000001300000026000000
#0481b:00130000
#04812:0000002400132600
#0481a:24
#04816:2400002400000000
#04913:14001400140014000000000000130000
#04919:1414141400001300
#04915:00000000000000000013000000000000
#0491b:0013
#04914:00000000000000000000001300000000
#0491a:0000000000130000
#04912:00000000000000000000000000000013
#04918:0000000000000013
#0501a:14000000140000140014000000000000
#05012:00140014000014000000140016000000
#05016:0014000014000000
#05018:00000016
#05512:1400000000000013
#0551a:14
#0551b:00130013
#05516:00130013
#05519:0000000000130000
#05514:0000000000130000
#05517:00000000000000001300000000000013
#0551f:00110000
#0611a:0014001400000000
#06112:0013000000141a14
#06114:001a0000
#06116:0000001300000000
#06117:0000000000130000
#0611b:0000000000000013
#0621a:0014001400000000
#06212:0000001300141a14
#06216:0013000000000000
#06214:001a0000
#0621b:0000000000130000
#06217:0000000000000013
#0771a:14
#07716:1400000000130000
#07712:0000001300000013
#07719:00000013
#0771b:0000130000130000
#07715:00000013000000000000000000000000
#07718:0013000000000000
#07714:00001313
#07717:0000000000000013
#07516:14001414
#07518:0013000000140000
#07514:0000001400000014
#07512:00130000
#0751a:14
#07515:00000013000000000000000000000000
#0751b:0000000000000013
#07412:00000014
#07416:0000000000001414
#07415:0013
#06612:1300002400142400
#0661b:13
#06618:0013130000000000
#06615:00000013001300000000000000000000
#06616:0000000014000014
#0661a:0000002400002400
#0661f:0000002100000000
#07616:1300140000001414
#07612:13000014
#07614:0014000000000000
#07618:00000000000014000013000000000000
#07615:0013
#0761b:0000000000130000
#08015:00000000000000000013000000001300
#08018:00001400000000001300000000000013
#0801a:00000014
#08016:00140000
#08014:0000001400000000
#08012:0000000000131400
#08017:13
#0801b:13
#0811b:13130000
#08114:0013001400000000
#08115:0000000000130013
#08112:13130013
#08119:0013000000000000
#08118:0000001400000000
#08212:13132600
#08218:00001300000013000000130000000013
#08215:00000013000000000000001313001300
#0821b:00130000
#08412:0014
#08416:0013000000000000
#08414:00000000001300000000000000000000
#08418:00000000000000000000001313001300
#08415:00000000000000000000130000000013
#08318:1300131600000000
#08312:00130000000000001300000000000000
#0831b:00000013000000001300000013000000
#08315:00000000001300000000130000001300
#08718:0014002600000000
#08714:00140000
#08712:0000002600000000
#01019:13
#0101b:0013000000000013
#01014:00130000
#01016:0013000000130013
#01017:0000001300001300
#01012:0000001300001300
#01112:0013000000130000
#01116:0000130000000013
#0111b:0000130000000013
#01119:00000013
#01117:00000000000000131300130000000000
#01114:00000013
#01312:14130000
#0131b:0013001300130013
#01317:00131300
#01316:0000001300000013
#01318:00000000000000000000001300000000
#01315:00000013
#01310:41
#06412:0000001400000016
#06415:00000013000000000000000000000000
#06418:00001300130000000000001400001600
#0641a:0000001400000000
#06414:0000000000141400
#06518:0016160000000000
#06512:00000016000000000000000000000000
#03717:13
#0371b:0013230013001300
#03716:0000001300130000
#03712:0000230023001313
#04312:0013000013000000
#04319:00000013
#04315:00130000000000000000000000001300
#0431a:0000000000130000
#04313:0000000000130000
#04314:00000013
#0431b:00131300
#04318:1300000000000013
#04316:00130000
#0681a:0000000014140000
#06816:00000000130000000014000000000000
#06812:0013001300001414
#0681b:00130000
#06817:0000001300000000
#0691a:14
#06912:00130000
#06917:0000130000130000
#06916:0014001300000000
#0691b:0000001300000000
#0731a:14
#07314:00140000
#07318:0000141600000000
#07313:0014000000000000
#07319:0014000000000000
#07312:1400001600130000
#06716:0014000000130013
#0671a:2400141400000000
#0671b:0000000000130013
#06712:14140013
#06717:00000013
#06710:0000004100000000
#07016:0000000014000014
#0701a:0000002400142400
#07018:0013130000000000
#07015:00000013000000000000000000000000
#07012:0000002400002400
#0711b:00130013
#07114:0014000000000000
#07116:0000141400141400
#07112:2400000000000013
#07212:0013001300001400
#0721b:00131300
#07217:0000001300000000
#0721a:00000014
#07216:00130000
#07218:00000000000000000013000000000000
#07215:0000000000130000
#07916:14001414
#07914:0000000000140000
#07918:00000013000014000000000000001400
#0791b:00130000
#07915:0013000000000000
#07912:1400000000000013
#0781a:0014140014001400
#07816:1414000000001414
#07812:1400141814000000
#07810:41
#01414:13000013
#01412:0013000000000000
#01419:00131313
#01417:0013000000130000
#01416:0000001300000013
#0141b:0000001300000013
#01516:0014140014001313
#0151b:0000130000001313
#01512:0013000013000000
#01612:0013130000001300
#0161b:00131300
#01614:0000001300130013
#01616:0013
#01619:0000000000130000
#01617:00000013
#01716:1300001300000013
#0171a:14
#01712:0013130013000000
#01717:00130000
#0171b:0000001300130013
#01718:00000000000000000000001300000000
#01715:00000013
#01814:13
#01812:0013000000000013
#01819:00130000
#01817:0013000000130013
#01816:0000001300001300
#0181b:0000001300001300
#02314:00131313
#02316:0000001300000013
#02312:0000000000130000
#02317:0013000000130000
#0231b:0000001300000013
#03912:1300000000130000
#03917:00130000000000000000130000000000
#03916:0000140014000013
#03919:00000013
#03914:00000013
#0391b:0000000000000013
#04018:0000000000130000
#04015:00000013
#04012:0013001300000023
#0401b:0000130013000023
#04016:00131300
#04017:0000001300000000
#03812:0013001300001300
#03817:0013001300001300
#0381b:0000130000130013
#03816:0000130000000013
#04116:1300000000140000
#04112:0013230000001300
#04117:0000001300000000
#0411b:0000230013000013
#04118:00000013
#04212:0000130000130013
#04217:00130000
#0421b:0013000000000013
#04216:0000001300000000
#04219:00000013
#04214:00000013
#0441b:0013000000000000
#0851b:00130000000000000000130000001300
#08515:13000000130000000000001300000013
#08518:00000000001300000000000013000000
#08512:00000013000016000000000000130000
#00752:0000330000000053
#00757:0000000000000043
#00756:00141400
#0075b:0043
#0035a:14
#0035b:00000000000000000063000000000000
#00352:0000000000000016
#00952:1400002300000000
#00956:00530000
#02956:23
#02957:0000002300230013
#0295b:0000430043000013
#02952:00635353
#0205b:23
#02052:0000004300000053
#02057:0000004300000053
#02056:23
#01957:0000630000000053
#01952:0000000000000053
#0355b:0000000000000053
#03552:0000130000000063
#03557:00130000
#04752:14
#0475a:00140000
#05356:0014000000000000
#05352:00140000
#05358:00000000000000000000000000140000
#05354:0000000000000014
#0545a:00000014
#05456:0000000000000014
#05457:00000000000000530000000000000000
#05657:0000000000000063
#0565b:00230000
#05652:23
#0605a:0000000000000014
#05757:0000005300000000
#05756:0000000000000053
#0045a:0000000000000014
#00452:0000000000000054
#02755:00000000000000000000001600000000
#02758:0000000016000016
#02752:00340000
#0285b:0000000000000053
#02852:0000140000000033
#02858:00140000
#0485a:14
#04852:0000001400000000
#04858:00000016
#08652:0000001400001400
#0865a:0000001400001400
#03658:00130000
#03655:0013000000000000
#0365b:0000000000000043
#03652:0000000000000063
#0005a:00000054
#00056:0000000000000024
#00052:00000034
#00152:34000000000000000053000000000000
#0015a:44
#00158:0000000000000016
#00252:53530000
#00258:0053005300000000
#00657:0000006300000013
#00652:0000000000000013
#02156:0053000000530000
#02152:0000005300000053
#02157:0000000000000013
#02256:0053000000000063
#02252:0000001300000000
#02257:0000001300000000
#0225b:0053000000000063
#0265a:0000000000000044
#02657:0063000000000000
#0265b:00000000000000230000000000000000
#0245b:0000001300000043
#02457:0063000000000000
#02452:0063000000000000
#02456:0000001300000000
#03152:0000000013000053
#03157:0000000000000013
#0315b:00130000
#03357:23
#03356:0000002300000000
#0335b:00534300
#03352:0000330000000033
#0325b:0000000000000043
#03252:0000000013000063
#03257:0013
#0505a:00140000
#05052:0000000000141600
#05058:00000016
#0465b:0000002300000013
#04652:0000000000230000
#05157:00530000
#05556:00630000
#05552:14
#0555a:14
#05856:0000006300000000
#05953:0000000000000014
#05959:0000000000000014
#0615a:0014001400000000
#06152:0000000000140014
#0625a:0014001400000000
#06252:0000000000140014
#06257:0000000000000053
#0635b:0000000000000013
#06352:0000000000000013
#06554:00000014
#06558:00000014
#08252:00531600
#0825b:00530000
#08258:0000002300000000
#0775b:00530000
#07757:0000001300000000
#0775a:44
#07556:34
#0755b:0000000000000063
#07456:00000044
#07455:0013
#08154:0000001400000000
#08158:0000006400000000
#08452:0014
#08352:00530000000000000000000000000000
#0835b:00006363
#08355:0000000000630063
#08358:0000004600000000
#08754:00140000
#08758:0014001600000000
#08752:0000001600000000
#01057:0000006300000000
#0105b:0000000000000063
#01056:0000000000000033
#01156:0000530000000063
#0115b:0000000000000063
#01352:14630000
#01356:0000002300000000
#02556:0053000000000000
#02552:00000000000000230000000000003300
#03056:0000003300000000
#0305b:0000002300000000
#0525b:23
#05252:00230000
#06452:0000001400000016
#0645a:0000001400000000
#06458:0000000000000016
#03457:0000004300000000
#0345b:0000000000000013
#03452:0000000000000013
#03757:23
#03756:0000002300230013
#03752:0000330033000013
#0375b:00536363
#06656:0000000024000024
#06652:0000003400006400
#0665a:0000005400004400
#06756:0024001400000033
#0675a:4400001400000000
#0675b:0000000000000023
#06752:54540000
#07056:1300000024000024
#0705a:0000004400005400
#07052:0000006400003400
#0705b:13
#07252:0000001300001400
#0725a:00000014
#06856:00000014
#0685a:0000000000240000
#06852:0000000000000024
#06956:1400006300000000
#0695b:0000001300000000
#07156:0000001400000000
#07152:0000000000000013
#0715a:44
#07352:0000001600000000
#07358:0000001600000000
#07656:23
#07652:00000034
#07658:0000001400000000
#07956:44
#07952:0000000000000053
#07856:0014000000003400
#07852:1400001800000000
#0785a:00140000
#08057:23
#08054:0000001400000000
#0055b:00530000
#00557:0000002300000000
#01257:00230000000000000000000000000000
#01252:00230000000000000000000000000000
#01556:0000140014000033
#0155b:0000430000000063
#01552:0033
#0175a:14
#01757:00630000
#0175b:0000002300000000
#01456:0000005300000013
#0145b:0000000000000013
#01856:0000005300000000
#01852:0000000000000053
#01857:0000000000000043
#02357:0063000000630000
#0235b:0000006300000063
#02356:0000000000000013
#03956:0000000000000013
#0395b:0000000013000063
#03952:00130000
#03857:0000004300000000
#03852:0000002300000000
#04156:23
#04157:0000002300000000
#0415b:0000430000000043
#04152:00633300
#0435b:00130000
#04356:00130000
#04358:0000000000000013
#04355:0000000000000013
#04256:0000003300000000
#04252:0000000000000013
#0425b:0000000000000013
#04052:0000000000000033
#0405b:0000000013000053
#04056:0013
#04558:13
#04555:13
#0855b:00630000000000000000000000000000
#08552:0000003600000000
#0003a0:00000014
#000360:0000000000000054
#0013a0:24
#001320:00000000000000000013000000000000
#001360:00000000000000000000002300000000
#002320:13
#002350:0023000000000000
#002381:0013000000000000
#0023b1:00230000
#002320:00130000
#002350:0000002300000000
#002381:0000001300000000
#0023b1:0023
#002320:0000000013230000
#002340:00000000000000000000001300230000
#002360:0000000000000013
#003360:23
#0033b0:00000000000000000013000000000000
#003370:00000000000000000000002300000000
#004320:0000000000000014
#005360:0024000000000000
#0053b0:00132300
#005370:0000003300000000
#006370:0000001300000000
#0063b0:0000000000230000
#007320:0000000000000013
#008360:0023000000000000
#009360:00132300
#009320:0000003300000000
#010370:0000001300000000
#0103b0:0000000000230000
#0103b0:0000000000000013
#011370:0023000000000000
#011360:00130000
#011320:00000000000000230000000000000000
#0113b0:0000000000000013
#012370:00530000000000000000000000000000
#0123b0:00230000
#011361:0000000000000013
#012321:00530000000000000000000000000000
#012361:00230000
#013321:00132300
#013361:0000003300000000
#014361:0000001300000000
#014321:0000000000230000
#0153b1:0000000000000013
#016371:0023000000000000
#017371:00132300
#0173b1:0000003300000000
#018361:0000001300000000
#018321:0000000000230000
#018321:0000000000000013
#019361:0023000000000000
#019371:00130000
#0193b1:00000000000000230000000000000000
#019371:0000000000000013
#0203b1:53
#020371:0033002300000000
#019320:0000000000000013
#020360:53
#020320:0033002300000000
#020320:0000000000000013
#021360:0033000000330000
#021320:0000003300000033
#022360:0033000000000000
#022320:0000002300000000
#020371:0000000000000013
#0213b1:0023000000000000
#0223b1:0013000000000000
#022371:0000002300000000
#0223b1:0000000000000013
#023371:0033000000330000
#0233b1:0000003300000033
#024371:0033000000000000
#0243b1:0000002300000000
#022360:0000000000000013
#023320:0023000000000000
#024320:0013000000000000
#024360:0000002300000000
#024320:0000000000000013
#025360:0053000000002300
#025320:00000000000000530000000000000000
#0253b0:0000000000000013
#026370:0053000000002300
#0263b0:00000000000000530000000000000000
#0283b0:0000000000000013
#029360:53
#0293b0:0023000000000000
#029320:00133333
#029370:0000005300530023
#0303b0:0000001300000000
#030370:0000000000230000
#0313b0:0013230000000000
#031320:0000001323000000
#031320:0000000000000013
#032360:0023000000000000
#032320:0000000000000013
#033370:53
#033320:0023000000000000
#0333b0:00132300
#033360:0000005300000000
#033370:0000000000000013
#0343b0:53
#034370:0023000000000000
#034320:0000001300230000
#034360:0053
#0353b0:0000000000000013
#036380:0053230000000000
#035321:0000000000000013
#036351:0023000000000000
#036320:0000000000000013
#037370:53
#037320:0023000000000000
#0373b0:00133333
#037360:0000005300530023
#038320:0000001300000000
#038360:0000000000230000
#039320:0013230000000000
#0393b0:0000001323000000
#0393b0:0000000000000013
#040370:0023000000000000
#0403b0:0000000000000013
#041360:53
#0413b0:0023000000000000
#041320:00132300
#041370:0000005300000000
#041360:0000000000000013
#042320:53
#042360:0023000000000000
#0423b0:0000001300230000
#042370:0053
#044320:0013230000000000
#044381:0000132300000000
#044350:0000001323000000
#0443b1:0013
#044381:00000000000000000053230000000000
#044350:0000000000130000
#044320:00000000000000000000005323000000
#044381:00000013
#0443b1:00000000000000000000000000532300
#044320:0000000000000013
#044350:00000000000000000000000000000053
#045350:23
#0453b0:0000000000000013
#046370:33
#0463b0:0023000000000000
#046361:0013002300000000
#046321:00330000
#0463b0:0000001300000000
#046370:0000000000230000
#046321:0000000000130000
#046361:0000000000000023
#051371:00130000
#0513b1:0023
#0523b1:13
#052371:0023000000000000
#052321:00130000
#052361:0000002300000000
#054371:00000000000000130000000000000000
#0543b1:00000000000000000023000000000000
#055361:00130000
#055321:0023
#056321:13
#056361:0023000000000000
#0563b1:00130000
#056371:0000002300000000
#056371:0000000000000013
#0573b1:0023000000000000
#057371:0000001300000000
#0573b1:0000000000230000
#057361:0000000000000013
#058321:0023000000000000
#058361:0000001300000000
#058321:0000000000230000
#062371:0000000000000013
#0633b1:0053000000000023
#065321:0000001600000000
#065341:000000000000000000000000000000000000000000000000000000000000000000000000000000000000000000000000000000000000000000000000000000000000000000000000000000000000000000000000000000000000000000000000000000000000000000000000550000000000000000000000000000000000000000000000000000000000000000000055240000000000000000000000000000000000000000000000000000000000000000000000000000000000000000000000
#065380:0000001600002400
#065370:000000000000000000000000000000000000000000000000000000000000000000000000000000000000000000000000000000000000000000000000000000000000000000000000000000000000000000000000000000000000000000000000000000000000000000000000000000000000000000000000000000000000000000000000000000000000000000000000000000000000000000000000000000000000000000000000000000000000000000000000000000000000000000000000000000000000000000000000000000000000000000000000000000000000000000000000000000000000000000000000000000000000000000000000000000000000000000000000000000000000000000000000000000000000000000000000000000000000000000000000000000000000000000000000000000000000000000000000000000000000000000000000000000000000000000000000000000000000000000000000000000000000000000000000000000000000000000000000000000000000000000000000000000000000000000000000000000000000000000000000000000000000000000000000000000000000000000000000000000000000000000000000000000000000000000000000000000000000000000000000000000000000000000000000000000000000000000000000000000000000000000000000000000000000000000000000000000000000000000000000000000000000000000000000000000000000000000000000000000000000000000000000000000000000000000000000000000000000000000000000000000000000000000000000000000000000000000000000000000000000000000000000000000000000000000000000000000000000000000000000000000000000000000000000000000000000000000000000000000000000000000000000000000000000000000000000000000000000000000000000000000000000000000000000000000000000000000000000000000000000000000000000000000000000000000000000000000000000000000000000000000000000000000000000000000000000000000000000000000000000000000000000000000000000000000000000000000000000000000000000000000000000000000000000000000000000000000000000000000000000000000000000000000000000000000000000000000000000000000000000000000000000000000000000000000000000000000000000000000000000000000000000000000000000000000000000000000000000000000000000000000000000000000000000000000000000000000000000000000000000000000000000000000000000000000000000000000000000000000000000000000000000000000000000000000000000000000000000000000000000000000000000000000000000000000000000000000000000000000000000005500000000000000000000000000000000000000000000000000000000000000000000000000000000000000000000000000000000000000000000000000000000000000000000000000000000000000000000000000000000000000000000000000000000000000000000000000000000000000000000000000000000000000000000000000000000000000000000000000000000000000000000000000000000000000000000000000000000000000000000000000000000000000000000000000000000000000000000000000000000000000000000000000000000000000000000000000000000000000000000000000000000000000000000000000000000000000000000000000000000000000000000000000000000000000000000000000000000000000000000000000000000000000000000000000000000000000000000000000000000000000000000000000000000000000000000000000550000000000000000000000000000000000000000000000000000000000000000000000000000000000000000000000000000000000000000000000000000000000000000000000000000000000000000000000000000000000000000000000000000000000000000000000000000000000000000000000000000000000000000000000000000000000000000000000000000000000000000000000000000000000000000000000000000000000000000000000000000000000000000000000000000000000000000000000000000000000000000000000000000000000000000000000000000000000000000000000000000000000000000000000000000000000000000000000000000000000000000000000000000000000000000000000000000000000000000000000000000000000000000000000000000000000000000000000000000000000000000000000000000000000000000000000000000000000000000000000000000000000000000000000000000000000000000000000000000000000000000000000000000000000000000000000000000000000000000000000000000000000000000000000000000000000000000000000000000000000000000000000000000000000000000000000000000000000000000000000000000000000000000
#0663a0:0000001400240000
#066360:0054
#066320:00000014
#066360:0000000000000054
#067320:34340000
#067360:0054002400000000
#0673b0:0000000000000013
#068370:0023000000000000
#0683a0:0000000000140000
#068360:00000024
#068320:0000000000000014
#069360:24
#069360:0000001300000000
#069320:0000000000230000
#0693b0:00000013
#069370:0000000000000033
#0703b0:23
#069361:00000013
#069321:0000000000000033
#070361:23
#070321:0000001400240000
#070361:0054
#0703a1:00000014
#070361:0000000000000054
#0713a1:24
#071321:0000001300230000
#071361:0000000000000014
#072361:0024000000000000
#0733b1:0000000000132300
#073350:0000000000001323
#073381:0000000000000013
#074381:23
#074320:13
#074350:00532300000000000000000000000000
#074381:0013000000000000
#0743b1:00000053230000000000000000000000
#074350:00130000
#074320:00000000005323000000000000000000
#0743b1:0000001300000000
#074381:00000000000000532300000000000000
#0753b1:0000001323000000
#075321:0000000000132300
#0753b1:0000000000000013
#076361:53
#0763b1:0023000000000000
#0773b1:00130000
#077371:0000002300000000
#079321:0000001323000000
#0793b1:0000000000132300
#079321:0000000000000013
#080371:53
#080321:0023000000000000
#081381:0000001400000000
#0813a1:0000000000340034
#081361:00000034
#082361:24
#082321:00130000
#082351:0000002300000000
#0823b0:00132300
#082380:0000005300000000
#083320:00130000000000000000000000000000
#083360:00000023000000000000000000000000
#0833b0:0013
#083380:0000000000230000
#083351:0000000000130000
#083321:00000023
#0833b0:00000013
#083380:0000000000000023
#083351:0000000000000013
#084321:23
#0843b0:1323000000000000
#084390:00000013002300000000000000000000
#084370:0000001323000000
#0853b0:00130000000000000000000000000000
#085370:00000023000000000000000000000000
